VERSION	0.00.00	1.03.00
FES_MODE	0
BPM_DEF	210.000	210.000	210.000	210.000
MET_DEF	4	4
RESOLUTION	384
CLK_DEF	384
COMPATIBLE_CODE	MA2

BPM	0	0	210.000
MET	0	0	4	4

BRK	2	0	0
TAP	4	0	7
TAP	4	192	7
TAP	5	0	7
TAP	6	0	6
TAP	6	192	6
TAP	7	0	6
TAP	8	0	5
TAP	8	192	5
TAP	9	0	5
TAP	10	0	4
TAP	10	192	4
BRK	11	0	3
BRK	11	0	4
TAP	12	0	3
TAP	12	192	3
TAP	13	0	3
TAP	13	192	3
TAP	14	0	2
TAP	14	192	2
TAP	15	0	2
TAP	16	0	1
TAP	16	192	1
TAP	17	0	1
TAP	17	192	1
TAP	18	0	0
TAP	18	192	0
TAP	19	0	0
TAP	19	0	7
STR	20	0	0
SI_	20	0	0	96	384	3
TAP	23	0	4
STR	24	0	4
SI_	24	0	4	96	384	7
TAP	27	0	0
TTP	28	0	7	B	0	L1
TTP	29	0	0	B	0	L1
TTP	30	0	6	B	0	L1
TTP	31	0	1	B	0	L1
TTP	32	0	5	B	0	L1
TTP	33	0	2	B	0	L1
TTP	34	0	4	B	0	L1
TTP	35	0	0	C	0	L1
HLD	36	0	6	384
HLD	36	0	7	384
HLD	38	0	4	384
HLD	38	0	5	384
TAP	40	0	3
TAP	41	0	2
TAP	42	0	1
TAP	43	0	0
XTP	44	0	0
TAP	44	192	0
TAP	45	0	1
TAP	45	192	1
TAP	46	0	2
TAP	46	192	2
TAP	47	0	3
TAP	47	0	4
TAP	48	0	4
TAP	48	192	4
TAP	49	0	5
TAP	49	192	5
TAP	50	0	6
TAP	50	192	6
XTP	51	0	0
XTP	51	0	7
STR	52	0	7
SI_	52	0	7	96	384	3
STR	54	0	2
SI_	54	0	2	96	384	6
STR	56	0	7
SI_	56	0	7	96	384	2
STR	58	0	0
SI_	58	0	0	96	384	3
TAP	60	0	4
TAP	60	192	4
TAP	61	0	5
TAP	61	192	5
TAP	62	0	6
TAP	62	192	6
TAP	63	0	7
TAP	63	192	7
TAP	64	0	0
TAP	64	192	0
TAP	65	0	7
TAP	65	192	7
TAP	66	0	0
TAP	66	0	7
TAP	66	192	0
TAP	66	192	7
BRK	67	0	0
BRK	67	0	7
XTP	68	0	0
TAP	68	96	0
TAP	68	192	0
XTP	69	0	1
TAP	69	96	1
TAP	69	192	1
XTP	70	0	2
TAP	70	96	2
TAP	70	192	2
XTP	71	0	3
TAP	71	96	3
BRK	71	192	3
BRK	71	192	4
TAP	72	0	4
TAP	72	96	4
TAP	72	192	4
TAP	73	0	5
TAP	73	96	5
TAP	73	192	4
TAP	73	192	5
TAP	74	0	6
TAP	74	96	6
TAP	74	192	6
TAP	75	0	7
TAP	75	96	7
TAP	75	192	0
TAP	75	192	7
HLD	76	0	0	384
HLD	76	0	7	384
TAP	77	192	0
TAP	77	192	7
TAP	78	0	6
TAP	78	96	6
TAP	78	192	5
TAP	78	288	5
TAP	79	0	3
TAP	79	0	4
TAP	79	96	3
TAP	79	96	4
TAP	79	192	3
TAP	79	192	4
TAP	80	0	2
TAP	80	96	2
TAP	80	192	1
TAP	80	288	1
TAP	81	0	0
TAP	81	96	0
TAP	81	192	7
TAP	81	288	7
TAP	82	0	0
TAP	82	0	7
TAP	82	96	0
TAP	82	96	7
TAP	82	192	0
TAP	82	192	7
TAP	82	288	0
TAP	82	288	7
TAP	83	0	1
TAP	83	0	6
TAP	83	96	1
TAP	83	96	6
TAP	83	192	2
TAP	83	192	5
TAP	83	288	2
TAP	83	288	5
BRK	84	0	3
BRK	84	0	4
THO	88	0	0	384	C	1	L1
TAP	90	0	0
TAP	90	96	0
TAP	90	192	0
TAP	91	0	0
TAP	91	0	1
TAP	91	192	0
TAP	91	192	1
TAP	92	0	2
TAP	92	96	2
TAP	92	192	2
TAP	93	0	2
TAP	93	0	3
TAP	93	192	2
TAP	93	192	3
TAP	94	0	4
TAP	94	96	4
TAP	94	192	4
TAP	95	0	4
TAP	95	0	5
TAP	95	192	4
TAP	95	192	5
TAP	96	0	6
TAP	96	96	6
TAP	96	192	6
TAP	96	288	6
XTP	97	0	6
XTP	97	0	7
XTP	97	96	6
XTP	97	96	7
XTP	97	192	6
XTP	97	192	7
TAP	98	0	5
TAP	98	96	5
TAP	98	192	4
TAP	98	192	5
TAP	99	0	3
TAP	99	96	3
TAP	99	192	3
TAP	99	192	4
TAP	100	0	2
TAP	100	96	2
TAP	100	192	2
TAP	100	192	3
TAP	101	0	1
TAP	101	96	1
TAP	101	192	0
TAP	101	192	1
TAP	102	0	7
TAP	102	96	7
TAP	102	192	7
TAP	102	288	7
TAP	103	0	6
TAP	103	96	6
TAP	103	192	6
TAP	103	192	7
TAP	104	0	0
TAP	104	96	0
TAP	104	192	0
TAP	104	288	0
TAP	105	0	1
TAP	105	96	1
HLD	105	192	0	192
HLD	105	192	1	192
TTP	107	0	0	B	0	L1
TTP	107	0	1	B	0	L1
TTP	108	0	5	B	0	L1
TTP	108	0	6	B	0	L1
TTP	109	0	0	C	0	L1
TAP	110	0	7
TAP	110	96	7
TAP	110	192	6
TAP	110	288	6
TAP	111	0	5
TAP	111	96	5
TAP	111	192	4
TAP	111	192	5
XTP	112	0	3
XTP	112	96	3
XTP	112	192	2
XTP	112	288	2
XTP	113	0	1
XTP	113	96	1
XTP	113	192	0
XTP	113	192	1
TAP	114	0	2
TAP	114	96	2
TAP	114	192	3
TAP	114	288	3
TAP	115	0	4
TAP	115	96	4
TAP	115	192	3
TAP	115	192	4
TAP	115	288	3
TAP	115	288	4
TAP	116	0	2
TAP	116	0	5
TAP	116	96	2
TAP	116	96	5
TAP	116	192	1
TAP	116	192	6
TAP	116	288	1
TAP	116	288	6
TAP	117	0	0
TAP	117	0	7
BRK	117	96	0
BRK	117	96	7

T_REC_TAP	201
T_REC_BRK	11
T_REC_XTP	21
T_REC_HLD	8
T_REC_XHO	0
T_REC_STR	6
T_REC_BST	0
T_REC_XST	0
T_REC_TTP	13
T_REC_THO	1
T_REC_SLD	6
T_REC_ALL	267
T_NUM_TAP	241
T_NUM_BRK	11
T_NUM_HLD	9
T_NUM_SLD	6
T_NUM_ALL	267
T_JUDGE_TAP	252
T_JUDGE_HLD	64
T_JUDGE_SLD	6
T_JUDGE_ALL	322
TTM_EACHPAIRS	51
TTM_SCR_TAP	120500
TTM_SCR_BRK	28600
TTM_SCR_HLD	9000
TTM_SCR_SLD	9000
TTM_SCR_ALL	167100
TTM_SCR_S	161050
TTM_SCR_SS	166000
TTM_RAT_ACV	10066

