VERSION	0.00.00	1.03.00
FES_MODE	0
BPM_DEF	145.000	145.000	145.000	145.000
MET_DEF	4	4
RESOLUTION	384
CLK_DEF	384
COMPATIBLE_CODE	MA2

BPM	0	0	145.000
MET	0	0	4	4

TAP	1	96	3
TAP	1	288	3
TAP	2	96	3
TAP	2	288	3
TAP	3	96	3
TAP	3	288	3
TAP	4	96	3
TAP	4	288	3
THO	5	0	0	1152	C	1	M1
TAP	5	96	3
TAP	5	288	3
TAP	6	96	3
TAP	6	288	3
TAP	7	96	3
STR	7	288	3
SCL	7	288	3	96	192	4
TAP	9	0	0
TAP	9	24	7
TAP	9	48	0
TAP	9	72	7
TAP	9	96	1
TAP	9	120	3
TAP	9	144	2
TAP	9	168	3
STR	9	192	1
SI_	9	192	1	96	48	5
TAP	9	240	0
TAP	9	240	6
TAP	9	288	1
TAP	9	288	5
TAP	9	336	7
TAP	10	0	4
TAP	10	0	6
TAP	10	48	2
TAP	10	72	3
TAP	10	96	2
TAP	10	144	1
TAP	10	144	4
STR	10	192	0
SCR	10	192	0	96	48	3
TAP	10	216	5
TAP	10	240	7
TAP	10	264	6
TAP	10	288	0
TAP	11	0	5
TAP	11	24	4
TAP	11	48	6
TAP	11	72	4
TAP	11	96	5
TAP	11	144	3
TAP	11	144	6
TAP	11	192	1
TAP	11	192	4
TAP	11	240	6
TAP	11	264	7
STR	11	288	6
SCL	11	288	6	96	48	3
TAP	11	336	0
STR	12	0	6
SCR	12	0	6	96	48	1
TAP	12	48	1
STR	12	96	6
SI_	12	96	6	96	48	2
TAP	12	144	2
TAP	12	192	6
TAP	12	240	3
BRK	12	288	1
BRK	12	288	5
TAP	13	0	7
TAP	13	24	0
TAP	13	48	7
TAP	13	72	0
TAP	13	96	6
TAP	13	120	4
TAP	13	144	5
STR	13	168	3
SI_	13	168	3	96	48	7
TAP	13	192	4
TAP	13	216	2
TAP	13	264	0
STR	13	336	1
SI_	13	336	1	96	48	4
STR	14	0	5
SI_	14	0	5	96	48	0
TAP	14	48	1
TAP	14	96	5
TAP	14	144	2
TAP	14	192	1
TAP	14	192	3
TAP	14	240	4
TAP	14	240	6
BRK	14	288	0
BRK	14	288	7
TAP	15	0	3
TAP	15	0	4
TAP	15	48	1
TAP	15	72	3
TAP	15	96	2
TAP	15	120	4
TAP	15	144	3
TAP	15	168	5
STR	15	192	4
SI_	15	192	4	96	48	0
TAP	15	240	2
TAP	15	240	6
TAP	15	288	4
STR	16	0	1
SI_	16	0	1	96	48	3
STR	16	48	7
SI_	16	48	7	96	48	5
STR	16	96	1
SI_	16	96	1	96	48	4
STR	16	144	7
SI_	16	144	7	96	48	4
BRK	16	192	1
BRK	16	240	7
BRK	16	288	0
TAP	17	0	2
TAP	17	0	6
TAP	17	48	5
TAP	17	96	2
TAP	17	120	3
TAP	17	144	2
TAP	17	192	1
TAP	17	192	4
TAP	17	240	2
TAP	17	288	5
TAP	17	312	4
TAP	17	336	5
TAP	18	0	3
TAP	18	0	6
TAP	18	48	5
TAP	18	96	3
TAP	18	120	4
TAP	18	144	3
TAP	18	192	1
TAP	18	192	5
TAP	18	240	2
TAP	18	288	4
TAP	18	312	3
TAP	18	336	4
XTP	19	0	2
XTP	19	0	6
TAP	19	48	5
TAP	19	96	2
TAP	19	120	3
TAP	19	144	1
XTP	19	192	3
XTP	19	192	4
TAP	19	240	3
TAP	19	288	5
TAP	19	312	4
TAP	19	336	6
HLD	20	0	5	48
XHO	20	0	7	48
HLD	20	72	0	48
HLD	20	72	2	48
TAP	20	144	1
TAP	20	144	5
HLD	20	192	4	48
XHO	20	192	6	48
HLD	20	264	1	48
HLD	20	264	3	48
TAP	20	336	2
TAP	20	336	6
TAP	21	0	3
XTP	21	0	5
TAP	21	48	4
TAP	21	96	1
TAP	21	120	3
TAP	21	144	1
TAP	21	192	2
XTP	21	192	4
TAP	21	240	5
TAP	21	288	6
TAP	21	312	4
TAP	21	336	6
XTP	22	0	3
TAP	22	0	5
TAP	22	48	2
TAP	22	96	1
TAP	22	120	0
TAP	22	144	1
XTP	22	192	2
TAP	22	192	4
TAP	22	240	5
TAP	22	288	6
TAP	22	312	7
TAP	22	336	6
XTP	23	0	1
TAP	23	0	5
TAP	23	48	2
TAP	23	96	4
TAP	23	120	3
TAP	23	144	4
XTP	23	192	0
TAP	23	192	7
TAP	23	240	1
TAP	23	240	6
STR	23	288	3
SCL	23	288	3	96	240	4
TAP	23	312	4
TAP	23	336	3
TAP	23	360	4
TTP	24	0	0	C	1	M1
TAP	25	0	6
TAP	25	24	4
TAP	25	72	1
TAP	25	96	3
TAP	25	120	2
TAP	25	144	3
TAP	25	168	0
TAP	25	192	7
TAP	25	216	0
TAP	25	240	7
TAP	25	264	1
TAP	25	288	6
TAP	25	336	5
TAP	25	360	4
TAP	26	0	5
TAP	26	48	2
TAP	26	72	3
TAP	26	120	1
TAP	26	120	4
TAP	26	168	0
STR	26	192	7
SCL	26	192	7	96	48	4
TAP	26	216	1
TAP	26	240	0
TAP	26	264	1
TAP	26	288	7
TAP	27	0	2
TAP	27	24	3
TAP	27	48	1
TAP	27	96	5
TAP	27	120	4
TAP	27	144	6
TAP	27	168	4
TAP	27	192	5
TAP	27	240	3
TAP	27	240	6
TAP	27	288	1
TAP	27	288	4
XTP	27	336	7
TAP	28	0	0
TAP	28	0	1
TAP	28	48	6
TAP	28	48	7
TAP	28	96	2
TAP	28	96	3
TAP	28	144	4
TAP	28	144	5
STR	28	192	0
SI_	28	192	0	96	48	4
STR	28	192	7
SI_	28	192	7	96	48	3
TAP	28	216	1
TAP	28	216	6
TAP	28	240	2
TAP	28	240	5
XTP	28	288	0
XTP	28	288	7
TAP	29	0	1
TAP	29	0	6
TAP	29	48	4
TAP	29	48	5
TAP	29	96	2
TAP	29	120	3
TAP	29	144	1
TAP	29	168	3
TAP	29	192	2
TAP	29	240	3
TAP	29	240	5
TAP	29	288	4
TAP	29	312	6
TAP	29	336	4
TAP	29	360	6
TAP	30	0	1
TAP	30	24	3
TAP	30	48	1
TAP	30	72	3
TAP	30	96	0
TAP	30	120	7
TAP	30	144	0
TAP	30	168	7
TAP	30	192	2
TAP	30	192	6
TAP	30	240	3
TAP	30	240	4
TAP	30	288	1
TAP	30	288	5
STR	31	0	6
SI_	31	0	6	96	48	3
STR	31	48	2
SI_	31	48	2	96	48	7
TAP	31	96	6
TAP	31	144	2
STR	31	192	5
SI_	31	192	5	96	48	0
STR	31	240	1
SI_	31	240	1	96	48	4
TAP	31	288	5
TAP	31	336	1
TAP	32	0	6
TAP	32	24	7
TAP	32	48	6
TAP	32	72	7
TAP	32	96	4
TAP	32	120	3
TAP	32	144	4
TAP	32	168	3
STR	32	192	0
SF_	32	192	0	96	48	4
TAP	32	216	1
TAP	32	240	0
TAP	32	264	1
TTP	32	288	0	C	1	M1
TAP	33	0	7
TAP	33	48	0
TAP	33	48	6
TAP	33	96	1
TAP	33	96	5
TAP	33	144	2
TAP	33	168	3
TAP	33	192	0
TAP	33	240	1
TAP	33	240	7
TAP	33	288	2
TAP	33	288	6
TAP	33	336	5
TAP	33	360	4
TAP	34	0	7
TAP	34	48	0
TAP	34	48	6
TAP	34	96	3
TAP	34	144	1
TAP	34	144	7
TAP	34	192	2
STR	34	192	6
SI_	34	192	6	96	48	2
TAP	34	240	3
TAP	34	240	5
TAP	34	288	2
TAP	34	288	6
TAP	35	0	0
TAP	35	0	1
TAP	35	48	6
TAP	35	48	7
TAP	35	96	5
TAP	35	120	4
TAP	35	144	6
TAP	35	168	1
TAP	35	192	3
TAP	35	216	2
TAP	35	240	3
TAP	35	264	1
TAP	35	312	0
TAP	35	312	7
TAP	35	360	6
TAP	36	0	4
TAP	36	24	5
TAP	36	48	4
TAP	36	72	6
TAP	36	96	2
TAP	36	120	3
TAP	36	144	1
STR	36	192	6
SI_	36	192	6	96	48	3
STR	36	192	7
SI_	36	192	7	96	48	2
TAP	36	240	0
TAP	36	240	5
XTP	36	288	6
XTP	36	288	7
TAP	37	0	1
TAP	37	0	4
TAP	37	48	5
TAP	37	72	4
TAP	37	96	6
TAP	37	144	2
TAP	37	168	3
STR	37	192	1
SI_	37	192	1	96	48	5
TAP	37	216	0
TAP	37	240	1
TAP	37	264	0
TAP	37	288	1
TAP	38	0	3
TAP	38	0	6
TAP	38	48	2
TAP	38	72	3
TAP	38	96	1
TAP	38	144	5
TAP	38	168	4
STR	38	192	6
SI_	38	192	6	96	48	2
TAP	38	216	7
TAP	38	240	6
TAP	38	264	7
TAP	38	288	6
TAP	39	0	0
TAP	39	0	1
TAP	39	48	3
TAP	39	48	4
TAP	39	96	6
TAP	39	96	7
TAP	39	120	6
TAP	39	120	7
TAP	39	168	0
TAP	39	168	1
STR	39	192	0
SI_	39	192	0	96	48	5
STR	39	192	1
SI_	39	192	1	96	48	4
TAP	39	240	2
TAP	39	240	7
XTP	39	288	0
XTP	39	288	1
TAP	40	0	6
TAP	40	24	7
TAP	40	48	6
TAP	40	72	7
TAP	40	96	4
TAP	40	120	3
TAP	40	144	4
BST	40	192	2
SCR	40	192	2	96	48	5
BRK	40	240	0
BRK	40	240	7
BRK	40	288	6
STR	41	0	5
SI_	41	0	5	96	48	2
STR	41	0	6
SI_	41	0	6	96	48	1
TAP	41	192	3
TAP	41	192	7
TAP	41	240	2
TAP	41	288	1
TAP	41	288	5
TAP	41	336	6
TAP	42	0	2
TAP	42	0	7
STR	42	48	1
SCR	42	48	1	96	96	7
TAP	42	96	0
TAP	42	144	7
TAP	42	240	4
TAP	42	288	3
TAP	42	336	2
TAP	42	336	4
STR	43	0	1
SI_	43	0	1	96	48	4
STR	43	0	5
SI_	43	0	5	96	48	0
TAP	43	96	1
TAP	43	96	5
HLD	43	192	2	48
HLD	43	192	6	48
STR	43	288	1
SCR	43	288	1	96	48	4
TAP	43	288	5
TAP	43	336	7
STR	44	0	1
SCL	44	0	1	96	48	6
TAP	44	48	6
STR	44	96	1
SI_	44	96	1	96	48	5
TAP	44	144	5
TAP	44	192	1
TAP	44	240	4
BRK	44	288	2
BRK	44	288	6
TAP	45	0	5
TAP	45	24	4
TAP	45	48	7
STR	45	96	1
SI_	45	96	1	96	48	6
STR	45	96	2
SI_	45	96	2	96	48	5
TAP	45	288	3
TAP	45	288	7
TAP	45	336	2
TAP	46	0	0
TAP	46	0	4
STR	46	48	6
SCL	46	48	6	96	96	0
TAP	46	96	7
TAP	46	144	0
TAP	46	240	3
TAP	46	288	4
TAP	46	336	3
TAP	46	336	5
TAP	47	0	4
STR	47	0	6
SI_	47	0	6	96	48	2
TAP	47	96	2
TAP	47	96	6
HLD	47	144	0	96
STR	47	240	7
SI_	47	240	7	96	48	3
STR	47	336	0
SCR	47	336	0	96	48	3
XTP	47	336	7
TAP	48	0	1
XTP	48	48	0
STR	48	48	7
SCL	48	48	7	96	48	4
TAP	48	96	6
STR	48	144	0
SI_	48	144	0	96	48	4
XTP	48	144	7
TAP	48	192	1
XTP	48	240	0
TAP	48	240	7
BRK	48	288	6
STR	49	0	4
SI_	49	0	4	96	480	7
TAP	49	48	4
TAP	49	96	3
TAP	49	144	3
TAP	49	192	2
TAP	49	240	2
TAP	49	288	2
TAP	49	336	2
TAP	50	0	3
TAP	50	48	3
TAP	50	96	4
TAP	50	144	4
TAP	50	192	3
TAP	50	240	3
TAP	50	288	2
XTP	50	336	2
XST	51	0	3
SI_	51	0	3	96	480	0
TAP	51	48	3
TAP	51	96	4
TAP	51	144	4
TAP	51	192	5
TAP	51	240	5
TAP	51	288	5
TAP	51	336	5
TAP	52	0	4
TAP	52	48	4
TAP	52	96	3
TAP	52	144	3
TAP	52	192	4
TAP	52	240	4
TAP	52	288	5
XTP	52	336	5
XST	53	0	4
SI_	53	0	4	96	480	7
TAP	53	48	4
TAP	53	96	3
TAP	53	144	3
XTP	53	192	2
TAP	53	240	2
TAP	53	288	3
XTP	53	336	3
XTP	54	0	4
TAP	54	48	4
TAP	54	96	3
TAP	54	144	3
XTP	54	192	2
TAP	54	240	2
TAP	54	288	1
XTP	54	336	1
BST	55	0	0
SI_	55	0	0	96	48	4
BST	55	0	7
SI_	55	0	7	96	48	3
BST	55	96	0
SCR	55	96	0	96	48	3
BST	55	96	7
SCL	55	96	7	96	48	4
BRK	55	192	0
BRK	55	192	7
XTP	55	288	1
XTP	55	288	6
BRK	56	0	0
BRK	56	48	1
BRK	56	96	2
BRK	56	144	3
BRK	56	192	4
BRK	56	240	5
BRK	56	288	0
BRK	56	288	7
STR	57	0	6
SI_	57	0	6	96	48	3
HLD	57	192	0	96
STR	57	192	6
SUL	57	192	6	96	48	3
BRK	58	0	0
BRK	58	12	1
BRK	58	24	2
BRK	58	36	3
BRK	58	48	4
BRK	58	60	5
BRK	58	72	6
BRK	58	84	7
BRK	58	96	0
STR	58	192	7
SF_	58	192	7	96	48	3
STR	59	0	2
SCL	59	0	2	96	48	7
TAP	59	24	5
TAP	59	48	2
TAP	59	72	5
STR	59	192	6
SCL	59	192	6	96	48	3
SUR	59	192	6	96	48	3
STR	59	240	3
SXR	59	240	3	96	72	3
STR	60	0	4
SI_	60	0	4	96	48	0
STR	60	96	4
SCR	60	96	4	96	12	5
SCR	60	96	4	96	24	6
SCR	60	96	4	96	36	7
SCR	60	96	4	96	48	0
SCR	60	96	4	96	60	1
SCR	60	96	4	96	72	2
SCR	60	96	4	96	84	3
XTP	61	0	1
XTP	61	48	3
XTP	61	48	5
XTP	61	96	0
XTP	61	144	1
XTP	61	144	6
TTP	61	192	0	B	0	M1
TTP	61	192	1	B	0	M1
TTP	61	192	2	B	0	M1
TTP	61	192	3	B	0	M1
TTP	61	192	4	B	0	M1
TTP	61	192	5	B	0	M1
TTP	61	192	5	E	0	M1
TTP	61	192	6	B	0	M1
TTP	61	192	7	B	0	M1
TTP	61	192	7	E	0	M1
XTP	61	288	0
XTP	61	288	7
XTP	62	0	1
XTP	62	48	3
XTP	62	48	5
XTP	62	96	1
XTP	62	144	2
XTP	62	144	6
TTP	62	192	0	C	1	M1
TTP	62	192	0	E	0	M1
TTP	62	192	3	B	0	M1
TTP	62	192	4	E	0	M1
TTP	62	192	7	B	0	M1
XTP	62	288	0
XTP	62	288	7
TAP	63	0	5
HLD	63	48	5	96
TTP	63	96	4	B	0	M1
TTP	63	96	4	E	0	M1
TTP	63	144	1	B	0	M1
TTP	63	144	2	E	0	M1
TAP	63	192	2
HLD	63	240	2	96
TTP	63	288	3	B	0	M1
TTP	63	288	4	B	0	M1
TTP	63	288	4	E	0	M1
TAP	64	0	7
TAP	64	12	6
TAP	64	24	5
TAP	64	36	4
TAP	64	48	3
TAP	64	60	2
TAP	64	72	1
TAP	64	84	0
TAP	64	96	7
TAP	64	108	6
TAP	64	120	5
TAP	64	132	4
TAP	64	144	3
TAP	64	156	2
TAP	64	168	1
TAP	64	180	0
STR	64	192	3
SF_	64	192	3	96	24	7
TAP	64	192	7
BRK	64	288	3
TTP	64	300	0	C	1	M1
BRK	65	96	0
BRK	65	96	6
STR	65	192	5
SI_	65	192	5	96	48	0
TAP	65	240	5
STR	65	288	2
SI_	65	288	2	96	48	7
TAP	65	336	2
STR	66	0	4
SV_	66	0	4	96	48	1
TAP	66	48	4
STR	66	96	3
SV_	66	96	3	96	48	6
TAP	66	144	3
STR	66	192	5
SI_	66	192	5	96	48	0
TAP	66	240	5
STR	66	288	2
SI_	66	288	2	96	48	7
TAP	66	336	2
TAP	67	0	4
TAP	67	48	4
STR	67	96	3
SCL	67	96	3	96	96	7
TAP	67	144	3
STR	67	192	7
SCL	67	192	7	96	96	3
STR	67	288	3
SCL	67	288	3	96	96	7
STR	68	0	7
SCL	68	0	7	96	96	3
STR	68	96	3
SCL	68	96	3	96	96	7
TAP	68	192	7
TAP	68	288	3
STR	69	0	6
SV_	69	0	6	96	48	3
STR	69	0	7
SCR	69	0	7	96	48	2
TAP	69	96	6
TAP	69	96	7
XST	69	192	2
SI_	69	192	2	96	48	7
XTP	69	240	2
STR	69	288	5
SI_	69	288	5	96	48	0
TAP	69	336	5
STR	70	0	3
SV_	70	0	3	96	48	6
TAP	70	48	3
STR	70	96	4
SV_	70	96	4	96	48	1
TAP	70	144	4
STR	70	192	2
SI_	70	192	2	96	48	7
TAP	70	240	2
STR	70	288	5
SI_	70	288	5	96	48	0
TAP	70	336	5
TAP	71	0	3
TAP	71	48	3
TAP	71	96	2
TAP	71	96	4
TAP	71	144	2
STR	71	144	4
SI_	71	144	4	96	48	0
STR	71	240	3
SCL	71	240	3	96	144	4
SUR	71	240	3	96	144	4
TAP	71	240	4
BRK	71	336	3
TTP	72	192	0	C	1	M1
TTP	72	192	2	B	0	M1
TTP	72	192	3	B	0	M1
TTP	72	192	4	B	0	M1
TTP	72	192	5	B	0	M1
BRK	72	288	0
BRK	72	288	7
STR	73	0	1
SI_	73	0	1	96	48	5
TAP	73	48	0
TAP	73	96	1
STR	73	96	6
SI_	73	96	6	96	48	3
TAP	73	144	7
STR	73	192	0
SI_	73	192	0	96	48	4
TAP	73	192	6
TAP	73	240	1
TAP	73	288	0
STR	73	288	6
SI_	73	288	6	96	48	2
TAP	73	336	5
STR	74	0	3
SI_	74	0	3	96	48	0
TAP	74	0	6
TAP	74	48	4
TAP	74	96	3
STR	74	96	5
SI_	74	96	5	96	48	2
TAP	74	144	6
STR	74	192	1
SI_	74	192	1	96	48	4
TAP	74	192	5
TAP	74	240	0
TAP	74	288	1
TAP	74	288	7
XTP	75	0	3
TAP	75	24	4
XTP	75	48	3
TAP	75	72	4
XTP	75	96	2
TAP	75	120	5
XTP	75	144	2
TAP	75	168	5
XTP	75	192	0
TAP	75	216	7
XTP	75	240	1
TAP	75	264	6
XTP	75	288	0
TAP	75	312	7
XTP	75	336	1
TAP	75	360	6
STR	76	0	0
SI_	76	0	0	96	48	4
TAP	76	48	1
TAP	76	48	7
TAP	76	96	0
TAP	76	144	6
STR	76	192	7
SF_	76	192	7	96	48	3
TAP	76	240	0
TAP	76	240	6
TAP	76	288	7
XST	77	0	2
SI_	77	0	2	96	48	0
XTP	77	0	4
TAP	77	48	1
TAP	77	96	2
STR	77	96	3
SI_	77	96	3	96	48	7
TAP	77	144	4
STR	77	192	0
SI_	77	192	0	96	48	4
TAP	77	192	3
TAP	77	240	1
TAP	77	288	0
STR	77	288	6
SI_	77	288	6	96	48	3
TAP	77	336	7
STR	78	0	2
SI_	78	0	2	96	48	6
TAP	78	0	6
TAP	78	48	1
TAP	78	96	2
STR	78	96	4
SI_	78	96	4	96	48	7
TAP	78	144	3
STR	78	192	0
SCL	78	192	0	96	48	5
SCR	78	192	0	96	48	3
TAP	78	192	4
TAP	78	240	1
BRK	78	288	0
TAP	79	0	2
TAP	79	24	3
TAP	79	48	2
TAP	79	72	4
TAP	79	96	2
TAP	79	120	3
TAP	79	144	2
TAP	79	168	1
TAP	79	192	2
TAP	79	216	0
TAP	79	240	2
TAP	79	264	7
TAP	79	288	2
TAP	79	312	6
TAP	79	336	2
TAP	79	360	5
STR	80	0	2
SCL	80	0	2	96	48	7
TAP	80	24	4
TAP	80	48	2
TAP	80	72	3
TAP	80	96	2
BST	80	192	3
SF_	80	192	3	96	48	7
BST	80	192	4
SF_	80	192	4	96	48	0
BRK	80	288	3
BRK	80	288	4

T_REC_TAP	520
T_REC_BRK	41
T_REC_XTP	56
T_REC_HLD	12
T_REC_XHO	2
T_REC_STR	92
T_REC_BST	7
T_REC_XST	4
T_REC_TTP	30
T_REC_THO	1
T_REC_SLD	112
T_REC_ALL	877
T_NUM_TAP	702
T_NUM_BRK	48
T_NUM_HLD	15
T_NUM_SLD	112
T_NUM_ALL	877
T_JUDGE_TAP	750
T_JUDGE_HLD	42
T_JUDGE_SLD	112
T_JUDGE_ALL	904
TTM_EACHPAIRS	132
TTM_SCR_TAP	351000
TTM_SCR_BRK	124800
TTM_SCR_HLD	15000
TTM_SCR_SLD	168000
TTM_SCR_ALL	658800
TTM_SCR_S	634400
TTM_SCR_SS	654000
TTM_RAT_ACV	10073

