VERSION	0.00.00	1.03.00
FES_MODE	0
BPM_DEF	145.000	145.000	145.000	145.000
MET_DEF	4	4
RESOLUTION	384
CLK_DEF	384
COMPATIBLE_CODE	MA2

BPM	0	0	145.000
MET	0	0	4	4

TAP	1	96	3
TAP	1	288	3
TAP	2	96	3
TAP	2	288	3
TAP	3	96	3
TAP	3	288	3
TAP	4	96	3
TAP	4	288	3
TAP	5	96	3
TAP	5	288	3
TAP	6	96	3
TAP	6	288	3
TAP	7	96	3
STR	7	288	3
SCL	7	288	3	96	192	4
TTP	8	0	0	C	1	M1
XTP	8	288	0
XTP	8	288	7
TAP	9	0	2
TAP	9	48	2
HLD	9	96	1	96
TAP	9	96	3
TAP	9	192	0
TAP	9	240	0
TAP	9	288	2
TAP	9	288	7
TAP	10	0	4
TAP	10	0	5
TAP	10	96	3
TAP	10	96	4
TAP	10	192	2
TAP	10	192	3
TAP	10	240	2
TAP	10	240	3
XTP	10	288	1
XTP	10	288	4
TAP	11	0	5
TAP	11	48	5
TAP	11	96	4
HLD	11	96	6	96
TAP	11	192	7
TAP	11	240	7
TAP	11	288	0
TAP	11	288	5
TAP	12	0	1
TAP	12	0	3
TAP	12	96	4
TAP	12	96	6
TAP	12	192	0
TAP	12	192	7
TAP	12	240	0
TAP	12	240	7
XTP	12	288	1
XTP	12	288	6
TAP	13	0	2
TAP	13	0	4
TAP	13	96	5
TAP	13	144	5
TAP	13	192	6
TAP	13	192	7
TAP	13	240	6
TAP	13	240	7
TAP	13	336	3
TAP	13	336	5
TAP	14	0	3
TAP	14	0	5
TAP	14	96	2
TAP	14	192	0
TAP	14	192	1
TAP	14	240	0
TAP	14	240	1
XTP	14	288	2
XTP	14	288	7
STR	15	0	6
SI_	15	0	6	96	48	3
STR	15	96	0
SI_	15	96	0	96	48	3
TAP	15	192	7
TAP	15	240	7
TAP	15	288	7
TAP	16	0	4
TAP	16	0	6
TAP	16	96	1
TAP	16	96	3
BRK	16	192	0
BRK	16	240	0
BRK	16	288	0
TTP	17	96	4	B	0	M1
TTP	17	96	5	B	0	M1
TTP	17	288	2	B	0	M1
TTP	17	288	3	B	0	M1
TTP	18	96	4	B	0	M1
TTP	18	96	5	B	0	M1
TTP	18	288	2	B	0	M1
TTP	18	288	3	B	0	M1
HLD	19	0	1	96
HLD	19	0	7	96
HLD	19	192	3	96
HLD	19	192	4	96
HLD	20	0	7	96
HLD	20	192	6	96
HLD	21	0	5	96
HLD	21	192	4	96
HLD	22	0	3	96
HLD	22	192	2	96
HLD	23	0	1	96
HLD	23	192	0	96
STR	23	288	7
SCL	23	288	7	96	192	0
TTP	24	0	0	C	1	M1
TTP	24	0	3	B	0	M1
TTP	24	0	4	B	0	M1
TAP	25	0	2
TAP	25	48	2
TAP	25	96	4
TAP	25	144	4
TAP	25	192	1
TAP	25	192	5
TAP	25	240	1
TAP	25	240	5
TAP	25	288	1
TAP	25	288	5
TAP	26	0	6
TAP	26	48	6
TAP	26	96	4
TAP	26	144	4
TAP	26	192	3
TAP	26	192	5
TAP	26	240	2
TAP	26	240	6
TAP	26	288	2
TAP	26	288	6
TAP	27	0	0
TAP	27	48	0
TAP	27	96	7
TAP	27	144	7
TAP	27	192	1
TAP	27	192	7
TAP	27	240	2
TAP	27	240	6
TAP	27	288	3
TAP	27	288	5
TAP	28	0	2
TAP	28	48	2
TAP	28	96	4
TAP	28	144	4
STR	28	192	3
SI_	28	192	3	96	48	0
STR	28	192	4
SI_	28	192	4	96	48	7
XTP	29	0	0
XTP	29	48	0
XTP	29	96	6
XTP	29	144	6
TAP	29	192	4
TAP	29	240	4
TAP	29	288	7
TAP	29	336	7
TAP	30	0	3
TAP	30	48	2
TAP	30	96	4
TAP	30	144	5
TAP	30	192	0
TAP	30	240	1
TAP	30	240	7
TAP	30	288	2
TAP	30	288	6
STR	31	0	6
SI_	31	0	6	96	48	3
STR	31	0	7
SI_	31	0	7	96	48	2
TAP	31	48	6
TAP	31	48	7
STR	31	192	0
SI_	31	192	0	96	48	5
STR	31	192	1
SI_	31	192	1	96	48	4
TAP	31	240	0
TAP	31	240	1
TAP	32	0	6
TAP	32	0	7
TAP	32	48	6
TAP	32	48	7
TAP	32	96	4
TAP	32	96	5
TAP	32	144	4
TAP	32	144	5
TAP	32	192	2
TAP	32	192	3
TAP	32	240	2
TAP	32	240	3
XTP	32	288	1
XTP	32	288	4
STR	33	0	6
SCL	33	0	6	96	48	3
TAP	33	48	6
TAP	33	96	2
STR	33	192	1
SCR	33	192	1	96	48	4
TAP	33	240	1
TAP	33	288	5
TAP	34	0	7
TAP	34	48	7
TAP	34	96	0
TAP	34	192	3
TAP	34	192	4
TTP	34	288	0	C	1	M1
TTP	34	288	2	B	0	M1
TTP	34	288	5	B	0	M1
STR	35	0	6
SI_	35	0	6	96	48	4
STR	35	0	7
SI_	35	0	7	96	48	3
TAP	35	48	6
TAP	35	48	7
STR	35	192	0
SI_	35	192	0	96	48	4
STR	35	192	1
SI_	35	192	1	96	48	3
TAP	35	240	0
TAP	35	240	1
TAP	36	0	7
TAP	36	48	7
TAP	36	96	0
TAP	36	96	6
TAP	36	144	0
TAP	36	144	6
TAP	36	192	1
TAP	36	192	5
TTP	36	288	0	C	1	M1
TTP	36	288	2	B	0	M1
TTP	36	288	4	B	0	M1
HLD	37	0	7	96
TAP	37	96	0
XTP	37	192	1
XTP	37	192	5
XTP	37	240	1
XTP	37	240	5
XTP	37	288	1
XTP	37	288	5
HLD	38	0	0	96
TAP	38	96	7
XTP	38	192	2
XTP	38	192	6
XTP	38	240	2
XTP	38	240	6
XTP	38	288	2
XTP	38	288	6
STR	39	0	0
SI_	39	0	0	96	48	3
TAP	39	48	0
STR	39	96	7
SI_	39	96	7	96	48	4
TAP	39	144	7
TAP	39	192	0
TAP	39	240	0
TAP	39	288	0
TAP	39	288	7
STR	40	0	3
SI_	40	0	3	96	48	0
STR	40	0	4
SI_	40	0	4	96	48	7
XTP	40	192	0
XTP	40	192	1
XTP	40	240	0
XTP	40	240	7
XTP	40	288	6
TAP	41	0	2
TAP	41	0	4
TAP	41	96	1
TAP	41	96	3
TAP	41	192	6
TAP	41	192	7
TAP	41	288	0
TAP	41	288	1
TAP	42	0	5
TAP	42	0	6
TAP	42	96	2
TAP	42	96	4
TAP	42	192	3
HLD	42	192	5	96
TAP	42	288	4
STR	43	0	3
SCL	43	0	3	96	96	0
STR	43	192	4
SCR	43	192	4	96	96	7
STR	44	0	0
SCR	44	0	0	96	96	3
HLD	44	192	7	96
XTP	44	288	0
TAP	45	0	3
TAP	45	0	5
TAP	45	96	4
TAP	45	96	6
TAP	45	192	0
TAP	45	192	1
TAP	45	288	6
TAP	45	288	7
TAP	46	0	1
TAP	46	0	2
TAP	46	96	3
TAP	46	96	5
HLD	46	192	2	96
TAP	46	192	4
TAP	46	288	3
STR	47	0	4
SCR	47	0	4	96	96	7
XTP	47	192	3
XST	47	288	3
SCL	47	288	3	96	96	0
XST	47	288	7
SCL	47	288	7	96	96	4
HLD	48	192	0	96
XTP	48	288	7
STR	49	0	5
SI_	49	0	5	96	96	2
STR	49	192	1
SI_	49	192	1	96	96	6
STR	50	0	5
SI_	50	0	5	96	96	2
HLD	50	192	1	96
TAP	50	288	3
STR	51	0	2
SI_	51	0	2	96	96	5
TAP	51	0	4
STR	51	192	6
SI_	51	192	6	96	96	1
STR	52	0	2
SI_	52	0	2	96	96	5
HLD	52	192	6	96
TAP	52	288	4
TAP	53	0	3
STR	53	0	5
SI_	53	0	5	96	96	2
STR	53	192	1
SI_	53	192	1	96	96	6
STR	54	0	5
SI_	54	0	5	96	96	2
HLD	54	192	1	96
TAP	54	288	3
TAP	55	0	0
TAP	55	0	4
STR	55	96	0
SI_	55	96	0	96	48	4
TAP	55	96	4
TAP	55	192	5
XTP	55	288	7
XTP	56	0	0
XTP	56	48	1
XTP	56	96	2
XTP	56	144	3
XTP	56	192	4
XTP	56	240	5
XTP	56	288	2
XTP	56	288	6
STR	57	0	7
SI_	57	0	7	96	48	4
HLD	57	192	0	96
STR	57	192	7
SUL	57	192	7	96	48	3
BRK	58	0	0
BRK	58	0	7
BRK	58	48	0
BRK	58	48	7
STR	58	192	0
SF_	58	192	0	96	48	4
TAP	58	240	0
TAP	59	0	2
TAP	59	0	5
TAP	59	48	2
TAP	59	48	5
STR	59	192	7
SLL	59	192	7	96	96	3
TAP	59	240	7
TAP	60	0	0
TAP	60	48	0
TAP	60	96	1
TAP	60	96	7
TAP	60	144	1
TAP	60	144	7
TAP	60	192	2
TAP	60	192	6
TAP	60	240	2
TAP	60	240	6
XTP	60	288	3
XTP	60	288	5
TTP	61	0	1	B	0	M1
TTP	61	48	2	B	0	M1
TTP	61	96	3	B	0	M1
TTP	61	144	4	B	0	M1
TTP	61	192	5	B	0	M1
TTP	61	288	0	C	1	M1
TTP	62	0	1	E	0	M1
TTP	62	48	2	E	0	M1
TTP	62	96	3	E	0	M1
TTP	62	144	4	E	0	M1
TTP	62	192	5	E	0	M1
TTP	62	288	0	C	1	M1
STR	63	0	7
SI_	63	0	7	96	48	3
TAP	63	48	7
STR	63	192	0
SI_	63	192	0	96	48	4
TAP	63	240	0
HLD	64	0	5	144
HLD	64	96	2	48
XTP	64	192	3
XTP	64	192	4
THO	64	288	0	192	C	1	M1
TTP	64	288	2	B	0	M1
TTP	64	288	2	E	0	M1
TTP	64	288	5	B	0	M1
TTP	64	288	6	E	0	M1
XST	65	192	0
SI_	65	192	0	96	48	3
XST	65	192	7
SI_	65	192	7	96	48	4
TAP	66	0	2
TAP	66	0	5
TAP	66	48	2
TAP	66	48	5
TAP	66	96	2
TAP	66	96	5
HLD	66	192	6	96
STR	66	288	4
SCL	66	288	4	96	96	1
STR	67	96	7
SCL	67	96	7	96	96	4
TAP	67	192	0
TAP	67	288	1
HLD	67	336	1	96
TAP	68	48	3
TAP	68	144	0
TAP	68	144	4
TAP	68	240	2
TAP	68	240	6
XTP	68	288	2
XTP	68	288	6
XST	69	0	3
SI_	69	0	3	96	48	0
XST	69	0	4
SI_	69	0	4	96	48	7
XTP	69	192	0
XTP	69	192	7
TAP	69	288	1
TAP	69	288	3
TAP	70	0	4
TAP	70	0	6
TAP	70	48	4
TAP	70	48	6
TAP	70	96	4
TAP	70	96	6
HLD	70	192	1	96
STR	70	288	3
SCR	70	288	3	96	96	6
TAP	71	96	0
HLD	71	144	0	96
STR	71	240	7
SCL	71	240	7	96	192	0
TTP	71	336	0	C	1	M1
TTP	71	336	3	B	0	M1
TTP	71	336	4	B	0	M1
XTP	72	288	0
XTP	72	288	7
TAP	73	0	5
TAP	73	48	5
TAP	73	96	4
HLD	73	96	6	96
TAP	73	192	7
TAP	73	240	7
TAP	73	288	5
TAP	73	336	5
TAP	74	0	3
TAP	74	0	4
TAP	74	96	2
TAP	74	96	3
TAP	74	192	4
TAP	74	192	5
TAP	74	240	4
TAP	74	240	5
XTP	74	288	3
XTP	74	288	6
TAP	75	0	2
TAP	75	48	2
HLD	75	96	1	96
TAP	75	96	3
TAP	75	192	0
TAP	75	240	0
XTP	75	288	2
XTP	75	288	7
STR	76	0	6
SI_	76	0	6	96	48	4
STR	76	0	7
SI_	76	0	7	96	48	3
TAP	76	48	6
TAP	76	48	7
STR	76	192	0
SI_	76	192	0	96	48	4
STR	76	192	1
SI_	76	192	1	96	48	3
TAP	76	240	0
TAP	76	240	1
TAP	77	0	5
TAP	77	48	5
TAP	77	96	3
TAP	77	144	3
TAP	77	192	0
TAP	77	192	2
TAP	77	240	0
TAP	77	240	2
TAP	77	336	3
TAP	77	336	7
TAP	78	0	3
TAP	78	0	7
TAP	78	96	1
TAP	78	96	5
TAP	78	192	6
TAP	78	192	7
TAP	78	240	6
TAP	78	240	7
XTP	78	288	0
XTP	78	288	5
STR	79	0	1
SI_	79	0	1	96	48	4
TAP	79	48	1
STR	79	96	7
SI_	79	96	7	96	48	4
TAP	79	144	7
TAP	79	192	0
TAP	79	240	0
TAP	79	288	0
XTP	80	0	5
XTP	80	48	4
XTP	80	96	3
XTP	80	144	2
BRK	80	192	0
BRK	80	240	0
BRK	80	288	0

T_REC_TAP	283
T_REC_BRK	10
T_REC_XTP	63
T_REC_HLD	32
T_REC_XHO	0
T_REC_STR	50
T_REC_BST	0
T_REC_XST	6
T_REC_TTP	37
T_REC_THO	1
T_REC_SLD	56
T_REC_ALL	538
T_NUM_TAP	439
T_NUM_BRK	10
T_NUM_HLD	33
T_NUM_SLD	56
T_NUM_ALL	538
T_JUDGE_TAP	449
T_JUDGE_HLD	68
T_JUDGE_SLD	56
T_JUDGE_ALL	573
TTM_EACHPAIRS	133
TTM_SCR_TAP	219500
TTM_SCR_BRK	26000
TTM_SCR_HLD	33000
TTM_SCR_SLD	84000
TTM_SCR_ALL	362500
TTM_SCR_S	350700
TTM_SCR_SS	361500
TTM_RAT_ACV	10027

