VERSION	0.00.00	1.03.00
FES_MODE	0
BPM_DEF	145.000	145.000	145.000	145.000
MET_DEF	4	4
RESOLUTION	384
CLK_DEF	384
COMPATIBLE_CODE	MA2

BPM	0	0	145.000
MET	0	0	4	4

TAP	1	96	3
TAP	1	288	3
TAP	2	96	3
TAP	2	288	3
TAP	3	96	3
TAP	3	288	3
TAP	4	96	3
TAP	4	288	3
TAP	5	96	3
TAP	5	288	3
TAP	6	96	3
TAP	6	288	3
TAP	7	96	3
TAP	7	288	3
TTP	8	0	0	C	1	L1
XTP	9	0	0
XTP	9	96	0
TAP	9	192	0
TAP	9	192	7
TAP	10	0	6
TAP	10	96	6
TAP	10	192	6
TAP	10	192	7
TAP	11	0	5
TAP	11	96	5
TAP	11	192	4
TAP	11	192	5
TAP	12	0	3
TAP	12	96	2
TAP	12	192	0
TAP	12	192	1
TAP	13	0	7
TAP	13	96	7
TAP	13	192	0
TAP	13	192	7
TAP	14	0	1
TAP	14	96	1
TAP	14	192	0
TAP	14	192	1
TAP	15	0	2
TAP	15	96	2
TAP	15	192	2
TAP	15	192	3
TAP	16	0	4
TAP	16	96	4
BRK	16	192	3
BRK	16	192	5
STR	17	0	6
SI_	17	0	6	96	192	2
TAP	18	0	1
TAP	18	96	1
TAP	18	192	0
TAP	18	192	7
HLD	19	0	1	192
HLD	19	192	0	192
HLD	20	0	7	192
HLD	20	192	6	192
HLD	21	0	5	192
HLD	21	192	4	192
HLD	22	0	3	192
HLD	22	192	2	192
HLD	23	0	1	192
HLD	23	192	0	192
BRK	24	0	7
HLD	25	0	5	96
TAP	25	96	4
TAP	25	192	4
HLD	26	0	2	96
TAP	26	96	3
TAP	26	192	3
HLD	27	0	5	96
TAP	27	96	4
TAP	27	192	4
TAP	28	0	2
TAP	28	0	3
TAP	28	96	2
TAP	28	96	3
TAP	28	192	2
TAP	28	192	3
HLD	29	0	1	96
TAP	29	96	0
TAP	29	192	0
HLD	30	0	6	96
TAP	30	96	7
TAP	30	192	7
HLD	31	0	1	96
TAP	31	96	0
TAP	31	192	0
TAP	32	0	6
TAP	32	0	7
TAP	32	96	6
TAP	32	96	7
BRK	32	192	6
BRK	32	192	7
TAP	33	0	5
TAP	33	96	5
TAP	33	192	4
TAP	33	288	4
TAP	34	0	3
TAP	34	96	3
TAP	34	192	2
TAP	34	192	4
TAP	35	0	1
TAP	35	96	1
TAP	35	192	0
TAP	35	288	0
TAP	36	0	7
TAP	36	96	7
TAP	36	192	0
TAP	36	192	7
TAP	37	0	1
TAP	37	96	1
TAP	37	192	2
TAP	37	288	2
TAP	38	0	3
TAP	38	96	3
TAP	38	192	2
TAP	38	192	4
TAP	39	0	5
TAP	39	96	5
TAP	39	192	4
TAP	39	288	4
TAP	40	0	3
TAP	40	96	3
TAP	40	96	4
BRK	40	192	2
BRK	40	192	5
BRK	41	0	6
TAP	41	96	6
TAP	41	192	6
TAP	41	192	7
TAP	41	288	6
TAP	41	288	7
TAP	42	0	1
TAP	42	96	1
TAP	42	192	0
TAP	42	192	1
TAP	42	288	0
TAP	42	288	1
TAP	43	0	2
TAP	43	96	2
TAP	43	192	3
TAP	43	288	3
TAP	44	0	4
TAP	44	96	4
TAP	44	192	3
TAP	44	192	5
TAP	45	0	2
TAP	45	96	2
TAP	45	192	2
TAP	45	192	3
TAP	45	288	2
TAP	45	288	3
TAP	46	0	5
TAP	46	96	5
TAP	46	192	4
TAP	46	192	5
TAP	46	288	4
TAP	46	288	5
TAP	47	0	6
TAP	47	96	6
TAP	47	192	7
TAP	47	288	7
TAP	48	0	0
TAP	48	96	0
TAP	48	96	7
TAP	48	192	1
TAP	48	192	6
STR	49	0	5
SI_	49	0	5	96	144	0
STR	50	0	1
SI_	50	0	1	96	144	5
STR	51	0	6
SI_	51	0	6	96	144	2
STR	52	0	1
SI_	52	0	1	96	144	4
XHO	53	0	5	192
XHO	53	192	4	192
XHO	54	0	3	192
XTP	54	192	2
TAP	55	0	3
TAP	55	0	4
TAP	55	96	3
TAP	55	96	4
TAP	55	192	2
TAP	55	192	5
TAP	55	288	2
TAP	55	288	5
BRK	56	0	1
BRK	56	0	6
XTP	57	0	7
HLD	57	192	7	192
BRK	58	0	0
BRK	58	96	0
TAP	58	192	1
TAP	58	288	1
TAP	59	0	2
TAP	59	96	2
TAP	59	192	3
TAP	59	192	4
XTP	60	0	4
XTP	60	96	4
XTP	60	192	3
XTP	60	192	5
TTP	61	0	6	E	0	L1
TTP	61	96	5	B	0	L1
TTP	61	192	4	B	0	L1
TTP	62	0	2	E	0	L1
TTP	62	96	2	B	0	L1
TTP	62	192	3	B	0	L1
XHO	63	0	4	96
XHO	63	0	5	96
XHO	63	192	2	96
XHO	63	192	3	96
TAP	64	0	4
TAP	64	96	3
TAP	64	96	4
BRK	64	192	2
BRK	64	192	5
BRK	64	288	2
BRK	64	288	5
TAP	65	192	6
TAP	65	288	6
TAP	65	288	7
TAP	66	0	1
TAP	66	96	0
TAP	66	96	1
TAP	66	192	1
TAP	66	288	0
TAP	66	288	1
TAP	67	0	2
TAP	67	96	2
TAP	67	192	3
TAP	67	288	3
TAP	68	0	4
TAP	68	96	4
TAP	68	192	3
TAP	68	192	5
TAP	69	0	2
TAP	69	96	2
TAP	69	96	3
TAP	69	192	2
TAP	69	288	2
TAP	69	288	3
TAP	70	0	5
TAP	70	96	4
TAP	70	96	5
TAP	70	192	5
TAP	70	288	4
TAP	70	288	5
TAP	71	0	6
TAP	71	96	6
TAP	71	192	7
TAP	71	288	7
TAP	72	0	0
TAP	72	96	0
TAP	72	96	7
TAP	72	192	1
TAP	72	192	6
TAP	73	0	2
TAP	73	96	2
TAP	73	192	2
TAP	73	192	3
TAP	73	288	2
TAP	73	288	3
TAP	74	0	4
TAP	74	96	4
XTP	74	192	4
XTP	74	192	5
XTP	74	288	4
XTP	74	288	5
TAP	75	0	6
TAP	75	96	6
TAP	75	192	0
TAP	75	192	7
TAP	75	288	0
TAP	75	288	7
TAP	76	0	1
TAP	76	0	6
TAP	76	96	1
TAP	76	96	6
BRK	76	192	1
BRK	76	192	6
TAP	77	0	1
TAP	77	96	1
TAP	77	192	0
TAP	77	192	1
TAP	77	288	0
TAP	77	288	1
TAP	78	0	7
TAP	78	96	7
XTP	78	192	6
XTP	78	192	7
XTP	78	288	6
XTP	78	288	7
TAP	79	0	5
TAP	79	96	5
TAP	79	192	4
TAP	79	288	4
TAP	80	0	3
TAP	80	0	4
TAP	80	96	2
TAP	80	96	5
TAP	80	192	1
TAP	80	192	6
BRK	80	288	0
BRK	80	288	7

T_REC_TAP	230
T_REC_BRK	20
T_REC_XTP	16
T_REC_HLD	17
T_REC_XHO	7
T_REC_STR	5
T_REC_BST	0
T_REC_XST	0
T_REC_TTP	7
T_REC_THO	0
T_REC_SLD	5
T_REC_ALL	307
T_NUM_TAP	258
T_NUM_BRK	20
T_NUM_HLD	24
T_NUM_SLD	5
T_NUM_ALL	307
T_JUDGE_TAP	278
T_JUDGE_HLD	76
T_JUDGE_SLD	5
T_JUDGE_ALL	359
TTM_EACHPAIRS	70
TTM_SCR_TAP	129000
TTM_SCR_BRK	52000
TTM_SCR_HLD	24000
TTM_SCR_SLD	7500
TTM_SCR_ALL	212500
TTM_SCR_S	204200
TTM_SCR_SS	210500
TTM_RAT_ACV	10095

