VERSION	0.00.00	1.03.00
FES_MODE	0
BPM_DEF	145.000	145.000	145.000	145.000
MET_DEF	4	4
RESOLUTION	384
CLK_DEF	384
COMPATIBLE_CODE	MA2

BPM	0	0	145.000
MET	0	0	4	4

TAP	1	96	3
TAP	1	288	3
TAP	2	96	3
TAP	2	288	3
TAP	3	96	3
TAP	3	288	3
TAP	4	96	3
TAP	4	288	3
XTP	5	96	3
XTP	5	288	3
XTP	6	96	3
XTP	6	288	3
STR	7	96	3
SI_	7	96	3	96	288	0
TAP	9	0	7
TAP	9	192	7
TAP	10	0	0
TAP	10	0	7
TAP	11	0	1
TAP	11	192	1
TAP	12	0	2
TAP	12	0	3
TAP	13	0	5
TAP	13	192	5
TAP	14	0	4
TAP	14	0	5
TAP	15	0	6
TAP	15	192	6
TAP	15	192	7
TAP	16	0	0
BRK	16	192	0
XTP	17	0	0
XTP	17	0	7
XTP	18	0	0
XTP	18	0	7
TTP	19	0	1	B	0	L1
TTP	19	192	0	B	0	L1
TTP	20	0	7	B	0	L1
TTP	20	192	6	B	0	L1
TTP	21	0	5	B	0	L1
TTP	21	192	4	B	0	L1
TTP	22	0	3	B	0	L1
TTP	22	192	2	B	0	L1
TTP	23	0	1	B	0	L1
TTP	23	192	0	B	0	L1
TTP	24	0	0	C	1	L1
XTP	25	0	0
TAP	25	192	0
TAP	26	0	1
TAP	26	192	1
TAP	27	0	2
TAP	27	192	2
TAP	28	0	3
TAP	28	96	3
TAP	28	192	3
TAP	29	0	4
TAP	29	192	4
TAP	30	0	5
TAP	30	192	5
TAP	31	0	6
TAP	31	192	6
TAP	32	0	7
TAP	32	96	7
BRK	32	192	7
STR	33	0	7
SI_	33	0	7	96	288	4
TAP	34	192	3
STR	35	0	3
SI_	35	0	3	96	288	0
TAP	36	192	7
STR	37	0	7
SI_	37	0	7	96	288	3
TAP	38	192	2
TAP	39	0	1
TAP	39	192	0
XTP	40	0	0
XTP	40	0	7
XTP	40	192	0
XTP	40	192	7
TAP	41	0	0
TAP	41	96	0
TAP	41	192	0
TAP	42	0	1
TAP	42	96	1
TAP	42	192	1
TAP	43	0	2
TAP	43	96	2
TAP	43	192	2
TAP	44	0	3
TAP	44	96	3
TAP	44	192	3
TAP	44	192	4
TAP	45	0	4
TAP	45	96	4
TAP	45	192	4
TAP	46	0	5
TAP	46	96	5
TAP	46	192	5
TAP	47	0	6
TAP	47	96	6
TAP	47	192	6
TAP	48	0	7
TAP	48	96	7
TAP	48	192	7
HLD	49	0	0	384
HLD	49	0	7	384
HLD	51	0	6	384
HLD	51	0	7	384
HLD	53	0	0	384
HLD	53	0	1	384
HLD	55	0	0	384
HLD	55	0	7	384
XTP	57	0	7
XHO	57	192	0	96
BRK	58	0	7
TAP	58	192	6
TAP	59	0	5
TAP	59	192	3
TAP	59	192	4
TAP	60	0	2
TAP	60	96	2
BRK	60	192	2
TTP	61	0	2	E	0	L1
TTP	61	192	3	E	0	L1
TTP	62	0	4	E	0	L1
TTP	62	192	5	E	0	L1
TTP	63	0	6	E	0	L1
TTP	63	192	7	E	0	L1
TTP	64	0	0	C	1	L1
TTP	64	0	1	B	0	L1
TTP	64	0	6	B	0	L1
XTP	65	0	7
TAP	65	96	7
TAP	65	192	7
TAP	65	288	7
TAP	66	0	6
TAP	66	96	6
TAP	66	192	6
TAP	67	0	5
TAP	67	96	5
TAP	67	192	5
TAP	67	288	5
TAP	68	0	4
TAP	68	96	4
TAP	68	192	3
TAP	68	192	4
TAP	69	0	3
TAP	69	96	3
TAP	69	192	3
TAP	69	288	3
TAP	70	0	2
TAP	70	96	2
TAP	70	192	2
TAP	70	192	3
TAP	71	0	1
TAP	71	96	1
TAP	71	192	1
TAP	71	288	1
TAP	72	0	0
TAP	72	96	0
TAP	72	192	0
TAP	72	192	7
TAP	73	0	1
TAP	73	192	1
TAP	74	0	0
TAP	74	0	1
TAP	74	96	0
TAP	74	96	1
TAP	74	192	0
TAP	74	192	1
TAP	75	0	2
TAP	75	192	2
TAP	76	0	2
TAP	76	0	3
TAP	76	96	2
TAP	76	96	3
TAP	76	192	2
TAP	76	192	3
TAP	77	0	4
TAP	77	192	4
TAP	78	0	4
TAP	78	0	5
TAP	78	96	4
TAP	78	96	5
TAP	78	192	4
TAP	78	192	5
TAP	79	0	6
TAP	79	192	6
TAP	80	0	7
TAP	80	96	7
BRK	80	192	0
BRK	80	288	0

T_REC_TAP	134
T_REC_BRK	6
T_REC_XTP	15
T_REC_HLD	8
T_REC_XHO	1
T_REC_STR	4
T_REC_BST	0
T_REC_XST	0
T_REC_TTP	20
T_REC_THO	0
T_REC_SLD	4
T_REC_ALL	192
T_NUM_TAP	173
T_NUM_BRK	6
T_NUM_HLD	9
T_NUM_SLD	4
T_NUM_ALL	192
T_JUDGE_TAP	179
T_JUDGE_HLD	66
T_JUDGE_SLD	4
T_JUDGE_ALL	249
TTM_EACHPAIRS	26
TTM_SCR_TAP	86500
TTM_SCR_BRK	15600
TTM_SCR_HLD	9000
TTM_SCR_SLD	6000
TTM_SCR_ALL	117100
TTM_SCR_S	113050
TTM_SCR_SS	116500
TTM_RAT_ACV	10051

