VERSION	0.00.00	1.03.00
FES_MODE	0
BPM_DEF	145.000	145.000	145.000	145.000
MET_DEF	4	4
RESOLUTION	384
CLK_DEF	384
COMPATIBLE_CODE	MA2

BPM	0	0	145.000
MET	0	0	4	4

TTP	2	48	4	E	0	M1
TTP	2	96	0	C	0	M1
TTP	2	144	0	E	0	M1
TTP	3	48	3	E	0	M1
TTP	3	96	0	C	0	M1
TTP	3	144	7	E	0	M1
TTP	4	48	5	E	0	M1
TTP	4	96	0	C	0	M1
TTP	4	144	1	E	0	M1
TTP	5	48	4	E	0	M1
TTP	5	96	0	C	0	M1
TTP	5	144	0	E	0	M1
TAP	6	0	3
TTP	6	48	4	E	0	M1
TTP	6	96	0	C	0	M1
TAP	6	96	3
TTP	6	144	0	E	0	M1
TAP	6	192	3
TAP	6	288	3
TAP	7	0	3
TTP	7	48	3	E	0	M1
TTP	7	96	0	C	0	M1
TAP	7	96	3
TTP	7	144	7	E	0	M1
TAP	7	192	3
TAP	7	288	3
TAP	8	0	3
TTP	8	48	5	E	0	M1
TTP	8	96	0	C	0	M1
TAP	8	96	3
TTP	8	144	1	E	0	M1
TAP	8	192	3
TAP	8	288	3
TAP	9	0	3
TTP	9	48	4	B	0	M1
STR	9	96	3
SCL	9	96	3	96	96	7
TTP	9	96	5	B	0	M1
TTP	9	144	6	B	0	M1
XTP	9	192	3
XST	9	192	7
SI_	9	192	7	96	24	3
SI_	9	192	7	96	24	5
XHO	10	0	0	96
XHO	10	0	5	96
TAP	10	120	2
TAP	10	120	6
HLD	10	168	1	48
HLD	10	168	3	48
HLD	10	240	2	48
HLD	10	240	7	48
TAP	10	312	1
TAP	10	336	0
TAP	10	360	7
TAP	11	0	6
TAP	11	24	5
TTP	11	72	7	E	0	M1
TTP	11	120	0	C	0	M1
TTP	11	168	3	E	0	M1
HLD	11	216	3	72
HLD	11	216	5	72
HLD	11	312	1	48
HLD	11	312	4	48
XHO	12	0	3	96
XHO	12	0	7	96
TAP	12	120	4
TAP	12	120	5
HLD	12	168	1	48
HLD	12	168	3	48
TAP	12	240	2
TAP	12	240	7
TAP	12	312	4
TAP	12	336	5
TAP	12	360	3
TAP	13	24	7
TAP	13	36	6
TAP	13	48	5
TAP	13	60	4
TAP	13	72	3
TTP	13	96	6	E	0	M1
TTP	13	120	5	E	0	M1
TTP	13	144	4	E	0	M1
TTP	13	168	3	E	0	M1
HLD	13	216	2	48
HLD	13	216	6	48
HLD	13	288	1	72
HLD	13	288	4	72
XHO	14	0	2	96
XHO	14	0	7	96
TAP	14	120	1
TAP	14	120	5
HLD	14	168	4	48
HLD	14	168	6	48
HLD	14	240	0	48
HLD	14	240	5	48
TAP	14	312	1
TAP	14	312	3
TAP	14	360	4
TAP	14	360	6
HLD	15	24	0	144
TAP	15	24	7
TTP	15	72	1	E	0	M1
TTP	15	96	2	E	0	M1
TTP	15	120	3	E	0	M1
TTP	15	144	4	E	0	M1
TTP	15	168	5	E	0	M1
HLD	15	216	2	72
HLD	15	216	4	72
HLD	15	312	3	48
HLD	15	312	6	48
XHO	16	0	0	96
XHO	16	0	4	96
TAP	16	120	2
TAP	16	120	3
HLD	16	168	4	48
HLD	16	168	6	48
TAP	16	240	0
TAP	16	240	5
BST	16	336	0
SCL	16	336	0	96	624	3
XHO	16	336	1	1296
TAP	19	0	3
TAP	19	96	4
TAP	19	192	5
TAP	19	288	6
TAP	20	0	7
TAP	20	96	0
TAP	20	216	6
TAP	20	240	7
TAP	20	264	6
BRK	20	288	7
XTP	20	294	0
XTP	20	300	1
XTP	20	306	2
XTP	20	312	3
TAP	21	0	0
TAP	21	0	6
TAP	21	48	2
TAP	21	72	2
TAP	21	96	4
HLD	21	120	1	120
TAP	21	168	0
TAP	21	216	6
STR	21	240	6
SLL	21	240	6	96	48	0
TAP	21	288	0
TAP	21	312	0
TAP	22	0	1
TAP	22	24	1
TAP	22	48	7
TAP	22	72	7
HLD	22	96	2	72
HLD	22	120	6	48
TAP	22	192	0
TAP	22	216	1
TAP	22	216	3
TAP	22	288	7
TAP	22	312	4
TAP	22	312	6
TAP	23	0	0
TAP	23	0	5
TAP	23	48	4
TAP	23	72	4
TAP	23	96	2
HLD	23	120	3	48
TAP	23	168	2
STR	23	192	3
SLR	23	192	3	96	72	0
STR	23	240	1
SI_	23	240	1	96	24	4
TAP	24	0	7
TAP	24	24	7
TAP	24	48	4
TAP	24	96	6
TAP	24	120	6
TAP	24	144	3
STR	24	192	5
SLR	24	192	5	96	72	3
TAP	24	216	5
TAP	24	240	2
TAP	24	288	1
TAP	24	312	1
TAP	25	0	0
TAP	25	48	1
TAP	25	72	1
TAP	25	96	3
TAP	25	120	2
TAP	25	144	4
HLD	25	168	3	72
TAP	25	216	6
HLD	25	240	6	96
TTP	25	288	4	E	0	M1
TTP	25	300	3	E	0	M1
TTP	25	312	2	E	0	M1
TTP	25	324	1	E	0	M1
TTP	25	336	0	E	0	M1
TAP	26	0	6
TAP	26	24	7
TAP	26	48	5
TAP	26	72	0
TAP	26	96	4
TAP	26	120	1
TAP	26	144	3
TAP	26	168	2
TAP	26	192	7
TAP	26	216	4
TAP	26	216	6
TAP	26	288	0
TAP	26	312	1
TAP	26	312	3
TAP	27	0	3
TAP	27	0	7
TAP	27	48	6
TAP	27	72	6
TAP	27	96	4
TAP	27	120	5
TAP	27	144	3
HLD	27	168	4	72
TAP	27	216	2
STR	27	240	2
SUR	27	240	2	96	144	4
STR	27	288	6
SUR	27	288	6	96	96	0
TTP	28	192	0	E	0	M1
TTP	28	204	7	B	0	M1
TTP	28	216	6	B	0	M1
TTP	28	228	6	E	0	M1
TTP	28	240	4	E	0	M1
TTP	28	252	3	B	0	M1
TTP	28	264	2	B	0	M1
TTP	28	276	2	E	0	M1
BRK	28	288	0
TAP	29	0	2
HLD	29	0	4	48
TAP	29	48	0
TAP	29	96	2
TAP	29	120	3
TAP	29	144	0
TAP	29	168	3
TAP	29	192	2
TAP	29	240	0
TAP	29	240	7
TAP	29	288	3
TAP	29	288	5
TAP	29	336	0
TAP	29	336	7
TAP	30	0	2
TAP	30	24	6
TAP	30	48	1
TAP	30	72	5
TAP	30	96	0
TAP	30	120	4
TAP	30	144	7
TAP	30	168	3
STR	30	192	0
SI_	30	192	0	96	48	3
TAP	30	216	2
STR	30	240	0
SI_	30	240	0	96	48	5
HLD	31	0	1	48
TAP	31	48	7
TAP	31	96	5
TAP	31	120	4
TAP	31	144	7
TAP	31	168	4
TAP	31	192	5
TAP	31	240	0
TAP	31	240	7
TAP	31	288	2
TAP	31	288	4
TAP	31	336	0
TAP	31	336	7
HLD	31	360	0	48
TAP	32	24	7
TAP	32	48	6
TAP	32	72	5
TTP	32	96	0	E	0	M1
TTP	32	108	1	E	0	M1
TTP	32	120	2	E	0	M1
TTP	32	132	3	E	0	M1
TTP	32	144	4	E	0	M1
TAP	32	168	6
TAP	32	216	2
TAP	32	216	7
TAP	32	264	0
TAP	32	264	7
BRK	32	288	1
BRK	32	288	6
STR	33	0	1
SLL	33	0	1	96	144	2
TAP	33	0	5
TAP	33	48	4
STR	33	96	3
SI_	33	96	3	96	48	6
HLD	33	288	3	264
TAP	33	288	7
TAP	33	336	6
TAP	33	360	6
TAP	34	24	5
TAP	34	72	2
TAP	34	120	5
TAP	34	168	4
STR	34	192	2
SI_	34	192	2	96	48	6
TAP	34	204	1
TAP	34	216	0
TAP	34	228	7
TAP	34	240	6
TAP	34	252	5
XHO	34	288	2	96
TAP	35	0	7
TAP	35	48	0
TAP	35	48	6
TAP	35	96	1
TAP	35	96	5
TAP	35	144	4
TAP	35	168	1
TAP	35	192	4
TAP	35	216	2
TAP	35	240	4
TAP	35	264	3
TAP	35	288	4
BRK	35	336	0
BRK	35	336	6
TAP	36	0	5
TAP	36	24	5
TAP	36	48	4
TAP	36	72	4
TAP	36	96	3
TAP	36	120	3
TAP	36	144	2
TAP	36	168	2
TAP	36	192	1
TAP	36	216	1
TAP	36	240	0
TAP	36	264	0
TAP	36	288	7
TAP	36	312	7
TAP	36	336	6
TAP	36	360	6
TAP	37	0	5
TAP	37	12	4
TAP	37	24	3
TAP	37	36	2
TAP	37	48	1
TAP	37	60	0
TAP	37	72	7
TAP	37	84	6
TAP	37	96	5
TAP	37	108	4
TAP	37	120	3
TAP	37	132	2
TAP	37	144	1
TAP	37	156	0
HLD	37	168	7	48
TAP	37	216	3
TAP	37	228	4
TAP	37	240	5
TAP	37	252	6
TAP	37	264	7
TAP	37	276	0
XST	37	288	1
SI_	37	288	1	96	1296	5
BRK	37	288	4
TTP	39	48	3	B	0	M1
TTP	39	96	0	C	0	M1
TTP	39	144	7	B	0	M1
TTP	40	48	4	E	0	M1
TTP	40	96	0	C	0	M1
TTP	40	144	0	E	0	M1
TTP	41	48	4	B	0	M1
TTP	41	96	0	C	0	M1
TTP	41	144	0	B	0	M1
XTP	41	240	2
XTP	41	240	7
XTP	41	312	4
XTP	41	312	5
HLD	42	0	7	288
TTP	42	48	5	E	0	M1
TTP	42	96	0	C	0	M1
TTP	42	144	1	E	0	M1
HLD	42	336	0	288
TAP	42	336	6
TTP	43	48	3	E	0	M1
TTP	43	96	0	C	0	M1
TTP	43	144	7	E	0	M1
TAP	43	336	1
HLD	43	336	7	1488
TTP	44	96	5	E	0	M1
TTP	44	112	4	E	0	M1
TTP	44	128	3	E	0	M1
TTP	44	144	2	E	0	M1
TTP	44	288	4	E	0	M1
TTP	44	304	3	E	0	M1
TTP	44	320	2	E	0	M1
TTP	44	336	1	E	0	M1
TTP	45	96	3	E	0	M1
TTP	45	112	2	E	0	M1
TTP	45	128	1	E	0	M1
TTP	45	144	0	E	0	M1
TAP	45	288	6
TAP	45	304	5
TAP	45	320	4
XTP	45	336	3
TAP	46	96	5
TAP	46	112	4
TAP	46	128	3
XTP	46	144	2
TAP	46	288	4
TAP	46	304	3
TAP	46	320	2
XTP	46	336	1
TAP	47	96	3
TAP	47	112	2
TAP	47	128	1
XTP	47	144	0
TAP	47	288	4
TAP	47	336	6
TAP	47	352	5
TAP	47	368	6
TAP	48	0	5
TAP	48	16	6
TAP	48	32	5
TAP	48	48	6
TAP	48	64	5
TAP	48	80	6
TAP	48	96	5
TAP	48	112	6
TAP	48	128	5
TAP	48	144	6
TAP	48	160	5
TAP	48	176	6
TAP	48	192	5
TAP	48	208	6
TAP	48	224	5
TAP	48	240	6
TAP	48	256	5
TAP	48	272	6
TAP	48	288	5
TAP	48	304	6
TAP	48	320	5
TAP	48	336	6
TAP	48	352	5
TAP	48	368	6
TAP	49	0	5
TAP	49	16	6
TAP	49	32	5
TAP	49	48	6
TAP	49	64	5
TAP	49	80	6
TAP	49	96	5
TAP	49	112	6
TAP	49	128	5
TAP	49	144	6
TAP	49	160	5
TAP	49	176	6
TAP	49	216	3
TAP	49	240	4
BRK	49	288	2
BRK	49	288	5
TAP	49	336	1
TAP	49	360	1
XST	50	0	7
SCL	50	0	7	96	48	3
TAP	50	48	0
TAP	50	72	0
XTP	50	96	7
TAP	50	120	0
TAP	50	168	0
TAP	50	192	2
TAP	50	216	0
TAP	50	240	7
TAP	50	264	0
TAP	50	288	3
TAP	50	312	0
TAP	50	336	7
HLD	50	360	0	48
TAP	51	24	2
TAP	51	48	0
TAP	51	72	3
TAP	51	96	1
TAP	51	120	4
TAP	51	144	2
TAP	51	168	5
TAP	51	192	0
TAP	51	204	1
TAP	51	216	2
TAP	51	240	4
TAP	51	264	4
TAP	51	288	0
TAP	51	300	7
TAP	51	312	6
TAP	51	324	5
TAP	51	336	4
TAP	51	348	3
TAP	51	360	2
TAP	51	372	1
XST	52	0	0
SCR	52	0	0	96	48	4
XTP	52	0	7
TAP	52	48	7
TAP	52	72	7
XTP	52	96	0
TAP	52	120	7
TAP	52	168	7
TAP	52	192	5
TAP	52	216	7
TAP	52	240	0
TAP	52	264	7
TAP	52	288	4
TAP	52	312	7
TAP	52	336	0
HLD	52	360	7	72
TAP	53	24	5
STR	53	48	5
SI_	53	48	5	96	48	0
TAP	53	96	3
TAP	53	96	7
TAP	53	144	2
TAP	53	144	5
STR	53	192	1
SI_	53	192	1	96	48	3
STR	53	240	3
SI_	53	240	3	96	48	6
TAP	53	288	0
TAP	53	336	0
XST	54	0	7
SCL	54	0	7	96	48	3
TAP	54	48	0
TAP	54	72	0
XTP	54	96	7
TAP	54	120	0
TAP	54	168	0
TAP	54	192	2
TAP	54	216	0
TAP	54	240	7
TAP	54	264	0
TAP	54	288	3
TAP	54	312	0
TAP	54	336	7
HLD	54	360	0	48
TAP	55	24	2
TAP	55	48	0
TAP	55	72	3
TAP	55	96	1
TAP	55	120	4
TAP	55	144	2
TAP	55	168	5
TAP	55	192	0
TAP	55	204	1
TAP	55	216	2
TAP	55	240	4
TAP	55	264	4
TAP	55	312	3
TAP	55	312	6
TAP	55	360	0
TAP	55	360	7
TAP	56	0	1
STR	56	0	6
SI_	56	0	6	96	24	2
SI_	56	0	6	96	24	3
XTP	56	96	6
TAP	56	168	1
TAP	56	168	7
TAP	56	216	2
TAP	56	216	6
TAP	56	264	3
STR	56	264	5
SCR	56	264	5	96	48	0
TAP	56	312	4
TAP	56	312	6
XST	56	360	5
SCL	56	360	5	96	48	2
XST	57	72	5
SCR	57	72	5	96	120	4
TTP	57	168	0	C	1	M1
BRK	57	168	5
TAP	57	336	0
TAP	57	352	1
TAP	57	368	2
XST	58	0	7
SCL	58	0	7	96	48	3
TAP	58	48	0
TAP	58	72	0
XTP	58	96	7
TAP	58	120	0
TAP	58	168	0
TAP	58	192	2
TAP	58	216	1
TAP	58	240	7
TAP	58	264	0
TAP	58	288	3
TAP	58	312	1
TAP	58	336	7
HLD	58	360	0	48
TAP	59	24	2
TAP	59	48	0
TAP	59	72	3
TAP	59	96	1
TAP	59	120	4
TAP	59	144	2
TAP	59	168	5
TAP	59	192	0
TAP	59	204	1
TAP	59	216	2
TAP	59	240	4
TAP	59	264	4
TAP	59	288	0
TAP	59	300	7
TAP	59	312	6
TAP	59	324	5
TAP	59	336	4
TAP	59	348	3
TAP	59	360	2
TAP	59	372	1
XST	60	0	0
SCR	60	0	0	96	48	4
XTP	60	0	7
TAP	60	48	7
TAP	60	72	7
XTP	60	96	0
TAP	60	120	7
TAP	60	168	5
TAP	60	168	7
TAP	60	216	0
TAP	60	240	0
TAP	60	264	2
TAP	60	312	7
TAP	60	336	7
TAP	60	360	5
TAP	61	24	0
HLD	61	48	0	144
TAP	61	96	2
TAP	61	144	4
STR	61	192	6
SLL	61	192	6	96	72	0
STR	61	240	1
SI_	61	240	1	96	24	3
XST	62	0	7
SCL	62	0	7	96	48	3
TAP	62	48	0
TAP	62	72	0
XTP	62	96	7
TAP	62	120	0
TAP	62	168	0
TAP	62	192	2
TAP	62	216	1
TAP	62	240	7
TAP	62	264	0
TAP	62	288	3
TAP	62	312	1
TAP	62	336	7
HLD	62	360	0	48
TAP	63	24	2
TAP	63	48	0
TAP	63	72	3
TAP	63	96	1
TAP	63	120	4
TAP	63	144	2
TAP	63	168	5
TAP	63	192	0
TAP	63	204	1
TAP	63	216	2
TAP	63	240	4
TAP	63	264	4
TAP	63	312	3
TAP	63	312	6
TAP	63	360	0
TAP	63	360	7
TAP	64	0	1
TAP	64	0	6
TTP	64	72	2	E	0	M1
TTP	64	80	2	B	0	M1
TTP	64	88	3	B	0	M1
XTP	64	96	0
TTP	64	96	4	E	0	M1
TAP	64	168	6
TAP	64	168	7
TAP	64	216	4
TAP	64	216	5
TAP	64	264	2
TAP	64	264	3
TAP	64	312	0
TAP	64	312	1
TAP	64	360	6
TAP	64	360	7
TAP	65	24	5
TAP	65	48	4
TAP	65	72	3
TAP	65	72	6
TAP	65	120	2
TAP	65	144	3
TAP	65	168	1
TAP	65	168	4
TAP	65	216	5
TAP	65	240	4
TAP	65	264	3
TAP	65	264	7
TAP	65	312	0
TAP	65	336	0
TAP	65	360	0
STR	66	0	0
SF_	66	0	0	96	48	4
BRK	66	96	0
TAP	66	192	3
TAP	66	192	5
TAP	66	240	2
TAP	66	240	4
HLD	66	264	2	96
TAP	66	264	4
TAP	66	312	7
TAP	66	360	7
TAP	67	0	2
TAP	67	24	0
TAP	67	48	2
TAP	67	72	7
TAP	67	96	2
TAP	67	120	6
TAP	67	144	2
HLD	67	168	5	48
TAP	67	216	1
TAP	67	240	6
TAP	67	264	3
TAP	67	288	7
TAP	67	312	0
BST	67	336	1
SCL	67	336	1	96	528	4
BST	67	336	6
SCR	67	336	6	96	528	3
TTP	69	288	6	E	0	M1
TTP	69	312	0	C	0	M1
TTP	69	336	2	E	0	M1
TAP	70	48	0
TAP	70	72	1
TAP	70	120	4
TAP	70	120	5
TAP	70	168	2
TAP	70	168	3
TAP	70	216	6
TAP	70	240	4
TAP	70	264	5
TAP	70	312	1
TAP	70	336	3
TAP	70	360	2
TTP	71	12	7	E	0	M1
TTP	71	24	6	E	0	M1
TTP	71	36	5	E	0	M1
TTP	71	48	4	E	0	M1
TTP	71	60	3	E	0	M1
TTP	71	72	2	E	0	M1
TTP	71	84	1	E	0	M1
TTP	71	96	0	E	0	M1
TTP	71	108	7	E	0	M1
TTP	71	120	6	E	0	M1
TTP	71	132	5	E	0	M1
TTP	71	144	4	E	0	M1
TTP	71	156	3	E	0	M1
TTP	71	168	2	E	0	M1
TTP	71	180	1	E	0	M1
XTP	71	216	5
XTP	71	216	7
XTP	71	312	0
XTP	71	312	2
TAP	72	0	3
TAP	72	0	7
TAP	72	48	4
STR	72	72	5
SLR	72	72	5	96	72	3
TAP	72	96	7
TAP	72	120	6
TAP	72	168	0
TAP	72	168	5
TAP	72	216	1
TAP	72	240	1
TAP	72	288	3
TAP	72	312	2
TAP	72	360	1
TAP	72	360	4
TTP	73	32	2	B	0	M1
TAP	73	32	7
TTP	73	64	3	B	0	M1
TAP	73	64	7
TTP	73	96	4	B	0	M1
TAP	73	96	7
TAP	73	160	1
TTP	73	160	6	B	0	M1
TAP	73	192	1
TTP	73	192	5	B	0	M1
HLD	73	224	1	160
TTP	73	224	4	B	0	M1
TAP	73	288	0
TAP	73	304	7
TAP	73	320	6
TAP	73	336	5
TAP	73	352	4
TAP	73	368	3
XTP	74	0	2
TAP	74	48	1
TAP	74	48	7
TAP	74	96	6
TAP	74	120	0
TAP	74	144	6
TAP	74	168	1
TAP	74	192	6
TAP	74	216	2
HLD	74	240	6	48
TAP	74	288	3
TAP	74	300	4
TAP	74	312	5
TAP	74	324	6
TAP	74	336	7
TAP	74	348	0
TAP	74	360	1
TAP	74	372	2
TAP	75	0	5
TAP	75	16	4
TAP	75	32	5
TAP	75	48	4
TAP	75	64	5
TAP	75	80	4
TAP	75	96	5
TAP	75	112	4
TAP	75	128	5
TAP	75	144	4
TAP	75	160	5
TAP	75	176	4
HLD	75	192	5	96
TTP	75	252	4	E	0	M1
TTP	75	264	5	E	0	M1
TTP	75	276	6	E	0	M1
TTP	75	288	7	E	0	M1
TTP	75	300	0	E	0	M1
TTP	75	312	1	E	0	M1
TTP	75	324	2	E	0	M1
TTP	75	336	3	E	0	M1
TAP	76	0	0
TAP	76	0	7
TAP	76	48	4
TAP	76	72	2
TAP	76	96	0
TAP	76	120	1
TAP	76	144	3
HLD	76	168	2	72
TAP	76	216	5
TAP	76	240	5
TAP	76	288	0
TAP	76	288	6
TAP	76	336	4
TAP	76	336	5
TAP	76	360	4
HLD	76	360	5	288
TTP	77	24	3	E	0	M1
TTP	77	72	0	B	0	M1
TTP	77	120	4	E	0	M1
TTP	77	168	7	B	0	M1
TTP	77	216	5	E	0	M1
TAP	77	288	0
TAP	77	312	1
TAP	77	336	2
TAP	77	360	3
TAP	78	0	4
TAP	78	0	7
TAP	78	48	1
TAP	78	48	6
TAP	78	96	0
TAP	78	120	3
TAP	78	144	1
TAP	78	168	6
TAP	78	192	4
TAP	78	216	5
TAP	78	240	3
TAP	78	264	6
TTP	78	288	1	B	0	M1
TTP	78	312	6	B	0	M1
TTP	78	336	2	B	0	M1
TTP	78	360	5	B	0	M1
XHO	79	0	3	384
TAP	80	48	7
TAP	80	60	6
TAP	80	72	5
TAP	80	84	4
TAP	80	96	0
TAP	80	108	7
TAP	80	120	6
TAP	80	132	5
TAP	80	144	1
TAP	80	156	0
TAP	80	168	7
TAP	80	180	6
TAP	80	192	2
TAP	80	204	1
TAP	80	216	0
TAP	80	228	7
TAP	80	240	3
TAP	80	252	2
TAP	80	264	1
TAP	80	276	0
BRK	80	288	4
XTP	80	288	7
XTP	81	0	0
XTP	81	0	5
TTP	81	48	3	E	0	M1
TTP	81	64	3	B	0	M1
TTP	81	80	4	B	0	M1
TTP	81	96	5	E	0	M1
TAP	81	120	0
TAP	81	168	2
HLD	81	168	6	120
TTP	81	240	1	E	0	M1
TTP	81	256	1	B	0	M1
TTP	81	272	2	B	0	M1
TTP	81	288	3	E	0	M1
TAP	81	312	6
TAP	81	336	5
TAP	81	360	4
TAP	82	0	3
TAP	82	24	2
TAP	82	48	1
TAP	82	72	0
TTP	82	96	4	E	0	M1
TTP	82	108	5	E	0	M1
TTP	82	120	6	E	0	M1
TTP	82	132	7	E	0	M1
TTP	82	144	0	E	0	M1
TTP	82	156	1	E	0	M1
TTP	82	168	2	E	0	M1
TTP	82	180	3	E	0	M1
XTP	82	192	0
TAP	82	264	4
TAP	82	264	5
TAP	82	312	0
TAP	82	312	6
TAP	82	360	2
TAP	82	360	7
TAP	83	24	1
TAP	83	48	2
TAP	83	72	3
HLD	83	96	7	0
TTP	83	108	7	B	0	M1
HLD	83	144	3	0
TTP	83	156	3	B	0	M1
HLD	83	192	5	0
TTP	83	204	5	B	0	M1
HLD	83	240	1	0
TTP	83	252	1	B	0	M1
HLD	83	288	6	0
TTP	83	300	6	B	0	M1
TAP	83	336	0
TAP	83	352	7
TAP	83	368	0
TAP	84	0	7
TAP	84	16	0
TAP	84	32	7
TAP	84	48	0
TAP	84	64	7
TAP	84	80	0
TAP	84	96	7
TAP	84	112	0
TAP	84	128	7
TAP	84	144	0
TAP	84	160	7
TAP	84	176	0
TAP	84	192	6
TAP	84	208	5
TAP	84	224	4
TAP	84	240	0
TAP	84	256	1
TAP	84	272	2
TAP	84	288	7
TAP	84	304	6
TAP	84	320	5
BRK	84	336	0
XHO	84	336	4	96
TTP	85	48	3	E	0	M1
TTP	85	64	4	E	0	M1
TTP	85	80	5	E	0	M1
TTP	85	96	6	E	0	M1
TTP	85	112	7	E	0	M1
TTP	85	128	0	E	0	M1
TTP	85	144	1	E	0	M1
TTP	85	160	2	E	0	M1
TTP	85	176	3	E	0	M1
TTP	85	192	4	E	0	M1
TTP	85	208	5	E	0	M1
TTP	85	224	6	E	0	M1
TTP	85	240	7	E	0	M1
TTP	85	256	0	E	0	M1
TTP	85	272	1	E	0	M1
XTP	85	288	1
XTP	85	288	5
TAP	85	312	6
TAP	85	336	7
TAP	85	360	0
TAP	86	0	1
TAP	86	24	2
TAP	86	48	3
TAP	86	72	4
TAP	86	96	5
TAP	86	120	6
TTP	86	132	4	E	0	M1
TTP	86	144	3	B	0	M1
TTP	86	156	2	B	0	M1
TTP	86	288	5	E	0	M1
TTP	86	300	4	B	0	M1
TTP	86	312	3	B	0	M1
TTP	86	324	3	E	0	M1
TTP	86	336	7	E	0	M1
TTP	86	348	7	B	0	M1
TTP	86	360	0	B	0	M1
TTP	86	372	1	E	0	M1
XST	87	0	5
SCL	87	0	5	96	672	6

T_REC_TAP	648
T_REC_BRK	13
T_REC_XTP	34
T_REC_HLD	59
T_REC_XHO	12
T_REC_STR	21
T_REC_BST	3
T_REC_XST	11
T_REC_TTP	174
T_REC_THO	0
T_REC_SLD	37
T_REC_ALL	1012
T_NUM_TAP	888
T_NUM_BRK	16
T_NUM_HLD	71
T_NUM_SLD	37
T_NUM_ALL	1012
T_JUDGE_TAP	904
T_JUDGE_HLD	189
T_JUDGE_SLD	37
T_JUDGE_ALL	1130
TTM_EACHPAIRS	104
TTM_SCR_TAP	444000
TTM_SCR_BRK	41600
TTM_SCR_HLD	71000
TTM_SCR_SLD	55500
TTM_SCR_ALL	612100
TTM_SCR_S	592200
TTM_SCR_SS	610500
TTM_RAT_ACV	10026

