VERSION	0.00.00	1.03.00
FES_MODE	0
BPM_DEF	145.000	145.000	145.000	145.000
MET_DEF	4	4
RESOLUTION	384
CLK_DEF	384
COMPATIBLE_CODE	MA2

BPM	0	0	145.000
MET	0	0	4	4

TAP	2	0	5
TAP	2	48	4
TAP	2	96	3
TAP	2	144	2
TAP	3	0	5
TAP	3	48	4
TAP	3	96	3
HLD	3	144	2	96
TAP	4	0	5
TAP	4	48	4
TAP	4	96	3
TAP	4	144	2
TAP	5	0	5
TAP	5	48	4
TAP	5	96	3
HLD	5	144	2	96
TAP	6	0	5
TAP	6	48	4
TAP	6	96	3
TAP	6	96	5
TAP	6	144	2
TAP	6	192	5
TAP	6	288	5
TAP	7	0	5
TAP	7	48	4
TAP	7	96	3
TAP	7	96	5
HLD	7	144	2	96
TAP	7	192	5
TAP	7	288	5
TAP	8	0	5
TAP	8	48	4
TAP	8	96	3
TAP	8	96	5
TAP	8	144	2
TAP	8	192	5
TAP	8	288	5
TAP	9	0	5
TAP	9	48	4
TAP	9	96	3
TAP	9	144	2
THO	9	192	0	96	C	1	M1
BRK	10	0	0
BRK	10	0	7
XTP	10	120	0
XTP	10	120	1
XHO	10	168	0	48
XHO	10	168	1	48
XTP	10	240	0
XST	10	240	1
SCR	10	240	1	96	144	4
XHO	11	216	5	96
XTP	11	312	4
XTP	12	0	3
XTP	12	0	6
XTP	12	120	4
XTP	12	120	5
XHO	12	168	4	48
XHO	12	168	5	48
XTP	12	240	4
XST	12	240	5
SCL	12	240	5	96	144	2
HLD	13	216	0	48
HLD	13	216	1	48
TAP	13	288	0
TAP	13	288	1
BRK	14	0	0
BRK	14	0	7
TAP	14	120	6
TAP	14	120	7
HLD	14	168	6	48
HLD	14	168	7	48
STR	14	240	6
SCL	14	240	6	96	144	3
TAP	14	240	7
HLD	15	216	2	96
TAP	15	312	3
TAP	16	0	1
TAP	16	0	4
TAP	16	120	2
TAP	16	120	3
HLD	16	168	2	48
HLD	16	168	3	48
TAP	16	240	2
STR	16	240	3
SCR	16	240	3	96	720	1
TTP	16	336	0	C	1	M1
TAP	19	0	0
TAP	19	96	0
TAP	19	192	7
TAP	19	288	7
TAP	20	0	0
TAP	20	0	7
TAP	20	96	0
HLD	20	96	7	120
TAP	20	216	0
TAP	20	240	7
BRK	20	288	1
BRK	20	288	6
XHO	21	0	2	96
XTP	21	0	5
TAP	21	96	3
TAP	21	144	2
STR	21	192	1
SI_	21	192	1	96	48	7
TAP	21	192	4
STR	21	288	5
SI_	21	288	5	96	48	3
XTP	22	0	0
STR	22	96	2
SCL	22	96	2	96	96	7
TAP	22	192	3
XHO	23	0	6	96
TAP	23	0	7
TAP	23	96	4
TAP	23	144	5
TAP	23	192	3
STR	23	192	6
SI_	23	192	6	96	48	0
STR	23	288	2
SI_	23	288	2	96	48	4
XTP	24	0	7
TAP	24	96	5
TAP	24	144	4
STR	24	192	3
SI_	24	192	3	96	48	7
STR	24	192	6
SI_	24	192	6	96	48	3
BRK	25	0	0
BRK	25	0	4
STR	25	96	1
SI_	25	96	1	96	48	4
STR	25	96	5
SI_	25	96	5	96	48	0
XTP	25	288	3
XTP	25	288	7
TAP	26	0	5
TAP	26	48	5
TAP	26	96	0
TAP	26	144	1
STR	26	192	2
SI_	26	192	2	96	48	4
STR	26	288	5
SI_	26	288	5	96	48	7
XTP	27	0	4
TAP	27	96	0
TAP	27	144	1
TAP	27	192	2
STR	27	192	7
SI_	27	192	7	96	48	3
TAP	27	288	2
HLD	28	0	0	192
TTP	28	192	2	B	0	M1
TTP	28	216	3	B	0	M1
TTP	28	240	4	B	0	M1
TTP	28	264	5	B	0	M1
BRK	28	288	0
TAP	29	0	0
TAP	29	0	1
TAP	29	96	2
TAP	29	144	4
STR	29	192	3
SI_	29	192	3	96	48	7
TAP	29	192	5
STR	29	288	6
SCL	29	288	6	96	48	3
TAP	30	0	0
TAP	30	96	0
TAP	30	96	1
TAP	30	144	2
TAP	30	144	7
STR	30	192	3
SI_	30	192	3	96	48	7
STR	30	192	6
SCL	30	192	6	96	48	3
XTP	31	0	0
TAP	31	96	2
TAP	31	96	4
TAP	31	144	1
TAP	31	192	3
TAP	31	192	4
TAP	31	240	5
TAP	31	288	3
TAP	31	288	4
TAP	31	336	2
BRK	32	0	3
BRK	32	0	5
HLD	32	96	4	48
HLD	32	96	6	48
TAP	32	168	4
TAP	32	168	6
TAP	32	216	4
TAP	32	216	6
BRK	32	288	3
BRK	32	288	7
STR	33	0	4
SLL	33	0	4	96	144	0
STR	33	0	6
SLL	33	0	6	96	144	7
XST	33	288	7
SLL	33	288	7	96	144	2
SLR	33	288	7	96	144	4
XTP	34	192	2
XTP	34	192	4
STR	34	288	0
SI_	34	288	0	96	48	4
BRK	35	0	5
TAP	35	96	3
TAP	35	96	6
TAP	35	144	2
TAP	35	144	5
STR	35	192	1
SI_	35	192	1	96	48	6
TAP	35	192	4
STR	35	288	5
SCR	35	288	5	96	288	2
HLD	37	0	3	216
HLD	37	96	4	120
TAP	37	240	3
TAP	37	240	4
BRK	37	288	2
BRK	37	288	5
TTP	38	0	0	C	1	M1
TTP	38	0	1	B	0	M1
TTP	38	0	5	B	0	M1
HLD	40	0	4	576
TTP	40	288	4	B	0	M1
HLD	41	0	3	192
XTP	41	240	3
XTP	41	240	4
XTP	41	312	3
XTP	41	312	4
HLD	42	0	1	288
BRK	42	0	6
TAP	42	192	2
TAP	42	288	7
XHO	42	336	7	336
TAP	43	192	6
TAP	43	288	4
XHO	43	336	4	1344
TAP	44	96	3
TAP	44	144	3
TAP	44	288	2
TAP	44	336	2
TAP	45	96	1
TAP	45	144	1
TAP	45	288	0
TAP	45	336	0
TAP	46	96	7
TAP	46	144	7
TAP	46	288	6
TAP	46	336	6
TAP	47	96	5
TAP	47	144	5
TAP	47	288	2
TAP	47	288	5
TAP	47	336	3
TAP	47	360	4
TAP	48	0	3
TAP	48	24	4
TAP	48	48	3
TAP	48	72	4
TAP	48	96	3
TAP	48	120	4
TAP	48	144	3
TAP	48	168	4
TAP	48	192	3
TAP	48	216	4
TAP	48	240	3
TAP	48	264	4
TAP	48	288	3
TAP	48	312	4
TAP	48	336	3
TAP	48	360	4
TAP	49	0	3
TAP	49	24	4
TAP	49	48	3
TAP	49	72	4
TAP	49	96	3
TAP	49	120	4
TAP	49	144	3
HLD	49	168	4	72
XTP	49	240	3
BRK	49	288	2
BRK	49	288	6
TAP	50	0	0
TAP	50	0	7
TAP	50	48	1
TAP	50	48	6
TAP	50	96	2
TAP	50	96	5
TAP	50	144	3
TAP	50	168	4
TAP	50	192	3
TAP	50	240	5
TAP	50	264	4
TAP	50	288	6
TAP	50	336	2
TAP	50	360	3
STR	51	0	1
SI_	51	0	1	96	48	4
TAP	51	48	1
STR	51	96	0
SI_	51	96	0	96	48	5
TAP	51	144	0
TAP	51	192	3
TAP	51	240	3
TAP	51	288	4
TAP	51	336	5
TAP	52	0	3
TAP	52	0	6
TAP	52	48	2
TAP	52	48	7
TAP	52	96	0
TAP	52	96	1
TAP	52	144	2
TAP	52	168	3
TAP	52	192	2
TAP	52	240	5
TAP	52	264	4
TAP	52	288	6
TAP	52	336	2
TAP	52	360	3
STR	53	0	1
SI_	53	0	1	96	48	4
TAP	53	48	1
STR	53	96	5
SCR	53	96	5	96	96	2
TAP	53	144	5
BRK	53	192	3
TAP	54	0	2
TAP	54	0	3
TAP	54	48	1
TAP	54	48	4
TAP	54	96	0
TAP	54	96	5
TAP	54	144	6
TAP	54	168	7
TAP	54	192	6
TAP	54	240	1
TAP	54	264	0
TAP	54	288	1
TAP	54	336	6
TAP	54	360	7
STR	55	0	5
SI_	55	0	5	96	48	0
TAP	55	48	5
STR	55	96	4
SI_	55	96	4	96	48	1
TAP	55	144	4
TAP	55	192	7
TAP	55	240	7
TAP	55	288	0
TAP	55	336	1
BRK	56	0	2
BRK	56	0	6
TAP	56	96	3
HLD	56	96	5	120
TAP	56	168	4
TAP	56	216	4
TAP	56	264	3
TAP	56	312	2
BRK	56	360	1
BRK	56	360	3
BRK	57	72	4
BRK	57	72	6
BRK	57	168	0
BRK	57	168	7
HLD	57	216	1	72
HLD	57	216	6	72
TAP	58	0	3
TAP	58	0	4
TAP	58	48	3
TAP	58	48	4
TAP	58	96	2
TAP	58	96	5
TAP	58	144	1
TAP	58	168	0
TAP	58	192	2
TAP	58	240	5
TAP	58	264	4
TAP	58	288	6
TAP	58	336	1
TAP	58	360	0
STR	59	0	2
SI_	59	0	2	96	48	7
TAP	59	48	2
STR	59	96	3
SI_	59	96	3	96	48	6
TAP	59	144	3
TAP	59	192	0
TAP	59	240	0
TAP	59	288	7
TAP	59	336	6
TAP	60	0	4
TAP	60	0	5
TAP	60	48	3
TAP	60	48	6
TAP	60	96	2
TAP	60	96	7
TAP	60	144	1
TAP	60	168	0
TAP	60	192	2
TAP	60	240	6
TAP	60	264	7
TAP	60	288	5
TAP	60	336	0
TAP	60	336	4
TAP	61	0	1
TAP	61	0	3
TAP	61	48	2
TAP	61	48	4
STR	61	96	1
SCR	61	96	1	96	96	6
TAP	61	96	5
TTP	61	192	0	C	1	M1
TAP	62	0	6
TAP	62	0	7
TAP	62	48	0
TAP	62	48	5
TAP	62	96	1
TAP	62	96	4
TAP	62	144	2
TAP	62	168	3
TAP	62	192	1
TAP	62	240	6
TAP	62	264	7
TAP	62	288	5
TAP	62	336	1
TAP	62	360	0
STR	63	0	2
SI_	63	0	2	96	48	7
TAP	63	48	2
STR	63	96	3
SI_	63	96	3	96	48	6
TAP	63	144	3
TAP	63	192	0
TAP	63	240	0
XST	63	288	7
SCL	63	288	7	96	96	4
SCR	63	288	7	96	96	2
XTP	64	168	1
XTP	64	168	3
TAP	64	216	1
TAP	64	216	3
TAP	64	264	0
TAP	64	312	0
HLD	64	360	1	72
HLD	64	360	7	72
HLD	65	72	1	72
HLD	65	72	7	72
HLD	65	168	0	72
HLD	65	168	6	72
TAP	65	264	0
TAP	65	264	6
TAP	65	336	3
TAP	65	336	4
TAP	66	0	3
TAP	66	0	4
BRK	66	96	1
BRK	66	96	7
TAP	66	192	3
STR	66	192	6
SI_	66	192	6	96	48	2
TAP	66	240	6
STR	66	288	1
SI_	66	288	1	96	48	6
TAP	66	336	1
STR	67	0	4
SI_	67	0	4	96	48	1
TAP	67	48	4
STR	67	96	7
SI_	67	96	7	96	48	3
TAP	67	144	7
TAP	67	192	6
TAP	67	288	2
TAP	67	288	4
HLD	67	336	1	240
TAP	67	336	5
HLD	68	192	2	192
HLD	69	0	3	192
TAP	69	192	4
TAP	69	288	4
TAP	70	0	3
TAP	70	0	4
TAP	70	96	4
TAP	70	96	5
TAP	70	192	5
TAP	70	192	6
TAP	70	288	6
TAP	70	288	7
HLD	71	0	0	192
HLD	71	96	7	96
HLD	71	216	0	72
HLD	71	216	7	72
TAP	71	312	1
TAP	71	312	6
BRK	72	0	2
BRK	72	0	5
TAP	72	96	3
TAP	72	96	4
TAP	72	144	5
TAP	72	192	6
TAP	72	192	7
TAP	72	288	0
STR	72	288	5
SI_	72	288	5	96	48	1
STR	73	0	2
SSL	73	0	2	96	144	6
STR	73	192	7
SI_	73	192	7	96	48	2
TAP	73	288	0
TAP	74	0	0
TAP	74	0	1
TAP	74	48	2
TAP	74	96	3
TAP	74	96	4
TAP	74	144	5
TAP	74	192	4
HLD	74	192	6	96
TAP	74	288	7
TAP	74	312	6
TAP	74	336	7
TAP	74	360	6
TAP	75	0	7
TAP	75	24	6
TAP	75	48	7
TAP	75	72	6
TAP	75	96	7
TAP	75	120	6
TAP	75	144	7
TAP	75	168	6
BST	75	192	7
SI_	75	192	7	96	48	3
BST	76	0	1
SLL	76	0	1	96	144	3
BST	76	0	5
SLR	76	0	5	96	144	3
XTP	76	288	2
XTP	76	288	3
TAP	76	360	1
TAP	77	24	1
TAP	77	72	0
TAP	77	72	7
TAP	77	120	0
TAP	77	120	7
TAP	77	168	6
HLD	77	216	6	72
HLD	77	216	7	72
TAP	77	312	6
TAP	77	312	7
TAP	78	0	5
TAP	78	48	3
TAP	78	96	2
STR	78	96	4
SI_	78	96	4	96	48	0
TAP	78	192	3
TAP	78	240	3
TAP	78	288	3
BRK	78	336	4
BST	78	336	7
SCL	78	336	7	96	240	1
TTP	80	48	2	E	0	M1
TTP	80	72	3	E	0	M1
TTP	80	96	4	E	0	M1
TTP	80	120	5	E	0	M1
TTP	80	144	6	E	0	M1
TTP	80	168	7	E	0	M1
TTP	80	192	0	E	0	M1
TTP	80	216	1	E	0	M1
TTP	80	240	2	E	0	M1
TTP	80	264	3	E	0	M1
TTP	80	288	0	C	1	M1
XTP	81	0	0
XTP	81	0	7
TAP	81	120	2
TAP	81	120	4
HLD	81	168	2	48
HLD	81	168	4	48
HLD	81	240	2	48
HLD	81	240	4	48
TAP	81	312	2
TAP	81	312	4
TAP	81	360	3
TAP	81	360	5
HLD	82	24	3	48
HLD	82	24	5	48
HLD	82	96	3	48
HLD	82	96	5	48
TAP	82	168	3
TAP	82	168	5
TAP	82	216	2
TAP	82	216	4
HLD	82	264	2	48
HLD	82	264	4	48
TAP	82	336	2
TAP	82	336	4
BST	83	0	1
SI_	83	0	1	96	48	5
BRK	83	0	5
TAP	83	120	6
HLD	83	168	6	72
TAP	83	240	7
TAP	83	360	0
TAP	83	360	1
HLD	84	24	0	48
HLD	84	24	1	48
TAP	84	96	0
TAP	84	96	1
TAP	84	144	0
TAP	84	144	1
TAP	84	192	2
TAP	84	192	3
TAP	84	240	2
TAP	84	240	3
TAP	84	288	4
TAP	84	288	5
BRK	84	336	3
BRK	84	336	6
TAP	85	48	7
TAP	85	72	6
TAP	85	96	5
TAP	85	120	4
TAP	85	144	3
TAP	85	168	2
TAP	85	192	1
TAP	85	216	0
TAP	85	240	7
TAP	85	264	6
TAP	85	288	5
TAP	85	312	4
TAP	85	336	3
TAP	85	360	2
TAP	86	0	1
TAP	86	24	0
TAP	86	48	7
TAP	86	72	6
TAP	86	96	5
HLD	86	120	3	1032
TAP	86	120	4
THO	87	0	0	768	C	0	M1

T_REC_TAP	387
T_REC_BRK	36
T_REC_XTP	29
T_REC_HLD	53
T_REC_XHO	9
T_REC_STR	42
T_REC_BST	5
T_REC_XST	4
T_REC_TTP	21
T_REC_THO	2
T_REC_SLD	53
T_REC_ALL	641
T_NUM_TAP	483
T_NUM_BRK	41
T_NUM_HLD	64
T_NUM_SLD	53
T_NUM_ALL	641
T_JUDGE_TAP	524
T_JUDGE_HLD	202
T_JUDGE_SLD	53
T_JUDGE_ALL	779
TTM_EACHPAIRS	141
TTM_SCR_TAP	241500
TTM_SCR_BRK	106600
TTM_SCR_HLD	64000
TTM_SCR_SLD	79500
TTM_SCR_ALL	491600
TTM_SCR_S	472900
TTM_SCR_SS	487500
TTM_RAT_ACV	10084

