VERSION	0.00.00	1.03.00
FES_MODE	0
BPM_DEF	145.000	145.000	145.000	145.000
MET_DEF	4	4
RESOLUTION	384
CLK_DEF	384
COMPATIBLE_CODE	MA2

BPM	0	0	145.000
MET	0	0	4	4

TTP	2	0	4	E	0	L1
TTP	2	192	3	E	0	L1
TTP	3	0	2	E	0	L1
TTP	3	192	1	E	0	L1
TTP	4	0	0	E	0	L1
TTP	4	192	7	E	0	L1
TTP	5	0	6	E	0	L1
TTP	5	192	5	E	0	L1
XTP	6	0	4
TAP	6	96	4
TAP	6	192	4
TAP	7	0	3
TAP	7	96	3
TAP	7	192	3
TAP	8	0	5
TAP	8	96	4
TAP	8	96	5
TAP	8	192	2
TAP	8	288	2
TAP	8	288	3
STR	9	0	4
SI_	9	0	4	96	144	1
SI_	9	0	4	96	144	7
XTP	10	0	6
XTP	10	192	6
XTP	10	192	7
XST	10	288	6
SCL	10	288	6	96	144	3
XST	10	288	7
SCR	10	288	7	96	144	2
XTP	12	0	1
XTP	12	192	0
XTP	12	192	1
XST	12	288	0
SCL	12	288	0	96	144	5
XST	12	288	1
SCR	12	288	1	96	144	4
XTP	14	0	6
XTP	14	192	6
XTP	14	192	7
XST	14	288	6
SCL	14	288	6	96	144	3
XST	14	288	7
SCR	14	288	7	96	144	2
XTP	16	0	1
XTP	16	192	0
XTP	16	192	7
XST	16	288	1
SXL	16	288	1	96	384	7
XST	16	288	6
SXR	16	288	6	96	384	0
TAP	19	0	0
TAP	19	0	7
TAP	19	96	0
TAP	19	96	7
TAP	19	192	1
TAP	19	192	6
TAP	19	288	1
TAP	19	288	6
TAP	20	0	2
TAP	20	0	5
TAP	20	96	2
TAP	20	96	5
TAP	20	192	3
TAP	20	192	4
TAP	21	0	5
TAP	21	96	5
TAP	21	192	4
TAP	21	288	4
TAP	22	0	3
TAP	22	96	3
TAP	22	192	2
TAP	22	192	4
TAP	23	0	1
TAP	23	96	1
TAP	23	192	0
TAP	23	288	0
TAP	24	0	7
TAP	24	96	7
TAP	24	192	0
TAP	24	192	7
TAP	25	0	6
TAP	25	96	6
TAP	25	192	7
TAP	25	288	7
TAP	26	0	0
TAP	26	96	0
TAP	26	192	1
TAP	26	192	7
TAP	27	0	2
TAP	27	96	2
TAP	27	192	3
TAP	27	288	3
TAP	28	0	3
TAP	28	0	4
TAP	28	96	3
TAP	28	96	4
BRK	28	192	2
BRK	28	192	5
TAP	29	0	6
TAP	29	96	6
TAP	29	192	6
TAP	29	192	7
TAP	29	288	6
TAP	29	288	7
TAP	30	0	5
TAP	30	96	4
TAP	30	192	3
TAP	30	192	5
TAP	31	0	2
TAP	31	96	2
TAP	31	192	2
TAP	31	192	3
TAP	31	288	2
TAP	31	288	3
TAP	32	0	1
TAP	32	96	0
TAP	32	192	0
TAP	32	192	7
TAP	33	0	1
TAP	33	96	1
TAP	33	192	0
TAP	33	192	1
TAP	33	288	0
TAP	33	288	1
TAP	34	0	2
TAP	34	96	3
TAP	34	192	2
TAP	34	192	4
TAP	35	0	3
TAP	35	0	5
TAP	35	96	3
TAP	35	96	5
TAP	35	192	4
TAP	35	240	4
TAP	35	288	3
TAP	35	288	4
XST	35	336	3
SXR	35	336	3	96	384	0
XST	35	336	4
SXL	35	336	4	96	384	7
XTP	37	288	0
XTP	37	288	7
STR	38	0	6
SUL	38	0	6	96	144	2
STR	39	0	1
SUR	39	0	1	96	144	5
STR	40	0	6
SUL	40	0	6	96	144	2
XTP	41	240	0
XTP	41	240	7
XTP	41	312	0
XTP	41	312	7
XTP	42	0	0
XST	42	0	7
SCL	42	0	7	96	144	4
XST	43	0	3
SCL	43	0	3	96	144	0
XST	44	0	7
SCL	44	0	7	96	144	4
HLD	45	0	2	192
HLD	45	192	3	192
HLD	46	0	4	192
TAP	46	192	5
TAP	47	0	6
TAP	47	96	7
TAP	47	192	0
TAP	47	288	1
TAP	48	0	2
TAP	48	48	2
TAP	48	96	2
TAP	48	192	3
TAP	48	240	3
TAP	48	288	3
TAP	49	0	3
TAP	49	0	4
TAP	49	48	3
TAP	49	48	4
TAP	49	96	3
TAP	49	96	4
TAP	49	192	2
TAP	49	192	5
BRK	50	0	6
TAP	50	96	6
TAP	50	96	7
TAP	50	192	1
TAP	50	288	0
TAP	50	288	1
TAP	51	0	2
TAP	51	96	3
TAP	51	192	2
TAP	51	192	4
TAP	52	0	5
TAP	52	96	4
TAP	52	96	5
TAP	52	192	2
TAP	52	288	2
TAP	52	288	3
TAP	53	0	1
TAP	53	96	0
TAP	53	192	1
TAP	53	192	7
TAP	54	0	1
TAP	54	96	0
TAP	54	96	1
TAP	54	192	6
TAP	54	288	6
TAP	54	288	7
TAP	55	0	5
TAP	55	96	4
TAP	55	192	3
TAP	55	192	5
TAP	56	0	2
TAP	56	96	2
TAP	56	96	3
TAP	56	192	5
TAP	56	288	4
TAP	56	288	5
XTP	57	0	3
XTP	57	96	3
XTP	57	96	4
XTP	57	192	2
XTP	57	192	5
BRK	58	0	6
TAP	58	96	6
TAP	58	96	7
TAP	58	192	5
TAP	58	240	5
TAP	58	288	5
TAP	59	0	4
TAP	59	96	2
TAP	59	96	3
TAP	59	192	1
TAP	59	192	4
TAP	60	0	1
TAP	60	96	0
TAP	60	96	1
TAP	60	192	2
TAP	60	240	2
TAP	60	288	2
TAP	61	0	3
TAP	61	96	3
TAP	61	96	4
TAP	61	192	2
TAP	61	192	5
TAP	62	0	5
TAP	62	96	4
TAP	62	96	5
TAP	62	192	6
TAP	62	240	6
TAP	62	288	6
TAP	63	0	7
TAP	63	96	0
TAP	63	96	1
TAP	63	192	2
TAP	63	192	7
TAP	64	0	2
TAP	64	96	2
TAP	64	96	3
TAP	64	192	1
TAP	64	288	0
TAP	64	288	1
TAP	65	0	0
TAP	65	0	7
TAP	65	48	0
TAP	65	48	7
TAP	65	96	0
TAP	65	96	7
TAP	65	192	1
TAP	65	192	6
TAP	65	240	1
TAP	65	240	6
TAP	65	288	1
TAP	65	288	6
TAP	66	0	5
TAP	66	96	4
TAP	66	96	5
TAP	66	192	6
TAP	66	240	6
TAP	66	288	6
TAP	67	0	7
TAP	67	96	0
TAP	67	96	7
TAP	67	192	1
TAP	67	240	1
STR	67	288	1
SXR	67	288	1	96	384	4
TAP	70	0	5
TAP	70	96	4
TAP	70	192	3
TAP	70	288	2
TAP	71	0	3
TAP	71	0	4
TAP	71	48	3
TAP	71	48	4
HLD	71	96	3	120
HLD	71	96	4	120
XTP	72	0	5
TAP	72	96	4
TAP	72	96	6
TAP	72	192	5
TAP	72	288	3
TAP	72	288	4
TAP	73	0	2
TAP	73	48	2
TAP	73	96	2
TAP	73	192	1
TAP	73	240	1
TAP	73	288	1
TAP	74	0	2
TAP	74	96	1
TAP	74	96	3
TAP	74	192	2
TAP	74	288	3
TAP	74	288	4
TAP	75	0	5
TAP	75	48	5
TAP	75	96	5
TAP	75	192	6
TAP	75	240	6
TAP	75	288	6
TAP	76	0	5
TAP	76	96	4
TAP	76	96	6
TAP	76	192	7
TAP	76	288	0
TAP	76	288	7
TAP	77	0	1
TAP	77	48	1
TAP	77	96	1
TAP	77	192	2
TAP	77	240	2
TAP	77	288	2
TAP	78	0	3
TAP	78	0	4
TAP	78	48	3
TAP	78	48	4
TAP	78	96	3
TAP	78	96	4
TAP	78	192	2
TAP	78	192	5
TAP	78	240	2
TAP	78	240	5
STR	78	288	2
SXR	78	288	2	96	384	4
STR	78	288	5
SXL	78	288	5	96	384	3
XTP	80	288	3
XTP	80	288	4
XST	81	0	2
SCL	81	0	2	96	144	7
XST	81	0	3
SCR	81	0	3	96	144	6
XST	82	0	4
SCL	82	0	4	96	144	1
XST	82	0	5
SCR	82	0	5	96	144	0
XST	83	0	2
SCL	83	0	2	96	144	7
XST	83	0	3
SCR	83	0	3	96	144	6
XST	84	0	0
SCR	84	0	0	96	144	3
XST	84	0	7
SCL	84	0	7	96	144	4
THO	84	336	0	720	C	1	L1

T_REC_TAP	263
T_REC_BRK	4
T_REC_XTP	28
T_REC_HLD	5
T_REC_XHO	0
T_REC_STR	7
T_REC_BST	0
T_REC_XST	21
T_REC_TTP	8
T_REC_THO	1
T_REC_SLD	29
T_REC_ALL	366
T_NUM_TAP	327
T_NUM_BRK	4
T_NUM_HLD	6
T_NUM_SLD	29
T_NUM_ALL	366
T_JUDGE_TAP	331
T_JUDGE_HLD	33
T_JUDGE_SLD	29
T_JUDGE_ALL	393
TTM_EACHPAIRS	96
TTM_SCR_TAP	163500
TTM_SCR_BRK	10400
TTM_SCR_HLD	6000
TTM_SCR_SLD	43500
TTM_SCR_ALL	223400
TTM_SCR_S	216350
TTM_SCR_SS	223000
TTM_RAT_ACV	10017

