VERSION	0.00.00	1.03.00
FES_MODE	0
BPM_DEF	145.000	145.000	145.000	145.000
MET_DEF	4	4
RESOLUTION	384
CLK_DEF	384
COMPATIBLE_CODE	MA2

BPM	0	0	145.000
MET	0	0	4	4

HLD	2	0	3	384
HLD	4	0	4	384
TAP	6	0	3
TAP	6	192	3
TAP	7	0	4
TAP	7	192	4
TAP	8	0	3
TAP	8	192	3
TAP	9	0	3
TAP	9	0	4
TAP	9	192	3
TAP	9	192	4
XHO	10	0	4	312
XHO	10	0	5	312
HLD	12	0	2	312
HLD	12	0	3	312
HLD	14	0	3	312
HLD	14	0	4	312
THO	16	0	0	336	C	1	L1
TAP	19	0	0
TAP	19	192	0
TAP	20	0	7
TAP	20	96	7
TAP	20	192	7
TAP	21	0	0
TAP	21	96	0
TAP	21	192	0
TAP	22	0	1
TAP	22	192	1
TAP	23	0	2
TAP	23	96	2
TAP	23	192	2
TAP	24	0	3
TAP	24	192	3
TAP	24	192	4
TAP	25	0	4
TAP	25	96	4
TAP	25	192	4
TAP	26	0	5
TAP	26	192	5
TAP	27	0	6
TAP	27	96	6
TAP	27	192	6
TAP	28	0	7
BRK	28	192	0
BRK	28	192	7
TAP	29	0	6
TAP	29	96	6
TAP	29	192	6
TAP	30	0	5
TAP	30	192	4
TAP	30	192	5
TAP	31	0	3
TAP	31	96	3
TAP	31	192	3
TAP	32	0	2
TAP	32	192	2
TAP	32	192	3
TAP	33	0	1
TAP	33	96	1
TAP	33	192	1
TAP	34	0	0
TAP	34	192	0
TAP	34	192	7
TAP	35	0	7
TAP	35	96	7
HLD	35	192	0	144
HLD	35	192	7	144
TAP	37	0	6
TAP	37	96	6
TAP	37	192	7
TAP	37	288	7
STR	38	0	0
SI_	38	0	0	96	288	3
STR	40	0	4
SI_	40	0	4	96	288	0
STR	42	0	1
SI_	42	0	1	96	288	5
STR	44	0	6
SI_	44	0	6	96	288	2
TAP	46	0	0
TAP	46	192	1
TAP	47	0	2
TAP	47	192	3
TAP	48	0	4
TAP	48	192	5
TAP	49	0	6
TAP	49	192	0
TAP	49	192	7
BRK	50	0	7
TAP	50	96	7
TAP	50	192	6
TAP	50	288	6
TAP	51	0	5
TAP	51	96	5
TAP	51	192	3
TAP	51	192	4
TAP	52	0	3
TAP	52	96	3
TAP	52	192	2
TAP	52	288	2
TAP	53	0	1
TAP	53	96	1
TAP	53	192	0
TAP	53	192	7
TAP	54	0	0
TAP	54	96	0
TAP	54	192	1
TAP	54	288	1
TAP	55	0	2
TAP	55	96	2
TAP	55	192	2
TAP	55	192	3
TAP	56	0	3
TAP	56	0	4
TAP	56	96	3
TAP	56	96	4
TAP	56	192	3
TAP	56	192	4
TAP	56	288	3
TAP	56	288	4
XTP	57	0	2
XTP	57	0	5
XTP	57	96	2
XTP	57	96	5
XTP	57	192	2
XTP	57	192	5
XTP	58	0	4
TAP	58	96	4
TAP	58	192	5
TAP	58	288	5
TAP	59	0	6
TAP	59	96	6
TAP	59	192	0
TAP	59	192	7
TAP	59	288	0
TAP	59	288	7
TAP	60	0	1
TAP	60	96	1
TAP	60	192	2
TAP	60	288	2
TAP	61	0	2
TAP	61	0	3
TAP	61	96	2
TAP	61	96	3
TAP	61	192	2
TAP	61	192	3
TAP	62	0	1
TAP	62	96	1
TAP	62	192	0
TAP	62	288	0
TAP	63	0	7
TAP	63	96	7
TAP	63	192	6
TAP	63	288	6
TAP	64	0	5
TAP	64	96	5
TAP	64	192	4
TAP	64	288	4
HLD	65	0	3	192
HLD	65	0	4	192
TAP	66	0	3
TAP	66	0	4
TAP	66	96	5
TAP	66	192	6
TAP	66	288	6
TAP	67	0	7
TAP	67	96	0
TAP	67	192	1
STR	67	288	1
SI_	67	288	1	96	288	5
TAP	69	192	6
STR	69	288	6
SI_	69	288	6	96	288	2
XTP	71	192	0
TAP	72	0	1
TAP	72	96	1
TAP	72	192	2
TAP	72	192	3
TAP	72	288	2
TAP	72	288	3
TAP	73	0	4
TAP	73	96	4
TAP	73	192	3
TAP	73	192	5
TAP	74	0	6
TAP	74	96	6
TAP	74	192	6
TAP	74	192	7
TAP	74	288	6
TAP	74	288	7
TAP	75	0	0
TAP	75	96	0
XTP	75	192	1
XTP	75	192	7
TAP	76	0	0
TAP	76	96	0
TAP	76	192	7
TAP	76	288	7
TAP	77	0	6
TAP	77	96	6
TAP	77	192	5
TAP	77	288	5
TAP	78	0	4
TAP	78	96	4
TAP	78	192	3
STR	78	288	3
SI_	78	288	3	96	288	7
TAP	80	192	0
BRK	80	288	0
TAP	81	0	0
TAP	81	96	1
TAP	81	192	2
TAP	81	192	3
TAP	81	288	2
TAP	81	288	3
TAP	82	0	4
TAP	82	96	5
TAP	82	192	6
TAP	82	192	7
TAP	82	288	6
TAP	82	288	7
TAP	83	0	5
TAP	83	96	4
TAP	83	192	2
TAP	83	192	3
TAP	83	288	2
TAP	83	288	3
TAP	84	0	1
TAP	84	96	0
TAP	84	192	7
XTP	84	288	0
XTP	84	288	6
XHO	84	336	0	576
XHO	84	336	6	576
XHO	86	360	1	792
XHO	86	360	7	792

T_REC_TAP	190
T_REC_BRK	4
T_REC_XTP	12
T_REC_HLD	10
T_REC_XHO	6
T_REC_STR	7
T_REC_BST	0
T_REC_XST	0
T_REC_TTP	0
T_REC_THO	1
T_REC_SLD	7
T_REC_ALL	237
T_NUM_TAP	209
T_NUM_BRK	4
T_NUM_HLD	17
T_NUM_SLD	7
T_NUM_ALL	237
T_JUDGE_TAP	213
T_JUDGE_HLD	137
T_JUDGE_SLD	7
T_JUDGE_ALL	357
TTM_EACHPAIRS	44
TTM_SCR_TAP	104500
TTM_SCR_BRK	10400
TTM_SCR_HLD	17000
TTM_SCR_SLD	10500
TTM_SCR_ALL	142400
TTM_SCR_S	137750
TTM_SCR_SS	142000
TTM_RAT_ACV	10028

