VERSION	0.00.00	1.03.00
FES_MODE	0
BPM_DEF	180.000	180.000	180.000	135.000
MET_DEF	4	4
RESOLUTION	384
CLK_DEF	384
COMPATIBLE_CODE	MA2

BPM	0	0	180.000
BPM	93	192	165.000
BPM	93	336	150.000
BPM	94	96	135.000
MET	0	0	4	4
MET	2	0	4	5
MET	4	192	4	6
MET	6	0	4	4
MET	7	0	4	5
MET	9	192	4	6
MET	11	0	4	4
MET	13	0	4	2
MET	13	192	4	3
MET	15	0	4	4
MET	16	0	4	3
MET	17	192	4	4
MET	38	192	4	2
MET	39	0	4	4
MET	58	0	4	5
MET	60	192	4	6
MET	62	0	4	4
MET	63	0	4	5
MET	65	192	4	6
MET	67	0	4	4
MET	70	0	4	2
MET	70	192	4	4
MET	88	192	4	3
MET	90	0	4	4
MET	91	0	4	3
MET	92	192	4	4
MET	93	192	4	3
MET	94	96	4	4
MET	96	96	4	3
MET	97	0	4	4

TAP	1	192	1
TAP	1	240	1
TAP	1	288	1
TAP	1	336	1
TTP	2	0	1	B	0	M1
TTP	2	0	5	B	0	M1
TTP	2	7	6	B	0	M1
TTP	2	8	2	B	0	M1
TTP	2	15	7	B	0	M1
TTP	2	16	3	B	0	M1
TTP	2	23	0	E	0	M1
TTP	2	24	4	E	0	M1
TTP	4	192	2	B	0	M1
TTP	4	192	6	B	0	M1
TTP	4	199	1	B	0	M1
TTP	4	200	5	B	0	M1
TTP	4	207	0	B	0	M1
TTP	4	208	4	B	0	M1
TTP	4	215	0	E	0	M1
TTP	4	216	4	E	0	M1
TTP	6	0	1	B	0	M1
TTP	6	0	5	B	0	M1
TTP	6	7	6	B	0	M1
TTP	6	8	2	B	0	M1
TTP	6	15	7	B	0	M1
TTP	6	16	3	B	0	M1
TTP	6	23	0	E	0	M1
TTP	6	24	4	E	0	M1
TTP	7	48	2	E	0	M1
HLD	7	48	4	48
TTP	7	56	1	B	0	M1
TTP	7	64	0	B	0	M1
TTP	7	72	7	B	0	M1
TAP	7	168	4
TAP	7	240	4
TAP	7	312	4
TAP	8	0	4
TAP	8	72	4
TAP	8	144	4
TAP	8	216	4
TAP	8	288	4
TAP	8	360	4
TAP	9	48	4
TAP	9	120	4
TAP	9	192	3
TTP	9	192	6	E	0	M1
TTP	9	200	6	B	0	M1
TTP	9	208	7	B	0	M1
TTP	9	216	0	B	0	M1
TAP	9	264	3
TAP	9	336	3
TAP	10	24	3
TAP	10	96	3
TAP	10	168	3
TAP	10	240	3
TAP	10	312	3
TTP	11	0	2	E	0	M1
TAP	11	0	4
TTP	11	8	1	B	0	M1
TTP	11	16	0	B	0	M1
TTP	11	24	7	B	0	M1
TAP	11	72	4
TAP	11	144	4
TAP	11	216	3
TAP	11	288	2
TAP	11	360	1
TAP	12	48	0
TAP	12	120	7
TAP	12	192	6
TAP	12	264	5
TAP	12	336	4
TAP	13	24	3
TAP	13	96	2
TAP	13	120	5
TAP	13	144	1
TAP	13	168	6
BRK	13	192	0
TAP	13	216	5
TAP	13	240	0
TAP	13	264	1
TAP	13	288	2
TAP	13	312	3
BRK	13	336	7
TAP	13	360	2
TAP	14	0	7
TAP	14	24	6
TAP	14	48	5
TAP	14	72	4
BRK	14	96	1
TAP	14	120	5
TAP	14	144	1
TAP	14	168	2
TAP	14	192	3
TAP	14	216	4
BRK	14	240	6
TAP	14	264	2
TAP	14	288	6
TAP	14	320	5
TAP	14	352	4
TAP	15	0	1
TAP	15	32	2
TAP	15	64	3
TAP	15	96	5
TAP	15	128	4
TAP	15	160	2
TAP	15	192	3
TAP	15	224	4
TAP	15	256	3
TAP	15	288	5
TAP	15	312	2
TAP	15	336	6
TAP	15	360	1
BRK	16	0	7
TAP	16	24	2
TAP	16	48	7
TAP	16	72	6
TAP	16	96	5
TAP	16	120	4
BRK	16	144	0
TAP	16	168	5
TAP	16	192	0
TAP	16	216	1
TAP	16	240	2
TAP	16	264	3
BRK	16	288	6
TAP	16	312	2
TAP	16	336	6
TAP	16	360	5
TAP	17	0	4
TAP	17	24	3
BRK	17	48	1
TAP	17	72	5
TAP	17	96	1
TAP	17	128	2
TAP	17	160	3
TAP	17	192	6
TAP	17	224	5
TAP	17	256	4
TAP	17	288	2
TAP	17	320	3
TAP	17	352	5
TAP	18	0	4
TAP	18	32	3
TAP	18	64	4
TAP	18	96	2
TAP	18	120	5
TAP	18	144	1
TAP	18	168	6
BRK	18	192	0
TAP	18	216	5
TAP	18	240	1
TAP	18	264	2
TAP	18	288	3
TAP	18	312	4
BRK	18	336	7
TAP	18	360	2
TAP	19	0	6
TAP	19	24	5
TAP	19	48	4
TAP	19	72	3
THO	19	96	0	336	C	1	M1
TTP	20	48	1	B	0	M1
TTP	20	48	5	B	0	M1
TTP	20	55	6	B	0	M1
TTP	20	56	2	B	0	M1
TTP	20	63	7	B	0	M1
TTP	20	64	3	B	0	M1
TTP	20	71	0	E	0	M1
TTP	20	72	4	E	0	M1
TAP	22	192	1
TAP	22	216	1
TAP	22	240	4
TAP	22	264	2
TAP	22	288	3
TAP	22	312	3
HLD	22	360	6	48
TAP	23	24	3
TAP	23	48	5
TAP	23	72	4
TAP	23	96	4
TAP	23	144	2
TAP	23	192	5
TAP	24	144	4
TAP	24	168	3
HLD	24	192	6	48
TAP	24	240	3
TAP	24	264	5
TAP	24	288	4
TAP	24	312	4
HLD	24	360	1	48
TAP	25	24	4
TAP	25	48	2
TAP	25	72	3
TAP	25	96	3
HLD	25	120	5	120
XTP	25	240	2
TAP	26	96	3
TAP	26	120	5
TAP	26	144	2
TAP	26	168	4
HLD	26	192	3	48
TAP	26	240	5
TAP	26	264	2
TAP	26	288	3
TAP	26	312	3
HLD	26	360	4	48
TAP	27	24	2
TAP	27	48	5
TAP	27	72	4
TAP	27	96	4
TAP	27	144	1
HLD	27	192	5	48
TAP	27	240	4
HLD	27	264	5	48
TAP	27	312	3
HLD	27	336	5	48
TAP	28	0	2
HLD	28	24	5	48
TAP	28	72	1
TAP	28	96	6
TAP	28	120	2
TAP	28	144	5
TAP	28	168	3
TAP	28	192	4
TAP	28	228	2
TAP	28	264	5
TAP	28	288	3
TAP	28	336	4
HLD	28	360	2	48
TAP	29	48	5
TAP	29	72	2
TAP	29	96	4
TAP	29	120	3
TAP	29	144	5
HLD	29	192	2	48
TAP	29	240	3
HLD	29	264	2	48
TAP	29	312	4
HLD	29	336	2	48
TAP	30	0	5
HLD	30	24	2	48
TAP	30	72	6
TAP	30	96	2
TAP	30	120	6
TAP	30	144	1
TAP	30	168	7
BRK	30	192	0
TAP	30	240	7
TAP	30	264	1
TAP	30	288	6
TAP	30	312	2
HLD	30	360	7	24
TAP	31	24	0
TAP	31	48	6
TAP	31	72	1
TAP	31	96	5
TAP	31	144	3
HLD	31	192	4	48
TAP	31	240	3
HLD	31	264	2	48
TAP	31	312	3
HLD	31	336	4	48
TAP	32	0	3
HLD	32	24	2	48
TAP	32	72	3
TAP	32	96	5
TAP	32	120	2
TAP	32	144	6
TAP	32	168	1
TAP	32	192	7
TAP	32	240	0
TAP	32	264	6
TAP	32	288	1
TAP	32	312	7
TAP	32	336	0
TAP	32	360	0
TAP	33	24	7
TAP	33	48	1
TAP	33	72	6
TAP	33	96	2
TAP	33	120	5
TAP	33	144	3
TAP	33	168	4
HLD	33	192	3	48
TAP	33	240	4
HLD	33	264	5	48
TAP	33	312	4
HLD	33	336	3	48
TAP	34	0	4
HLD	34	24	5	48
TAP	34	72	4
TAP	34	96	2
TAP	34	120	6
TAP	34	144	1
TAP	34	168	7
TAP	34	192	0
TAP	34	216	0
TAP	34	264	1
TAP	34	288	1
TAP	34	336	2
TAP	34	360	2
TAP	35	24	3
TAP	35	48	3
TAP	35	96	4
TAP	35	120	2
TAP	35	144	5
TAP	35	168	3
TAP	35	192	7
TAP	35	216	7
TAP	35	264	6
TAP	35	288	6
TAP	35	336	5
TAP	35	360	5
TAP	36	24	4
TAP	36	48	4
TAP	36	96	1
TAP	36	120	5
TAP	36	144	2
TAP	36	168	4
TAP	36	192	3
TAP	36	216	3
TAP	36	240	2
TAP	36	264	3
TAP	36	288	3
TAP	36	312	4
TAP	36	336	3
TAP	36	360	3
TAP	37	0	2
TAP	37	24	3
TAP	37	48	3
TAP	37	72	4
TAP	37	96	3
TAP	37	120	3
TAP	37	144	2
TAP	37	192	4
TAP	37	216	4
TAP	37	240	5
TAP	37	264	4
TAP	37	288	4
TAP	37	312	3
TAP	37	336	4
TAP	37	360	4
TAP	38	0	5
TAP	38	24	4
TAP	38	48	4
TAP	38	72	3
TAP	38	96	4
TAP	38	120	5
TAP	38	144	6
TAP	38	168	7
XTP	38	192	0
XTP	38	208	1
XTP	38	224	0
XTP	38	240	1
XTP	38	256	0
XTP	38	272	1
XTP	38	288	0
XTP	38	304	1
XTP	38	320	0
XTP	38	336	1
XTP	38	352	0
XTP	38	368	1
XTP	39	0	2
XTP	39	0	7
TTP	39	72	2	E	0	M1
HLD	39	72	7	72
TTP	39	80	2	B	0	M1
TTP	39	88	3	B	0	M1
TTP	39	96	4	B	0	M1
TAP	39	192	7
HLD	39	264	7	72
TAP	40	0	7
HLD	40	72	7	72
TAP	40	192	7
HLD	40	264	7	72
TAP	41	0	1
HLD	41	72	1	72
TTP	41	72	6	E	0	M1
TTP	41	80	5	B	0	M1
TTP	41	88	4	B	0	M1
TTP	41	96	3	B	0	M1
TAP	41	192	1
HLD	41	264	1	72
TAP	42	0	6
TTP	42	72	2	E	0	M1
HLD	42	72	6	72
TTP	42	80	2	B	0	M1
TTP	42	88	3	B	0	M1
TTP	42	96	4	B	0	M1
TAP	42	192	6
HLD	42	264	6	72
TAP	43	0	2
TTP	43	72	1	E	0	M1
HLD	43	72	2	72
TTP	43	80	1	B	0	M1
TTP	43	88	2	B	0	M1
TTP	43	96	3	B	0	M1
TAP	43	192	2
HLD	43	264	2	72
TAP	44	0	2
HLD	44	72	2	72
TAP	44	192	2
HLD	44	264	2	72
TAP	45	0	5
HLD	45	72	5	72
TTP	45	72	7	E	0	M1
TTP	45	80	6	B	0	M1
TTP	45	88	5	B	0	M1
TTP	45	96	4	B	0	M1
TAP	45	192	5
HLD	45	264	5	72
TAP	46	0	1
TTP	46	72	0	E	0	M1
HLD	46	72	1	72
TTP	46	80	7	B	0	M1
TTP	46	88	6	B	0	M1
TTP	46	96	5	B	0	M1
TAP	46	192	1
HLD	46	264	1	72
TAP	47	0	5
TAP	47	48	7
TAP	47	96	1
TAP	47	120	0
TAP	47	168	6
TAP	47	192	7
TAP	47	240	2
TAP	47	252	0
HLD	47	336	6	80
TAP	47	336	7
TAP	48	32	0
TAP	48	64	1
TAP	48	96	7
TAP	48	128	6
TAP	48	160	0
TAP	48	192	2
TAP	48	216	3
TAP	48	240	4
TAP	48	264	5
TAP	48	288	3
TAP	48	320	2
HLD	48	352	3	128
TAP	49	96	2
TAP	49	120	5
TAP	49	144	4
TAP	49	168	5
TAP	49	192	2
TAP	49	216	3
HLD	49	240	1	48
TAP	49	336	4
HLD	49	336	6	48
TAP	50	48	7
TAP	50	96	0
TAP	50	144	3
HLD	50	168	1	48
TAP	50	240	0
TAP	50	240	7
TAP	50	288	4
HLD	50	312	6	48
THO	51	0	0	48	C	1	M1
TTP	51	0	1	B	0	M1
TTP	51	0	3	B	0	M1
TTP	51	0	5	B	0	M1
TTP	51	0	7	B	0	M1
TAP	52	144	1
TAP	52	168	5
TAP	52	192	3
TAP	52	216	6
TAP	52	240	2
TAP	52	264	4
TAP	52	288	1
TAP	52	312	3
TAP	52	336	5
TAP	53	144	5
TAP	53	168	4
TAP	53	288	0
TAP	53	312	7
TAP	53	336	0
TAP	53	360	1
TAP	54	144	3
TAP	54	240	4
THO	55	0	0	1152	C	0	M1
TTP	55	0	1	B	0	M1
TTP	55	0	5	B	0	M1
TTP	56	336	1	B	0	M1
TTP	56	336	5	B	0	M1
TTP	56	359	2	B	0	M1
TTP	56	360	6	B	0	M1
TTP	56	383	3	B	0	M1
TTP	57	0	7	B	0	M1
TTP	58	0	2	B	0	M1
TTP	58	0	6	B	0	M1
TTP	58	7	1	B	0	M1
TTP	58	8	5	B	0	M1
TTP	58	15	0	B	0	M1
TTP	58	16	4	B	0	M1
TTP	58	23	0	E	0	M1
TTP	58	24	4	E	0	M1
TAP	58	96	6
TAP	58	168	6
TAP	58	240	6
TAP	58	312	6
TAP	59	0	6
TAP	59	72	6
TAP	59	144	6
TAP	59	216	6
TAP	59	288	6
TAP	59	360	6
TAP	60	48	6
TAP	60	120	6
TAP	60	192	2
TTP	60	192	6	B	0	M1
TTP	60	200	7	B	0	M1
TTP	60	208	0	B	0	M1
TTP	60	216	1	E	0	M1
TAP	60	264	2
TAP	60	336	2
TAP	61	24	2
TAP	61	96	2
TAP	61	168	2
TAP	61	240	2
TAP	61	312	2
TTP	62	0	1	B	0	M1
TAP	62	0	5
TTP	62	8	0	B	0	M1
TTP	62	16	7	B	0	M1
TTP	62	24	7	E	0	M1
TAP	62	72	5
TAP	62	144	5
TAP	62	216	5
TAP	62	288	5
TAP	62	360	5
TAP	63	48	3
TTP	63	48	6	B	0	M1
TTP	63	56	7	B	0	M1
TTP	63	64	0	B	0	M1
TTP	63	72	1	E	0	M1
TAP	63	120	3
TAP	63	192	3
TAP	63	192	4
TAP	63	264	3
TAP	63	336	3
TAP	64	0	4
TAP	64	24	3
TAP	64	96	3
TAP	64	168	3
TAP	64	192	4
TAP	64	240	3
TAP	64	312	3
TAP	65	0	3
TAP	65	0	4
TAP	65	72	3
TAP	65	144	3
TTP	65	192	6	E	0	M1
TAP	65	216	4
TTP	65	288	2	E	0	M1
TAP	65	288	4
TAP	65	360	4
TTP	66	0	0	C	0	M1
TAP	66	48	4
TTP	66	96	6	E	0	M1
TAP	66	120	4
TTP	66	192	2	E	0	M1
TAP	66	192	4
TAP	66	264	4
TTP	66	288	0	C	0	M1
TAP	66	336	4
TTP	67	0	6	E	0	M1
TTP	67	108	2	E	0	M1
TTP	67	216	0	C	0	M1
TTP	67	324	6	E	0	M1
TTP	68	48	2	E	0	M1
TTP	68	156	0	C	0	M1
TAP	69	192	5
TAP	69	216	4
TAP	69	240	5
TAP	69	264	4
TAP	69	288	5
TAP	69	312	4
TAP	69	336	5
TAP	69	360	4
HLD	70	0	5	96
BRK	70	96	0
TAP	70	192	1
TAP	70	192	3
TTP	70	264	2	B	0	M1
HLD	70	264	5	72
TTP	70	272	3	B	0	M1
TTP	70	280	4	B	0	M1
TTP	70	288	5	E	0	M1
TAP	71	0	5
TAP	71	0	7
HLD	71	72	3	72
TTP	71	72	6	E	0	M1
TTP	71	80	5	B	0	M1
TTP	71	88	4	B	0	M1
TTP	71	96	3	B	0	M1
TAP	71	192	0
TAP	71	192	2
TTP	71	264	2	E	0	M1
HLD	71	264	4	72
TTP	71	272	2	B	0	M1
TTP	71	280	3	B	0	M1
TTP	71	288	4	B	0	M1
TAP	72	0	4
TAP	72	0	6
HLD	72	72	2	72
TTP	72	72	5	B	0	M1
TTP	72	80	4	B	0	M1
TTP	72	88	3	B	0	M1
TTP	72	96	3	E	0	M1
TAP	72	192	1
TAP	72	192	3
TTP	72	264	2	B	0	M1
HLD	72	264	5	72
TTP	72	272	3	B	0	M1
TTP	72	280	4	B	0	M1
TTP	72	288	5	E	0	M1
TAP	73	0	4
TAP	73	0	6
TAP	73	72	2
TTP	73	72	5	B	0	M1
TTP	73	80	4	B	0	M1
TTP	73	88	3	B	0	M1
TTP	73	96	3	E	0	M1
HLD	73	144	6	96
TTP	73	192	0	E	0	M1
HLD	73	240	0	96
TTP	73	288	6	E	0	M1
HLD	73	336	7	96
TTP	74	0	2	E	0	M1
TAP	74	48	1
TTP	74	96	0	E	0	M1
TAP	74	192	4
TAP	74	192	6
HLD	74	264	1	72
TTP	74	264	6	B	0	M1
TTP	74	272	7	B	0	M1
TTP	74	280	0	B	0	M1
TTP	74	288	1	E	0	M1
TAP	75	0	0
TAP	75	0	2
TTP	75	72	0	E	0	M1
HLD	75	72	4	72
TTP	75	80	7	B	0	M1
TTP	75	88	6	B	0	M1
TTP	75	96	5	B	0	M1
TAP	75	192	5
TAP	75	192	7
TTP	75	264	0	E	0	M1
HLD	75	264	3	72
TTP	75	272	0	B	0	M1
TTP	75	280	1	B	0	M1
TTP	75	288	2	B	0	M1
TAP	76	0	1
TAP	76	0	3
TTP	76	72	1	B	0	M1
HLD	76	72	6	72
TTP	76	80	0	B	0	M1
TTP	76	88	7	B	0	M1
TTP	76	96	7	E	0	M1
TAP	76	192	4
TAP	76	192	6
HLD	76	264	2	72
TTP	76	264	7	B	0	M1
TTP	76	272	0	B	0	M1
TTP	76	280	1	B	0	M1
TTP	76	288	2	E	0	M1
TAP	77	0	1
TAP	77	0	3
TTP	77	72	0	B	0	M1
HLD	77	72	5	72
TTP	77	80	7	B	0	M1
TTP	77	88	6	B	0	M1
TTP	77	96	6	E	0	M1
TAP	77	192	5
TAP	77	192	7
HLD	77	264	2	72
TTP	77	264	7	E	0	M1
TTP	77	272	7	B	0	M1
TTP	77	280	0	B	0	M1
TTP	77	288	1	B	0	M1
TAP	78	0	0
TAP	78	0	7
XTP	78	96	1
XTP	78	96	6
XTP	78	100	2
XTP	78	100	5
XTP	78	104	3
XTP	78	104	4
TAP	78	192	3
TAP	78	192	5
TAP	78	264	2
TTP	78	264	7	E	0	M1
TTP	78	272	6	E	0	M1
TTP	78	280	5	E	0	M1
HLD	78	288	2	48
TTP	78	289	4	E	0	M1
TAP	78	336	5
TAP	79	0	4
TAP	79	0	6
TTP	79	72	2	E	0	M1
TAP	79	72	7
TTP	79	80	3	E	0	M1
TTP	79	88	4	E	0	M1
HLD	79	96	7	48
TTP	79	97	5	E	0	M1
TAP	79	144	2
TAP	79	192	1
TAP	79	192	3
TAP	79	264	0
TTP	79	264	6	E	0	M1
TTP	79	272	5	E	0	M1
TTP	79	280	4	E	0	M1
HLD	79	288	0	48
TTP	79	289	3	E	0	M1
TAP	79	336	5
TAP	80	0	4
TAP	80	0	6
TTP	80	72	1	E	0	M1
TAP	80	72	5
TTP	80	80	2	E	0	M1
TTP	80	88	3	E	0	M1
HLD	80	96	5	48
TTP	80	97	4	E	0	M1
TAP	80	144	1
TAP	80	192	0
TAP	80	192	3
TAP	80	264	2
TTP	80	264	6	E	0	M1
TTP	80	272	5	E	0	M1
TTP	80	280	4	E	0	M1
HLD	80	288	2	48
TTP	80	289	3	E	0	M1
TAP	80	336	6
TAP	81	0	4
TAP	81	0	7
TTP	81	72	2	E	0	M1
TAP	81	72	5
TTP	81	80	3	E	0	M1
TTP	81	88	4	E	0	M1
TAP	81	96	5
TTP	81	97	5	E	0	M1
HLD	81	144	3	96
TTP	81	192	0	E	0	M1
HLD	81	240	5	96
TTP	81	288	7	E	0	M1
HLD	81	336	2	96
TTP	82	0	3	B	0	M1
TAP	82	48	4
TTP	82	96	5	B	0	M1
TAP	82	192	1
TAP	82	192	7
TTP	82	264	3	E	0	M1
TAP	82	264	6
TTP	82	272	2	E	0	M1
TTP	82	280	1	E	0	M1
HLD	82	288	6	48
TTP	82	289	0	E	0	M1
TAP	82	336	1
TAP	83	0	2
TAP	83	0	7
TTP	83	72	4	E	0	M1
TAP	83	72	5
TTP	83	80	3	E	0	M1
TTP	83	88	2	E	0	M1
HLD	83	96	5	48
TTP	83	97	1	E	0	M1
TAP	83	144	3
TAP	83	192	4
TAP	83	192	7
TAP	83	264	2
TTP	83	264	7	E	0	M1
TTP	83	272	6	E	0	M1
TTP	83	280	5	E	0	M1
HLD	83	288	2	48
TTP	83	289	4	E	0	M1
TAP	83	336	5
TAP	84	0	0
TAP	84	0	6
TTP	84	72	0	E	0	M1
TAP	84	72	1
TTP	84	80	7	E	0	M1
TTP	84	88	6	E	0	M1
HLD	84	96	1	48
TTP	84	97	5	E	0	M1
TAP	84	144	7
TAP	84	192	4
TAP	84	192	6
TTP	84	264	4	E	0	M1
TAP	84	264	7
TTP	84	272	3	E	0	M1
TTP	84	280	2	E	0	M1
HLD	84	288	7	48
TTP	84	289	1	E	0	M1
TAP	84	336	2
TAP	85	0	3
TAP	85	0	5
TAP	85	72	1
TTP	85	72	5	E	0	M1
TTP	85	80	6	E	0	M1
TTP	85	88	7	E	0	M1
HLD	85	96	1	48
TTP	85	97	0	E	0	M1
TAP	85	144	3
TAP	85	192	2
TAP	85	192	4
TTP	85	264	3	E	0	M1
TAP	85	264	5
TTP	85	272	2	E	0	M1
TTP	85	280	1	E	0	M1
HLD	85	288	5	48
TTP	85	289	0	E	0	M1
TAP	85	336	3
TAP	86	0	1
TAP	86	0	3
TAP	86	72	0
TTP	86	72	4	E	0	M1
TTP	86	80	5	E	0	M1
TTP	86	88	6	E	0	M1
TAP	86	96	0
TTP	86	97	7	E	0	M1
BRK	86	192	6
XTP	86	208	7
XTP	86	224	6
XTP	86	240	7
XTP	86	256	6
XTP	86	272	7
XTP	86	288	6
TAP	86	320	3
TAP	86	352	4
BRK	87	0	1
XTP	87	16	0
XTP	87	32	1
XTP	87	48	0
XTP	87	64	1
XTP	87	80	0
XTP	87	96	1
TAP	87	128	4
TAP	87	160	3
BRK	87	192	6
XTP	87	208	7
XTP	87	224	6
XTP	87	240	7
XTP	87	256	6
XTP	87	272	7
XTP	87	288	6
TAP	87	320	3
TAP	87	352	4
TAP	88	0	0
TAP	88	32	5
TAP	88	64	1
TAP	88	96	7
TAP	88	128	2
TAP	88	160	6
BRK	88	192	0
TAP	88	216	5
TAP	88	240	0
TAP	88	264	7
TAP	88	288	6
TAP	88	312	5
BRK	88	336	7
TAP	88	360	2
TAP	89	0	7
TAP	89	24	0
TAP	89	48	1
TAP	89	72	2
BRK	89	96	0
TAP	89	120	5
TAP	89	144	0
TAP	89	168	7
TAP	89	192	6
TAP	89	216	5
BRK	89	240	7
TAP	89	264	2
TAP	89	288	6
TAP	89	320	5
TAP	89	352	4
TAP	90	0	1
TAP	90	32	2
TAP	90	64	3
TAP	90	96	5
TAP	90	128	4
TAP	90	160	2
TAP	90	192	3
TAP	90	224	4
TAP	90	256	3
TAP	90	288	5
TAP	90	312	2
TAP	90	336	6
TAP	90	360	1
BRK	91	0	7
TAP	91	24	2
TAP	91	48	7
TAP	91	72	0
TAP	91	96	1
TAP	91	120	2
BRK	91	144	0
TAP	91	168	5
TAP	91	192	0
TAP	91	216	7
TAP	91	240	6
TAP	91	264	5
BRK	91	288	7
TAP	91	312	2
TAP	91	336	7
TAP	91	360	0
TAP	92	0	1
TAP	92	24	2
BRK	92	48	0
TAP	92	72	5
TAP	92	96	1
TAP	92	128	2
TAP	92	160	3
TAP	92	192	6
TAP	92	224	5
TAP	92	256	4
TAP	92	288	2
TAP	92	320	3
TAP	92	352	5
TAP	93	0	4
TAP	93	32	3
TAP	93	64	4
TAP	93	96	2
TAP	93	120	5
TAP	93	144	1
TAP	93	168	6
BRK	93	192	0
TAP	93	216	4
TAP	93	240	1
TAP	93	264	2
TAP	93	288	3
TAP	93	312	4
BRK	93	336	7
TAP	93	360	3
TAP	94	0	6
TAP	94	24	5
TAP	94	48	4
TAP	94	72	3
HLD	94	96	0	336
HLD	94	96	2	336
TAP	95	60	1
TAP	95	60	3
TAP	95	72	2
TAP	95	72	4
TAP	95	84	3
TAP	95	84	5
HLD	95	96	4	600
HLD	95	96	6	600
TAP	96	336	3
TAP	96	336	5
TAP	96	360	2
TAP	96	360	4
TAP	97	0	1
STR	97	0	3
SCL	97	0	3	96	864	4
THO	97	144	0	816	C	0	M1

T_REC_TAP	576
T_REC_BRK	25
T_REC_XTP	39
T_REC_HLD	82
T_REC_XHO	0
T_REC_STR	1
T_REC_BST	0
T_REC_XST	0
T_REC_TTP	228
T_REC_THO	4
T_REC_SLD	1
T_REC_ALL	956
T_NUM_TAP	844
T_NUM_BRK	25
T_NUM_HLD	86
T_NUM_SLD	1
T_NUM_ALL	956
T_JUDGE_TAP	869
T_JUDGE_HLD	207
T_JUDGE_SLD	1
T_JUDGE_ALL	1077
TTM_EACHPAIRS	45
TTM_SCR_TAP	422000
TTM_SCR_BRK	65000
TTM_SCR_HLD	86000
TTM_SCR_SLD	1500
TTM_SCR_ALL	574500
TTM_SCR_S	554850
TTM_SCR_SS	572000
TTM_RAT_ACV	10043

