VERSION	0.00.00	1.03.00
FES_MODE	0
BPM_DEF	180.000	180.000	180.000	135.000
MET_DEF	4	4
RESOLUTION	384
CLK_DEF	384
COMPATIBLE_CODE	MA2

BPM	0	0	180.000
BPM	93	192	165.000
BPM	93	336	150.000
BPM	94	96	135.000
MET	0	0	4	4
MET	2	0	4	5
MET	4	192	4	6
MET	6	0	4	4
MET	7	0	4	5
MET	9	192	4	6
MET	11	0	4	4
MET	13	0	4	2
MET	13	192	4	3
MET	15	0	4	4
MET	16	0	4	3
MET	17	192	4	4
MET	38	192	4	2
MET	39	0	4	4
MET	58	0	4	5
MET	60	192	4	6
MET	62	0	4	4
MET	63	0	4	5
MET	65	192	4	6
MET	67	0	4	4
MET	70	0	4	2
MET	70	192	4	4
MET	88	192	4	3
MET	90	0	4	4
MET	91	0	4	3
MET	92	192	4	4
MET	93	192	4	3
MET	94	96	4	4
MET	96	96	4	3
MET	97	0	4	4

TAP	1	192	0
TAP	1	240	0
TAP	1	288	0
TAP	1	336	0
HLD	2	0	6	912
HLD	2	16	2	1472
TAP	4	192	5
HLD	4	240	4	864
TAP	6	0	2
HLD	6	48	3	1248
TAP	7	0	4
HLD	7	48	5	1488
TAP	9	192	2
HLD	9	240	1	528
TAP	11	48	6
TAP	11	120	5
TAP	11	192	4
TAP	11	264	5
TAP	11	336	4
TAP	12	24	3
TAP	12	96	4
TAP	12	168	3
TAP	12	240	2
TAP	12	312	3
TAP	13	0	2
TAP	13	72	1
TAP	13	144	2
HLD	13	192	2	144
TAP	13	288	4
HLD	13	336	3	144
TAP	14	48	5
HLD	14	96	4	144
TAP	14	192	6
HLD	14	240	5	528
TAP	14	336	3
TAP	15	48	3
TAP	15	144	3
TAP	15	240	3
TAP	15	336	3
HLD	16	0	2	144
TAP	16	96	4
HLD	16	144	3	144
TAP	16	240	5
HLD	16	288	4	144
TAP	17	0	6
HLD	17	48	5	528
TAP	17	144	3
TAP	17	240	3
TAP	17	336	3
TAP	18	48	3
TAP	18	144	3
HLD	18	192	2	144
TAP	18	288	3
HLD	18	336	5	144
TAP	19	48	4
HLD	19	96	1	80
HLD	19	176	2	80
HLD	19	256	3	80
HLD	19	336	4	80
HLD	20	32	5	736
TAP	22	192	5
TAP	22	240	4
TAP	22	288	5
TAP	22	336	6
TAP	23	0	5
TAP	23	48	4
TAP	23	96	5
TAP	23	144	6
HLD	23	192	5	336
TAP	24	144	4
TAP	24	192	5
TAP	24	240	6
TAP	24	288	5
TAP	24	336	4
TAP	25	0	5
TAP	25	48	6
TAP	25	96	5
HLD	25	144	4	336
HLD	25	240	6	288
TAP	26	192	5
TAP	26	240	4
TAP	26	288	5
TAP	26	336	6
TAP	27	0	5
TAP	27	48	4
TAP	27	96	5
TAP	27	144	6
TAP	27	192	5
TAP	27	264	5
TAP	27	336	5
TAP	28	24	5
TAP	28	96	5
TAP	28	192	5
TAP	28	240	4
TAP	28	288	5
TAP	28	336	6
TAP	29	0	5
TAP	29	48	4
TAP	29	96	5
TAP	29	144	6
HLD	29	192	5	72
TAP	29	264	4
TAP	29	312	4
HLD	29	360	4	72
TAP	30	48	5
TAP	30	96	5
TAP	30	192	2
TAP	30	240	3
HLD	30	288	2	72
HLD	30	360	3	72
TAP	31	48	1
TAP	31	96	2
TAP	31	144	3
TAP	31	192	2
TAP	31	264	2
TAP	31	336	2
TAP	32	24	2
TAP	32	96	2
TAP	32	192	2
TAP	32	240	3
HLD	32	288	2	72
HLD	32	360	3	72
TAP	33	48	1
TAP	33	96	2
TAP	33	144	3
TAP	33	192	2
TAP	33	264	2
TAP	33	336	2
TAP	34	24	2
TAP	34	96	2
HLD	34	144	1	336
TAP	34	192	3
TAP	34	264	3
TAP	34	336	3
TAP	35	24	3
TAP	35	96	3
HLD	35	144	4	336
TAP	35	192	2
TAP	35	264	2
TAP	35	336	2
TAP	36	24	2
TAP	36	96	2
HLD	36	144	3	336
TAP	36	192	5
TAP	36	264	5
TAP	36	336	5
TAP	37	24	5
TAP	37	96	5
HLD	37	144	6	336
TAP	37	192	4
TAP	37	264	4
TAP	37	336	4
TAP	38	24	4
TAP	38	96	4
HLD	38	144	3	240
XTP	38	192	4
XTP	38	224	4
XTP	38	256	4
XTP	38	288	4
XTP	38	320	4
XTP	38	352	4
HLD	39	0	4	72
HLD	39	192	4	72
HLD	40	0	4	72
HLD	40	192	4	72
HLD	41	0	4	72
HLD	41	72	2	312
HLD	41	192	4	72
HLD	42	0	4	72
HLD	42	48	3	336
HLD	42	192	4	72
HLD	43	0	4	72
HLD	43	72	5	696
HLD	43	192	4	72
HLD	44	0	4	72
HLD	44	192	4	72
HLD	45	0	4	72
HLD	45	72	3	312
HLD	45	192	4	72
HLD	46	0	4	72
HLD	46	192	4	72
TAP	47	0	1
TAP	47	48	1
TAP	47	96	2
TAP	47	120	3
TAP	47	168	3
TAP	47	192	4
TAP	47	240	4
TAP	47	264	5
TAP	47	336	6
TAP	48	48	5
TAP	48	96	3
TAP	48	128	4
TAP	48	160	3
TAP	48	192	5
TAP	48	224	4
TAP	48	256	5
TAP	48	288	2
TAP	48	320	3
TAP	48	352	2
TAP	49	0	4
TAP	49	96	6
TAP	49	144	5
TAP	49	192	4
TAP	49	240	3
TAP	49	336	4
TAP	50	48	3
TAP	50	96	2
TAP	50	144	1
TAP	50	240	3
TAP	50	288	4
THO	51	0	0	48	C	0	M1
TAP	52	144	4
TAP	52	168	3
TAP	52	192	4
TAP	52	240	1
TAP	52	264	3
TAP	52	312	6
TAP	52	336	4
TAP	53	168	3
TAP	53	192	4
TAP	53	312	5
TAP	53	336	3
TAP	53	360	4
HLD	54	0	2	144
HLD	54	144	3	96
HLD	54	240	4	144
TAP	55	0	5
TAP	55	48	5
TAP	55	96	3
TAP	55	160	4
TAP	55	192	3
TAP	55	256	4
TAP	55	288	3
TAP	55	352	4
TAP	56	0	3
TAP	56	64	4
TAP	56	96	3
TAP	56	144	4
TAP	56	168	3
TAP	56	216	4
TAP	56	240	3
TAP	56	288	4
TAP	56	312	3
TAP	56	360	4
TAP	57	0	3
TAP	57	48	4
TAP	57	72	3
TAP	57	120	4
TAP	57	144	3
TAP	57	192	4
TAP	57	216	3
TAP	57	264	4
TAP	57	288	3
TAP	57	336	4
TAP	58	0	2
HLD	58	48	2	1824
TTP	59	96	6	E	0	M1
TTP	59	120	7	E	0	M1
TTP	59	144	0	E	0	M1
TTP	59	168	1	E	0	M1
TTP	59	192	2	E	0	M1
TTP	59	288	4	E	0	M1
TTP	60	0	0	C	0	M1
TTP	60	96	0	E	0	M1
TTP	60	192	6	E	0	M1
TTP	62	0	2	E	0	M1
TAP	63	0	5
HLD	63	48	5	1488
TTP	64	96	2	E	0	M1
TTP	64	120	1	E	0	M1
TTP	64	144	0	E	0	M1
TTP	64	168	7	E	0	M1
TTP	64	192	6	E	0	M1
TTP	64	288	3	E	0	M1
TTP	65	0	5	E	0	M1
TTP	65	96	2	E	0	M1
TTP	65	192	6	E	0	M1
TAP	67	0	3
TAP	67	24	4
TAP	67	48	2
TAP	67	144	1
TAP	67	216	2
TAP	67	288	3
TAP	67	360	2
TAP	68	48	3
TAP	68	120	4
TAP	68	192	3
TAP	68	264	4
TAP	68	336	5
TAP	69	24	4
TAP	69	96	5
TAP	69	168	6
TAP	69	192	3
TAP	69	216	4
TAP	69	240	3
TAP	69	264	4
TAP	69	288	3
TAP	69	312	4
TAP	69	336	3
TAP	69	360	4
TAP	70	0	3
TTP	70	96	0	C	1	M1
TAP	70	192	7
TAP	70	264	0
TAP	70	288	7
TAP	70	336	0
TAP	70	360	7
TAP	71	0	0
TAP	71	72	7
TAP	71	96	0
TAP	71	144	7
TAP	71	168	0
TAP	71	192	7
TAP	71	264	0
TAP	71	288	7
TAP	71	336	0
TAP	71	360	7
TAP	72	0	0
TAP	72	72	7
TAP	72	96	0
TAP	72	144	7
TAP	72	168	0
TAP	72	192	7
TAP	72	264	0
TAP	72	288	7
TAP	72	336	0
TAP	72	360	7
TAP	73	0	0
TAP	73	72	7
TAP	73	96	0
TAP	73	144	7
TAP	73	168	0
TAP	73	192	7
TAP	73	264	0
TAP	73	288	7
TAP	73	336	0
TAP	73	360	7
TAP	74	0	0
TAP	74	72	7
TAP	74	96	0
TAP	74	144	7
TAP	74	168	0
TAP	74	192	6
TAP	74	264	0
TAP	74	288	7
TAP	74	336	0
TAP	74	360	7
TAP	75	0	1
TAP	75	72	7
TAP	75	96	0
TAP	75	144	7
TAP	75	168	0
TAP	75	192	6
TAP	75	264	0
TAP	75	288	7
TAP	75	336	0
TAP	75	360	7
TAP	76	0	1
TAP	76	72	7
TAP	76	96	0
TAP	76	144	7
TAP	76	168	0
TAP	76	192	6
TAP	76	264	0
TAP	76	288	7
TAP	76	336	0
TAP	76	360	7
TAP	77	0	1
TAP	77	72	7
TAP	77	96	0
TAP	77	144	7
TAP	77	168	0
TAP	77	192	6
TAP	77	264	0
TAP	77	288	7
TAP	77	336	0
TAP	77	360	7
TAP	78	0	1
TTP	78	96	4	E	0	M1
TAP	78	192	6
TAP	78	264	0
TAP	78	288	6
TAP	78	336	0
TAP	78	360	7
TAP	79	0	1
TAP	79	72	7
TAP	79	96	1
TAP	79	144	7
TAP	79	168	0
TAP	79	192	6
TAP	79	264	0
TAP	79	288	6
TAP	79	336	0
TAP	79	360	7
TAP	80	0	1
TAP	80	72	7
TAP	80	96	1
TAP	80	144	7
TAP	80	168	0
TAP	80	192	6
TAP	80	264	0
TAP	80	288	6
TAP	80	336	0
TAP	80	360	7
TAP	81	0	1
TAP	81	72	7
TAP	81	96	1
TAP	81	144	7
TAP	81	168	0
TAP	81	192	6
TAP	81	264	0
TAP	81	288	6
TAP	81	336	0
TAP	81	360	7
TAP	82	0	1
TAP	82	72	7
TAP	82	96	1
TAP	82	144	7
TAP	82	168	0
TAP	82	192	5
TAP	82	264	0
TAP	82	288	5
TAP	82	336	0
TAP	82	360	7
TAP	83	0	2
TAP	83	72	7
TAP	83	96	2
TAP	83	144	7
TAP	83	168	0
TAP	83	192	5
TAP	83	264	0
TAP	83	288	5
TAP	83	336	0
TAP	83	360	7
TAP	84	0	2
TAP	84	72	7
TAP	84	96	2
TAP	84	144	7
TAP	84	168	0
TAP	84	192	5
TAP	84	264	0
TAP	84	288	5
TAP	84	336	0
TAP	84	360	7
TAP	85	0	2
TAP	85	72	7
TAP	85	96	2
TAP	85	144	7
TAP	85	168	0
TAP	85	192	5
TAP	85	264	0
TAP	85	288	5
TAP	85	336	0
TAP	85	360	7
XTP	86	0	1
XTP	86	0	6
TTP	86	96	0	C	0	M1
XHO	86	192	1	16
XHO	86	224	6	16
XHO	86	256	1	16
XHO	86	288	6	16
XHO	86	320	1	16
XHO	86	352	6	16
XHO	87	0	1	16
XHO	87	32	6	16
XHO	87	64	1	16
XHO	87	96	6	16
XHO	87	128	1	16
XHO	87	160	6	16
XHO	87	192	1	16
XHO	87	224	6	16
XHO	87	256	1	16
XHO	87	288	6	16
XHO	87	320	1	16
XHO	87	352	6	16
TAP	88	0	1
TAP	88	32	2
TAP	88	64	3
TAP	88	96	6
TAP	88	128	5
TAP	88	160	4
HLD	88	192	0	144
TAP	88	288	2
HLD	88	336	7	144
TAP	89	48	5
HLD	89	96	0	144
TAP	89	192	7
STR	89	240	6
SI_	89	240	6	96	48	1
STR	89	336	2
SI_	89	336	2	96	48	5
STR	90	48	7
SI_	90	48	7	96	48	4
STR	90	144	0
SI_	90	144	0	96	48	3
STR	90	240	6
SI_	90	240	6	96	48	2
TAP	90	336	0
HLD	91	0	1	144
TAP	91	96	2
HLD	91	144	6	144
TAP	91	240	5
HLD	91	288	0	144
TAP	92	0	7
STR	92	48	6
SI_	92	48	6	96	48	3
STR	92	144	2
SI_	92	144	2	96	48	7
STR	92	240	5
SI_	92	240	5	96	48	1
TAP	92	336	0
TAP	93	48	0
TAP	93	72	7
TAP	93	96	0
TAP	93	120	7
TAP	93	144	0
TAP	93	168	7
BRK	93	192	0
TAP	93	288	5
TAP	93	312	4
BRK	93	336	7
TAP	94	48	2
TAP	94	72	3
BRK	94	96	0
TAP	95	0	5
TAP	95	16	4
TAP	95	32	3
TAP	95	48	2
TAP	95	96	2
TAP	95	144	2
TAP	95	192	2
TAP	95	264	2
TAP	95	360	2
TAP	96	96	2
TAP	96	336	2
TAP	96	360	4
HLD	97	0	3	960
HLD	97	168	5	792

T_REC_TAP	403
T_REC_BRK	3
T_REC_XTP	8
T_REC_HLD	68
T_REC_XHO	18
T_REC_STR	8
T_REC_BST	0
T_REC_XST	0
T_REC_TTP	22
T_REC_THO	1
T_REC_SLD	8
T_REC_ALL	539
T_NUM_TAP	441
T_NUM_BRK	3
T_NUM_HLD	87
T_NUM_SLD	8
T_NUM_ALL	539
T_JUDGE_TAP	444
T_JUDGE_HLD	490
T_JUDGE_SLD	8
T_JUDGE_ALL	942
TTM_EACHPAIRS	1
TTM_SCR_TAP	220500
TTM_SCR_BRK	7800
TTM_SCR_HLD	87000
TTM_SCR_SLD	12000
TTM_SCR_ALL	327300
TTM_SCR_S	317200
TTM_SCR_SS	327000
TTM_RAT_ACV	10009

