VERSION	0.00.00	1.03.00
FES_MODE	0
BPM_DEF	180.000	180.000	180.000	135.000
MET_DEF	4	4
RESOLUTION	384
CLK_DEF	384
COMPATIBLE_CODE	MA2

BPM	0	0	180.000
BPM	93	192	165.000
BPM	93	336	150.000
BPM	94	96	135.000
MET	0	0	4	4
MET	2	0	4	5
MET	4	192	4	6
MET	6	0	4	4
MET	7	0	4	5
MET	9	192	4	6
MET	11	0	4	4
MET	13	0	4	2
MET	13	192	4	3
MET	15	0	4	4
MET	16	0	4	3
MET	17	192	4	4
MET	38	192	4	2
MET	39	0	4	4
MET	58	0	4	5
MET	60	192	4	6
MET	62	0	4	4
MET	63	0	4	5
MET	65	192	4	6
MET	67	0	4	4
MET	70	0	4	2
MET	70	192	4	4
MET	88	192	4	3
MET	90	0	4	4
MET	91	0	4	3
MET	92	192	4	4
MET	93	192	4	3
MET	94	96	4	4
MET	96	96	4	3
MET	97	0	4	4

STR	2	0	1
SXL	2	0	1	96	480	5
STR	4	192	6
SCL	4	192	6	96	288	2
STR	6	0	1
SUR	6	0	1	96	192	5
STR	7	0	6
SXL	7	0	6	96	480	3
STR	9	192	2
SLL	9	192	2	96	288	4
THO	11	0	0	288	C	0	L1
TAP	13	0	0
TAP	13	0	7
TAP	13	96	0
TAP	13	96	7
TAP	13	192	6
TAP	13	288	6
TAP	14	0	6
TAP	14	0	7
TAP	14	96	0
TAP	14	192	1
TAP	14	288	0
TAP	14	288	1
TAP	15	0	2
TAP	15	96	2
TAP	15	96	3
TAP	15	192	4
TAP	15	288	3
TAP	15	288	4
TAP	16	0	5
TAP	16	96	5
TAP	16	192	4
TAP	16	192	5
TAP	16	288	3
TAP	17	0	2
TAP	17	96	2
TAP	17	96	3
TAP	17	192	1
TAP	17	288	0
TAP	17	288	1
TAP	18	0	7
TAP	18	96	0
TAP	18	96	7
TAP	18	192	1
TAP	18	192	6
TAP	18	240	1
TAP	18	240	6
TAP	18	288	1
TAP	18	288	6
TAP	19	0	0
TAP	19	0	7
TAP	19	48	0
TAP	19	48	7
BST	19	96	0
SCR	19	96	0	96	768	7
BRK	19	96	7
TTP	22	192	7	E	0	L1
TTP	22	288	6	B	0	L1
TTP	23	0	5	B	0	L1
TTP	23	96	5	E	0	L1
TTP	23	192	4	B	0	L1
TTP	23	288	3	B	0	L1
TTP	24	0	3	E	0	L1
TTP	24	192	1	E	0	L1
TTP	24	288	1	B	0	L1
TTP	25	0	2	B	0	L1
TTP	25	96	3	E	0	L1
TTP	25	192	3	B	0	L1
TTP	25	288	4	B	0	L1
TTP	26	0	5	E	0	L1
XTP	26	192	6
TAP	26	288	6
TAP	27	0	5
TAP	27	96	5
TAP	27	192	4
TAP	27	288	4
TAP	28	0	3
TAP	28	0	5
TAP	28	192	2
TAP	28	288	2
TAP	29	0	1
TAP	29	96	1
TAP	29	192	0
TAP	29	288	0
TAP	30	0	1
TAP	30	0	7
TAP	30	192	6
TAP	30	288	6
TAP	31	0	6
TAP	31	0	7
TAP	31	96	6
TAP	31	96	7
TAP	31	192	1
TAP	31	288	1
TAP	32	0	0
TAP	32	0	1
TAP	32	96	0
TAP	32	96	1
TAP	32	192	2
TAP	32	288	2
TAP	33	0	3
TAP	33	96	3
TAP	33	192	4
TAP	33	288	4
TAP	34	0	3
TAP	34	0	5
TAP	34	192	2
TAP	34	288	2
TAP	35	0	2
TAP	35	0	3
TAP	35	96	2
TAP	35	96	3
TAP	35	192	5
TAP	35	288	5
TAP	36	0	4
TAP	36	0	5
TAP	36	96	4
TAP	36	96	5
TAP	36	192	6
TAP	36	288	6
TAP	37	0	7
TAP	37	96	7
TAP	37	192	0
TAP	37	288	1
TAP	38	0	2
TAP	38	96	3
TAP	38	192	3
TAP	38	192	4
TAP	38	240	3
TAP	38	240	4
TAP	38	288	3
TAP	38	288	4
BST	39	0	2
SLL	39	0	2	96	384	4
BST	39	0	5
SLR	39	0	5	96	384	3
STR	41	0	6
SUL	41	0	6	96	192	2
STR	42	0	1
SUR	42	0	1	96	192	5
STR	43	0	6
SCL	43	0	6	96	192	3
STR	44	0	2
SCL	44	0	2	96	192	7
TAP	45	0	6
TAP	45	96	6
TAP	45	192	6
TAP	45	192	7
TAP	46	0	1
TAP	46	96	1
TAP	46	192	0
TAP	46	192	7
HLD	47	0	6	192
HLD	47	192	7	192
HLD	48	0	0	192
TAP	48	192	1
HLD	49	0	2	192
HLD	49	192	3	192
HLD	50	0	4	192
TAP	50	192	5
HLD	51	0	6	96
HLD	51	0	7	96
TAP	51	192	6
TAP	51	192	7
HLD	52	0	0	96
HLD	52	0	1	96
TAP	52	192	0
TAP	52	192	1
HLD	53	0	2	96
HLD	53	0	3	96
TAP	53	192	2
TAP	53	192	3
HLD	54	0	4	96
HLD	54	0	5	96
TAP	54	192	4
TAP	54	192	5
BRK	55	0	3
BST	55	0	4
SCR	55	0	4	96	768	3
XST	58	0	3
SXR	58	0	3	96	576	0
XST	58	0	4
SXL	58	0	4	96	576	7
STR	60	192	6
SXR	60	192	6	96	384	2
STR	62	0	1
SUR	62	0	1	96	192	5
STR	63	0	6
SXL	63	0	6	96	480	3
STR	65	192	2
SUR	65	192	2	96	384	5
STR	67	0	6
SCL	67	0	6	96	480	7
TAP	69	288	0
TAP	69	288	7
TAP	70	0	0
TAP	70	0	7
XTP	70	96	0
XTP	70	96	7
TAP	70	192	6
TAP	70	288	6
TAP	70	288	7
TAP	71	0	6
TAP	71	96	6
TAP	71	96	7
TAP	71	192	1
TAP	71	288	0
TAP	71	288	1
TAP	72	0	1
TAP	72	96	0
TAP	72	96	1
TAP	72	192	2
TAP	72	288	2
TAP	73	0	3
TAP	73	96	3
TAP	73	192	4
TAP	73	288	4
TAP	74	0	3
TAP	74	0	5
TAP	74	192	2
TAP	74	288	2
TAP	74	288	3
TAP	75	0	2
TAP	75	96	2
TAP	75	96	3
TAP	75	192	5
TAP	75	288	4
TAP	75	288	5
TAP	76	0	5
TAP	76	96	4
TAP	76	96	5
TAP	76	192	6
TAP	76	288	6
TAP	77	0	7
TAP	77	96	7
TAP	77	192	0
TAP	77	288	0
TAP	77	288	7
TAP	78	0	1
TAP	78	0	6
TAP	78	192	1
TAP	78	288	0
TAP	78	288	1
TAP	79	0	7
TAP	79	48	7
TAP	79	96	7
TAP	79	192	6
TAP	79	288	6
TAP	79	288	7
TAP	80	0	0
TAP	80	48	0
TAP	80	96	0
TAP	80	192	1
TAP	80	288	2
TAP	80	288	3
TAP	81	0	4
TAP	81	48	4
TAP	81	96	4
TAP	81	192	3
TAP	81	288	3
TAP	81	288	4
TAP	82	0	2
TAP	82	0	5
TAP	82	192	6
TAP	82	288	6
TAP	82	288	7
TAP	83	0	0
TAP	83	48	0
TAP	83	96	0
TAP	83	192	1
TAP	83	288	0
TAP	83	288	1
TAP	84	0	7
TAP	84	48	7
TAP	84	96	7
TAP	84	192	6
TAP	84	288	4
TAP	84	288	5
TAP	85	0	3
TAP	85	48	3
TAP	85	96	3
TAP	85	192	4
TAP	85	288	3
TAP	85	288	4
TAP	86	0	2
TAP	86	0	5
TAP	86	96	1
TAP	86	96	6
BST	86	192	0
SXL	86	192	0	96	384	3
BST	86	192	7
SXR	86	192	7	96	384	4
TAP	88	192	4
TAP	88	240	4
TAP	88	288	4
TAP	89	0	3
TAP	89	0	5
TAP	89	96	2
TAP	89	144	2
TAP	89	192	2
TAP	89	288	1
TAP	89	288	3
TAP	90	0	4
TAP	90	48	4
TAP	90	96	3
TAP	90	96	4
TAP	90	192	5
TAP	90	240	5
TAP	90	288	4
TAP	90	288	5
TAP	91	0	3
TAP	91	48	3
TAP	91	96	3
TAP	91	192	2
TAP	91	192	4
TAP	91	288	5
TAP	91	336	5
TAP	92	0	5
TAP	92	96	4
TAP	92	96	6
TAP	92	192	3
TAP	92	240	3
TAP	92	288	3
TAP	92	288	4
TAP	93	0	3
TAP	93	0	4
TAP	93	96	3
TAP	93	96	4
XTP	93	192	3
XTP	93	192	4
XTP	93	336	2
XTP	93	336	5
XST	94	96	1
SXL	94	96	1	96	480	7
XST	94	96	6
SXR	94	96	6	96	480	0
THO	97	0	0	960	C	0	L1

T_REC_TAP	250
T_REC_BRK	2
T_REC_XTP	7
T_REC_HLD	14
T_REC_XHO	0
T_REC_STR	14
T_REC_BST	6
T_REC_XST	4
T_REC_TTP	14
T_REC_THO	2
T_REC_SLD	24
T_REC_ALL	337
T_NUM_TAP	289
T_NUM_BRK	8
T_NUM_HLD	16
T_NUM_SLD	24
T_NUM_ALL	337
T_JUDGE_TAP	297
T_JUDGE_HLD	66
T_JUDGE_SLD	24
T_JUDGE_ALL	387
TTM_EACHPAIRS	81
TTM_SCR_TAP	144500
TTM_SCR_BRK	20800
TTM_SCR_HLD	16000
TTM_SCR_SLD	36000
TTM_SCR_ALL	217300
TTM_SCR_S	210050
TTM_SCR_SS	216500
TTM_RAT_ACV	10036

