VERSION	0.00.00	1.03.00
FES_MODE	0
BPM_DEF	180.000	180.000	180.000	135.000
MET_DEF	4	4
RESOLUTION	384
CLK_DEF	384
COMPATIBLE_CODE	MA2

BPM	0	0	180.000
BPM	93	192	165.000
BPM	93	336	150.000
BPM	94	96	135.000
MET	0	0	4	4
MET	2	0	4	5
MET	4	192	4	6
MET	6	0	4	4
MET	7	0	4	5
MET	9	192	4	6
MET	11	0	4	4
MET	13	0	4	2
MET	13	192	4	3
MET	15	0	4	4
MET	16	0	4	3
MET	17	192	4	4
MET	38	192	4	2
MET	39	0	4	4
MET	58	0	4	5
MET	60	192	4	6
MET	62	0	4	4
MET	63	0	4	5
MET	65	192	4	6
MET	67	0	4	4
MET	70	0	4	2
MET	70	192	4	4
MET	88	192	4	3
MET	90	0	4	4
MET	91	0	4	3
MET	92	192	4	4
MET	93	192	4	3
MET	94	96	4	4
MET	96	96	4	3
MET	97	0	4	4

THO	2	0	0	480	C	0	L1
XHO	4	192	0	576
HLD	7	0	7	480
HLD	9	192	0	576
HLD	9	192	7	576
XST	13	192	0
SI_	13	192	0	96	384	3
XST	16	0	4
SI_	16	0	4	96	384	7
XHO	18	192	0	288
XHO	18	192	7	288
XTP	20	48	0
XTP	20	48	7
TAP	22	192	0
TAP	23	0	0
TAP	23	192	1
TAP	24	192	2
TAP	25	0	2
XTP	25	192	3
TAP	26	192	4
TAP	27	0	4
TAP	27	192	5
TAP	28	0	5
TAP	28	192	6
TAP	29	0	6
TAP	29	192	0
TAP	29	192	7
TAP	30	192	7
TAP	31	0	7
TAP	31	192	6
TAP	32	0	6
HLD	32	192	5	384
TAP	34	192	4
TAP	35	0	4
TAP	35	192	3
TAP	36	0	3
TAP	36	192	2
TAP	37	0	2
TAP	37	192	1
TAP	38	0	1
TAP	38	192	0
TAP	38	288	0
BRK	39	0	0
TTP	41	0	1	B	0	L1
TTP	42	0	2	B	0	L1
TTP	43	0	3	B	0	L1
TTP	44	0	4	B	0	L1
TTP	45	0	5	B	0	L1
TTP	46	0	6	B	0	L1
TAP	47	0	7
TAP	47	192	7
TAP	48	0	0
TAP	48	0	7
TAP	49	0	1
TAP	49	192	1
TAP	50	0	0
TAP	50	0	1
TAP	51	0	2
TAP	51	192	2
TAP	52	0	2
TAP	52	0	3
TAP	53	0	5
TAP	53	192	5
TAP	54	0	4
TAP	54	0	5
HLD	55	0	6	576
HLD	55	0	7	576
XST	58	0	0
SI_	58	0	0	96	384	3
XST	58	0	7
SI_	58	0	7	96	384	4
XST	60	192	3
SI_	60	192	3	96	384	0
XST	60	192	4
SI_	60	192	4	96	384	7
TAP	63	0	0
TAP	63	192	1
TAP	64	0	2
TAP	64	192	3
TAP	65	0	4
TAP	65	192	5
TAP	66	0	6
TAP	66	192	7
HLD	67	0	0	912
XTP	70	0	0
XTP	70	0	7
BRK	70	192	7
TAP	70	288	7
TAP	71	0	7
TAP	71	192	6
TAP	71	288	6
TAP	72	0	6
TAP	72	192	5
TAP	72	288	5
TAP	73	0	5
TAP	73	192	4
TAP	73	288	4
TAP	74	0	3
TAP	74	0	4
TAP	74	192	3
TAP	74	288	3
TAP	75	0	3
TAP	75	192	2
TAP	75	288	2
TAP	76	0	2
TAP	76	192	1
TAP	76	288	1
TAP	77	0	1
TAP	77	192	0
TAP	77	288	0
TAP	78	0	0
TAP	78	0	7
TAP	78	192	1
TAP	78	288	1
TAP	79	0	1
TAP	79	192	2
TAP	79	288	2
TAP	80	0	2
TAP	80	0	3
TAP	80	192	4
TAP	80	288	4
TAP	81	0	4
TAP	81	192	5
TAP	81	288	5
TAP	82	0	4
TAP	82	0	5
TAP	82	192	6
TAP	82	288	6
TAP	83	0	6
TAP	83	192	7
TAP	83	288	7
TAP	84	0	0
TAP	84	0	7
TAP	84	192	0
TAP	84	288	0
TAP	85	0	7
TAP	85	96	7
TAP	85	192	0
TAP	85	192	7
TAP	85	288	0
TAP	85	288	7
TAP	86	0	0
TAP	86	0	7
BRK	86	192	1
BRK	86	192	6
XTP	87	192	2
XTP	87	192	5
XST	88	192	3
SI_	88	192	3	96	384	7
XST	91	0	6
SI_	91	0	6	96	384	2
XTP	93	192	0
XTP	93	192	1
XTP	93	336	0
XTP	93	336	1
XHO	94	96	0	336
XHO	94	96	1	336
XST	97	0	0
SI_	97	0	0	96	288	3
XST	97	0	7
SI_	97	0	7	96	288	4

T_REC_TAP	107
T_REC_BRK	4
T_REC_XTP	11
T_REC_HLD	7
T_REC_XHO	5
T_REC_STR	0
T_REC_BST	0
T_REC_XST	10
T_REC_TTP	6
T_REC_THO	1
T_REC_SLD	10
T_REC_ALL	161
T_NUM_TAP	134
T_NUM_BRK	4
T_NUM_HLD	13
T_NUM_SLD	10
T_NUM_ALL	161
T_JUDGE_TAP	138
T_JUDGE_HLD	133
T_JUDGE_SLD	10
T_JUDGE_ALL	281
TTM_EACHPAIRS	26
TTM_SCR_TAP	67000
TTM_SCR_BRK	10400
TTM_SCR_HLD	13000
TTM_SCR_SLD	15000
TTM_SCR_ALL	105400
TTM_SCR_S	101850
TTM_SCR_SS	105000
TTM_RAT_ACV	10038

