VERSION	0.00.00	1.03.00
FES_MODE	0
BPM_DEF	230.000	230.000	230.000	230.000
MET_DEF	4	4
RESOLUTION	384
CLK_DEF	384
COMPATIBLE_CODE	MA2

BPM	0	0	230.000
MET	0	0	4	4

TAP	2	0	0
TAP	2	0	6
TAP	2	192	2
TAP	2	192	4
TAP	2	352	1
TAP	2	352	5
TAP	3	64	2
TAP	3	96	4
TAP	3	160	1
TAP	3	160	5
TAP	3	256	0
TAP	3	288	7
TAP	3	352	7
TAP	4	0	0
TAP	4	96	1
TAP	4	96	5
TAP	4	192	2
TAP	4	192	6
TAP	4	256	3
TAP	4	256	5
TAP	4	352	3
TAP	4	352	5
TAP	5	96	6
TAP	5	192	0
TAP	5	192	7
STR	5	288	1
SXL	5	288	1	96	288	4
TAP	6	0	5
TAP	6	96	5
TAP	6	192	7
STR	6	288	6
SXR	6	288	6	96	288	3
TAP	7	0	2
TAP	7	96	2
TAP	7	192	0
STR	7	288	1
SCR	7	288	1	96	32	4
HLD	8	0	5	160
HLD	8	160	7	128
HLD	8	288	0	96
TAP	9	0	2
HLD	9	96	3	96
HLD	9	96	7	96
XHO	9	256	1	128
TAP	10	0	3
TAP	10	96	2
TAP	10	96	4
TAP	10	192	3
TAP	10	192	5
TAP	10	256	3
TAP	10	256	5
TAP	10	352	2
HLD	10	352	6	128
HLD	11	96	4	96
HLD	11	192	3	96
STR	11	288	1
SXL	11	288	1	96	64	3
TAP	12	192	2
TAP	12	192	4
TAP	12	256	2
TAP	12	256	4
HLD	12	352	1	128
TAP	12	352	5
HLD	13	96	3	96
HLD	13	192	4	96
TAP	13	288	6
TAP	14	0	3
TAP	14	0	7
TAP	14	96	2
TAP	14	192	1
TAP	14	192	5
TAP	14	288	6
TAP	15	0	2
TAP	15	0	7
TAP	15	96	6
TAP	15	192	1
TAP	15	192	5
TAP	15	256	2
TAP	15	288	3
TAP	15	352	5
TAP	16	0	4
TAP	16	96	3
TAP	16	96	4
TAP	16	192	2
TAP	16	192	5
TAP	16	256	2
TAP	16	256	5
HLD	16	352	0	192
HLD	16	352	7	192
BRK	17	256	2
BRK	17	256	5
TAP	18	0	0
STR	18	0	6
SCL	18	0	6	96	32	4
TAP	18	96	7
STR	18	192	0
SCR	18	192	0	96	32	2
TAP	18	288	7
STR	19	0	6
SCL	19	0	6	96	32	4
TAP	19	96	7
TAP	19	192	0
TAP	19	288	0
TAP	19	288	7
STR	20	0	1
SCR	20	0	1	96	32	3
TAP	20	96	0
STR	20	192	7
SCL	20	192	7	96	32	5
TAP	20	288	0
STR	21	0	1
SCR	21	0	1	96	32	3
TAP	21	96	0
TAP	21	192	7
TAP	21	288	0
TAP	21	288	7
STR	22	0	6
SCL	22	0	6	96	32	4
TAP	22	96	7
STR	22	192	0
SCR	22	192	0	96	32	2
TAP	22	288	7
STR	23	0	6
SCL	23	0	6	96	32	4
TAP	23	96	7
TAP	23	192	0
TAP	23	288	1
TAP	23	288	3
TAP	24	0	2
TAP	24	0	4
TAP	24	96	3
TAP	24	96	5
TAP	24	192	4
TAP	24	192	6
TAP	24	288	4
TAP	24	288	6
TAP	25	0	3
TAP	25	0	5
TAP	25	96	2
TAP	25	96	4
TAP	25	192	1
TAP	25	192	3
TAP	25	288	1
TAP	25	288	3
STR	26	0	2
SCL	26	0	2	96	32	0
TAP	26	0	4
TAP	26	96	3
STR	26	192	4
SCR	26	192	4	96	32	6
TAP	26	288	3
STR	27	0	2
SCL	27	0	2	96	32	0
TAP	27	96	3
TAP	27	192	4
TAP	27	288	2
TAP	27	288	4
STR	28	0	5
SCR	28	0	5	96	32	7
TAP	28	96	4
STR	28	192	3
SCL	28	192	3	96	32	1
TAP	28	288	4
STR	29	0	5
SCR	29	0	5	96	32	7
TAP	29	96	4
TAP	29	192	3
TAP	29	288	3
TAP	29	288	5
STR	30	0	2
SCL	30	0	2	96	32	0
TAP	30	96	3
STR	30	192	4
SCR	30	192	4	96	32	6
TAP	30	288	3
STR	31	0	2
SCL	31	0	2	96	32	0
TAP	31	96	3
TAP	31	192	4
HLD	31	288	5	96
HLD	32	0	6	96
HLD	32	96	7	96
HLD	32	192	0	96
HLD	32	288	1	96
HLD	33	0	2	96
TAP	33	96	3
TAP	33	192	3
TAP	33	192	4
STR	33	288	3
SUR	33	288	3	96	96	0
STR	33	288	4
SUL	33	288	4	96	96	7
TAP	34	192	0
TAP	34	192	7
TAP	34	288	2
TAP	34	288	5
TAP	35	0	3
TAP	35	64	3
TAP	35	96	4
TAP	35	160	4
TAP	35	192	2
TAP	35	256	2
TAP	35	288	5
TAP	35	352	5
TAP	36	0	1
TAP	36	64	1
TAP	36	96	3
TAP	36	160	3
TAP	36	192	2
TAP	36	256	2
TAP	36	288	6
TAP	36	352	6
TAP	37	0	4
TAP	37	64	4
TAP	37	96	5
TAP	37	160	5
TAP	37	192	3
TAP	37	256	3
TAP	37	288	4
TAP	37	352	4
TAP	38	0	5
TAP	38	64	5
TAP	38	96	6
TAP	38	160	6
TAP	38	192	7
TAP	38	256	7
TAP	38	288	0
TAP	38	352	0
TAP	39	0	1
TAP	39	64	1
TAP	39	96	2
TAP	39	160	2
STR	39	192	3
SCL	39	192	3	96	32	0
TAP	39	288	5
STR	40	0	6
SCL	40	0	6	96	32	3
TAP	40	96	2
STR	40	192	1
SCL	40	192	1	96	32	6
TAP	40	288	5
STR	41	0	4
SCL	41	0	4	96	32	1
TAP	41	96	6
STR	41	192	7
SCL	41	192	7	96	192	0
BRK	41	288	0
XTP	42	256	2
XTP	42	288	4
XTP	42	352	1
XTP	42	352	5
TAP	43	96	4
TAP	43	96	6
TAP	43	192	1
TAP	43	192	3
TAP	43	288	4
HLD	43	288	6	96
TAP	44	0	5
TAP	44	96	3
TAP	44	96	4
TAP	44	192	1
TAP	44	192	2
TAP	44	288	0
TAP	44	288	7
TAP	45	0	5
TAP	45	0	6
TAP	45	96	3
TAP	45	96	4
TAP	45	192	1
TAP	45	192	2
XTP	45	288	0
XTP	45	312	1
XTP	45	336	2
XTP	45	360	3
XTP	46	0	4
XTP	46	24	5
XTP	46	48	6
XTP	46	72	7
XTP	46	96	0
XTP	46	120	1
XTP	46	144	2
XTP	46	168	3
XTP	46	192	4
XTP	46	216	5
XTP	46	240	6
XTP	46	264	7
XTP	46	288	0
XTP	46	312	1
XTP	46	336	2
XTP	46	360	3
XTP	47	0	4
XTP	47	24	5
XTP	47	48	6
XTP	47	72	7
XTP	47	96	0
XTP	47	120	1
XTP	47	144	2
XTP	47	168	3
XTP	47	192	4
XTP	47	216	5
XTP	47	240	6
XTP	47	264	7
XTP	47	288	0
TAP	48	0	1
TAP	48	0	3
TAP	48	96	3
TAP	48	96	4
TAP	48	192	4
TAP	48	192	6
TAP	48	288	0
TAP	48	288	7
TAP	49	0	4
TAP	49	0	6
TAP	49	96	3
TAP	49	96	4
TAP	49	192	1
STR	49	192	3
SCR	49	192	3	96	288	2
TTP	49	288	0	C	1	M1
TAP	51	0	3
TAP	51	0	4
TAP	51	32	2
TAP	51	64	1
TAP	51	96	0
TAP	51	96	7
TAP	51	128	6
TAP	51	160	5
TAP	51	192	3
TAP	51	192	4
BRK	51	256	1
BRK	51	256	6
STR	52	0	1
SCR	52	0	1	96	96	4
STR	52	96	4
SUL	52	96	4	96	96	0
STR	52	192	0
SUL	52	192	0	96	96	4
STR	52	288	4
SCR	52	288	4	96	96	7
STR	53	0	7
SCR	53	0	7	96	96	2
STR	53	96	2
SXR	53	96	2	96	192	4
TAP	53	192	5
TAP	53	288	5
TAP	54	0	6
TAP	54	96	6
TAP	54	192	1
TAP	54	192	6
TAP	54	256	7
TAP	54	288	0
TTP	55	0	0	C	0	M1
TTP	55	0	2	B	0	M1
TTP	55	0	3	B	0	M1
XTP	55	0	6
XTP	55	96	0
TTP	55	96	0	C	0	M1
TTP	55	96	3	B	0	M1
TTP	55	96	4	B	0	M1
TTP	55	192	0	C	0	M1
TTP	55	192	2	B	0	M1
TTP	55	192	3	B	0	M1
XTP	55	192	6
XTP	55	288	0
TTP	55	288	0	C	0	M1
TTP	55	288	3	B	0	M1
TTP	55	288	4	B	0	M1
STR	56	0	6
SCL	56	0	6	96	32	4
STR	56	96	1
SCR	56	96	1	96	32	3
TAP	56	96	6
TAP	56	192	1
STR	56	192	7
SUL	56	192	7	96	32	3
STR	56	288	0
SUR	56	288	0	96	32	4
TAP	56	288	7
TAP	57	0	0
STR	57	0	5
SXL	57	0	5	96	192	3
TAP	57	96	1
TAP	57	192	1
TAP	57	288	1
TAP	58	0	0
TAP	58	0	4
TAP	58	96	1
TAP	58	96	6
TAP	58	192	1
TAP	58	192	6
TAP	58	256	0
TAP	58	288	7
TTP	59	0	0	C	0	M1
XTP	59	0	1
TTP	59	0	4	B	0	M1
TTP	59	0	5	B	0	M1
TTP	59	96	0	C	0	M1
TTP	59	96	3	B	0	M1
TTP	59	96	4	B	0	M1
XTP	59	96	7
TTP	59	192	0	C	0	M1
XTP	59	192	1
TTP	59	192	4	B	0	M1
TTP	59	192	5	B	0	M1
TTP	59	288	0	C	0	M1
TTP	59	288	3	B	0	M1
TTP	59	288	4	B	0	M1
XTP	59	288	7
HLD	60	0	1	192
TAP	60	96	0
HLD	60	192	6	192
TAP	60	288	7
HLD	61	0	1	192
TAP	61	96	3
HLD	61	192	6	96
TAP	61	288	4
HLD	62	0	1	96
HLD	62	96	0	96
HLD	62	192	7	96
HLD	62	288	6	96
TAP	63	0	4
TAP	63	64	4
TAP	63	64	6
XTP	63	192	3
XTP	63	192	7
STR	63	288	4
SCL	63	288	4	96	32	2
TAP	63	288	5
TAP	64	0	6
STR	64	96	4
SUR	64	96	4	96	32	0
TAP	64	96	5
TAP	64	192	6
STR	64	288	4
SCL	64	288	4	96	32	1
TAP	64	288	5
TAP	65	0	6
STR	65	96	4
SUL	65	96	4	96	32	0
TAP	65	96	5
TAP	65	192	6
TAP	65	288	4
TAP	65	288	5
TAP	66	0	0
TAP	66	0	7
TAP	66	96	1
TAP	66	96	5
TAP	66	160	1
TAP	66	160	5
TAP	66	256	0
TAP	66	288	7
TAP	66	352	1
TAP	66	352	6
TAP	67	64	6
TAP	67	96	4
TAP	67	160	1
TAP	67	192	3
BRK	67	288	2
BRK	67	288	5
STR	68	0	6
SCL	68	0	6	96	96	3
STR	68	96	3
SUR	68	96	3	96	96	7
STR	68	192	7
SUR	68	192	7	96	96	3
STR	68	288	3
SCL	68	288	3	96	96	0
STR	69	0	0
SCL	69	0	0	96	96	5
STR	69	96	5
SXL	69	96	5	96	192	3
TAP	69	192	2
TAP	69	288	2
TAP	70	0	1
TAP	70	96	2
TAP	70	96	4
TAP	70	192	1
TAP	70	192	6
TAP	70	256	0
TAP	70	288	7
TTP	71	0	0	C	0	M1
XTP	71	0	1
TTP	71	0	4	B	0	M1
TTP	71	0	5	B	0	M1
TTP	71	96	0	C	0	M1
TTP	71	96	3	B	0	M1
TTP	71	96	4	B	0	M1
XTP	71	96	7
TTP	71	192	0	C	0	M1
XTP	71	192	1
TTP	71	192	4	B	0	M1
TTP	71	192	5	B	0	M1
TTP	71	288	0	C	0	M1
TTP	71	288	3	B	0	M1
TTP	71	288	4	B	0	M1
XTP	71	288	7
STR	72	0	1
SCR	72	0	1	96	32	3
TAP	72	96	1
STR	72	96	6
SCL	72	96	6	96	32	4
TAP	72	192	1
TAP	72	192	6
TAP	72	288	0
TAP	72	320	7
TAP	72	352	0
TAP	73	0	7
XHO	73	96	3	96
XHO	73	96	5	96
XHO	73	256	2	96
XHO	73	256	4	96
XTP	74	0	1
XTP	74	0	5
TAP	74	96	2
TAP	74	96	6
TAP	74	192	1
TAP	74	192	6
TAP	74	256	7
TAP	74	288	0
TTP	75	0	0	C	0	M1
TTP	75	0	2	B	0	M1
TTP	75	0	3	B	0	M1
XTP	75	0	6
XTP	75	96	0
TTP	75	96	0	C	0	M1
TTP	75	96	3	B	0	M1
TTP	75	96	4	B	0	M1
TTP	75	192	0	C	0	M1
TTP	75	192	2	B	0	M1
TTP	75	192	3	B	0	M1
XTP	75	192	6
XTP	75	288	0
TTP	75	288	0	C	0	M1
TTP	75	288	3	B	0	M1
TTP	75	288	4	B	0	M1
HLD	76	0	6	96
TAP	76	96	7
TAP	76	192	4
TAP	76	288	3
TAP	76	288	5
HLD	77	0	1	96
TAP	77	96	0
TAP	77	192	3
TAP	77	192	4
XTP	77	256	3
XTP	77	256	4
XHO	78	0	6	96
HLD	78	96	7	96
HLD	78	192	0	96
HLD	78	288	1	96
HLD	79	0	2	96
HLD	79	96	3	96
TAP	79	192	4
XTP	79	256	2
XTP	79	256	5
TAP	80	0	5
TAP	80	64	5
TAP	80	96	0
TAP	80	160	0
TAP	80	192	7
TAP	80	256	7
TAP	80	288	4
TAP	80	352	4
TAP	81	0	6
TAP	81	64	6
TAP	81	96	0
TAP	81	160	0
STR	81	192	3
SCL	81	192	3	96	288	4
TTP	81	288	0	C	1	M1
XTP	82	288	0
XTP	82	288	7
XTP	83	0	0
XTP	83	0	7
XTP	83	96	1
XTP	83	96	6
XTP	83	192	2
XTP	83	192	5
XTP	83	288	2
XTP	83	288	5
TAP	84	0	3
TAP	84	0	4
TAP	84	32	5
TAP	84	64	6
TAP	84	96	0
TAP	84	96	7
TAP	84	128	1
TAP	84	160	2
TAP	84	192	3
TAP	84	192	4
XTP	84	352	2
XHO	84	352	5	320
TAP	85	96	4
TAP	85	192	6
STR	85	288	7
SCL	85	288	7	96	192	2
XTP	86	192	7
XTP	86	352	2
XTP	86	352	5
XTP	87	64	2
XTP	87	64	5
TAP	87	160	3
TAP	87	192	4
TAP	87	256	4
TAP	87	288	2
TAP	87	352	2
TAP	88	0	6
TAP	88	64	6
TAP	88	96	0
TAP	88	192	1
TAP	88	192	3
TAP	88	352	4
TAP	88	352	6
TAP	89	96	0
TAP	89	96	7
STR	89	192	0
SCR	89	192	0	96	192	5
TAP	89	192	7
BRK	89	288	4
TAP	90	96	7
TAP	90	192	7
TAP	90	256	0
TAP	90	352	1
TAP	90	352	6
TAP	91	64	5
TAP	91	96	3
TAP	91	160	2
TAP	91	160	6
TAP	91	256	2
HLD	91	288	4	384
TTP	92	96	5	E	0	M1
TTP	92	192	4	E	0	M1
TTP	92	288	3	E	0	M1
XTP	93	0	1
TAP	93	32	2
TAP	93	64	3
XTP	93	96	6
TAP	93	128	5
TAP	93	160	4
XTP	93	192	0
TAP	93	224	1
TAP	93	256	2
XTP	93	288	7
TAP	93	320	6
TAP	93	352	5
BRK	94	0	0
TAP	95	256	2
TAP	95	256	4
TAP	95	352	1
TAP	95	352	5
TAP	96	192	3
TAP	96	192	5
TAP	96	256	3
TAP	96	256	5
TAP	97	0	2
TAP	97	0	6
TAP	97	96	0
TAP	97	128	7
TAP	97	160	0
TAP	97	192	7
XTP	97	256	2
XTP	97	256	5
BRK	98	0	1
BRK	98	0	6
TAP	99	160	3
TAP	99	176	4
TAP	99	192	3
TAP	99	256	1
TAP	99	256	6
TAP	99	352	2
TAP	99	352	5
TAP	100	192	3
TAP	100	192	4
TAP	100	256	2
TAP	100	256	5
TAP	101	0	2
TAP	101	32	3
TAP	101	64	2
TAP	101	96	5
TAP	101	128	4
TAP	101	160	5
TAP	101	192	2
TAP	101	224	3
TAP	101	256	2
TAP	101	288	5
TAP	101	320	4
TAP	101	352	5
TAP	102	0	3
TAP	102	16	2
TAP	102	32	1
TAP	102	48	0
TAP	102	64	7
TAP	102	80	6
TAP	102	96	5
TAP	102	112	4
TAP	102	128	3
TAP	102	144	2
TAP	102	160	1
TAP	102	176	0
TTP	102	192	0	C	1	M1
TAP	102	192	7
XTP	103	0	0
XTP	103	0	7
XTP	103	96	3
XTP	103	96	5
XTP	103	192	2
XTP	103	192	4
XTP	103	256	2
XTP	103	256	4
HLD	103	352	1	96
TAP	104	64	3
TAP	104	96	0
TAP	104	160	0
STR	104	192	7
SCL	104	192	7	96	192	1
TTP	104	288	0	C	1	M1
XTP	105	64	0
XTP	105	192	0
XTP	105	192	7
HLD	105	288	0	96
HLD	106	0	7	96
HLD	106	96	6	96
HLD	106	192	5	96
HLD	106	288	4	96
HLD	107	0	3	96
HLD	107	96	2	96
HLD	107	192	1	96
HLD	107	288	0	96
TAP	108	0	7
TAP	108	96	1
TAP	108	96	6
TAP	108	160	1
TAP	108	160	6
STR	108	256	3
SCL	108	256	3	96	96	0
SCR	108	256	3	96	96	7
TAP	108	288	4
XTP	109	192	0
XTP	109	192	7
XTP	109	288	1
XTP	109	288	6
STR	110	0	2
SCL	110	0	2	96	96	7
STR	110	96	7
SUR	110	96	7	96	96	3
STR	110	192	3
SUR	110	192	3	96	96	7
STR	110	288	7
SCL	110	288	7	96	96	4
STR	111	0	4
SCL	111	0	4	96	96	1
STR	111	96	1
SXL	111	96	1	96	192	7
TAP	111	192	5
TAP	111	288	5
TAP	112	0	5
TAP	112	96	3
TAP	112	96	5
TAP	112	192	1
TAP	112	192	6
TAP	112	256	7
TAP	112	288	0
TTP	113	0	0	C	1	M1
TTP	113	0	2	B	0	M1
TTP	113	0	3	B	0	M1
XTP	113	0	6
XTP	113	96	0
TTP	113	96	0	C	1	M1
TTP	113	96	3	B	0	M1
TTP	113	96	4	B	0	M1
TTP	113	192	0	C	1	M1
TTP	113	192	2	B	0	M1
TTP	113	192	3	B	0	M1
XTP	113	192	6
XTP	113	288	0
TTP	113	288	0	C	1	M1
TTP	113	288	3	B	0	M1
TTP	113	288	4	B	0	M1
HLD	114	0	7	96
TAP	114	96	0
TAP	114	160	1
TAP	114	160	6
TAP	114	192	1
TAP	114	192	6
TAP	114	288	2
TAP	114	320	3
TAP	114	352	4
TAP	115	0	5
BST	115	96	0
SUR	115	96	0	96	32	4
BRK	115	96	7
STR	115	256	5
SCL	115	256	5	96	32	2
HLD	116	0	0	96
TAP	116	96	6
TAP	116	192	6
TAP	116	256	0
TAP	116	288	7
TTP	117	0	0	C	1	M1
BRK	117	0	1
TTP	117	0	4	B	0	M1
TTP	117	0	5	B	0	M1
TTP	117	96	0	C	1	M1
TTP	117	96	3	B	0	M1
TTP	117	96	4	B	0	M1
BRK	117	96	7
TTP	117	192	0	C	1	M1
BRK	117	192	1
TTP	117	192	4	B	0	M1
TTP	117	192	5	B	0	M1
TTP	117	288	0	C	1	M1
TTP	117	288	3	B	0	M1
TTP	117	288	4	B	0	M1
BRK	117	288	7
HLD	118	0	1	96
TAP	118	96	0
TAP	118	192	3
TAP	118	288	2
TAP	118	288	4
HLD	119	0	6	96
TAP	119	96	7
TAP	119	192	4
TAP	119	288	3
TAP	119	288	5
HLD	120	0	1	96
HLD	120	96	0	96
HLD	120	192	7	96
HLD	120	288	6	96
HLD	121	0	5	96
HLD	121	96	4	96
TAP	121	192	3
XTP	121	256	2
XTP	121	256	5
TAP	122	0	0
TAP	122	0	7
TAP	122	64	2
TAP	122	96	3
TAP	122	160	3
TAP	122	192	2
TAP	122	256	2
TAP	122	288	4
TAP	122	352	4
TAP	123	0	0
TAP	123	64	0
TAP	123	96	3
TAP	123	160	3
TAP	123	192	1
TTP	123	288	2	E	0	M1
TTP	123	288	3	E	0	M1
TTP	123	288	4	E	0	M1
TAP	124	0	0
TAP	124	0	7
TAP	124	64	5
TAP	124	96	4
TAP	124	160	4
TAP	124	192	5
TAP	124	256	5
TAP	124	288	3
TAP	124	352	3
TAP	125	0	7
TAP	125	64	7
TAP	125	96	4
TAP	125	160	4
TAP	125	192	6
TTP	125	288	4	E	0	M1
TTP	125	288	5	E	0	M1
TTP	125	288	6	E	0	M1
TAP	126	0	0
TAP	126	0	7
TAP	126	64	1
TAP	126	96	3
TAP	126	160	3
TAP	126	192	4
TAP	126	256	4
TAP	126	288	6
TAP	126	352	6
TAP	127	0	1
TAP	127	64	1
TAP	127	96	7
TAP	127	160	7
STR	127	192	0
SUR	127	192	0	96	32	4
STR	127	288	0
SCL	127	288	0	96	288	1
XHO	128	288	0	96
XTP	129	0	7
XTP	129	96	1
XTP	129	96	6
XTP	129	192	2
XTP	129	192	5
XTP	129	256	2
XTP	129	256	5
STR	130	0	4
SCR	130	0	4	96	32	7
TAP	130	96	2
STR	130	192	1
SCR	130	192	1	96	32	4
TAP	130	288	7
STR	131	0	6
SCR	131	0	6	96	32	1
TAP	131	96	4
STR	131	192	3
SCR	131	192	3	96	32	6
TAP	131	288	7
STR	132	0	0
SCR	132	0	0	96	32	3
TAP	132	96	7
TAP	132	192	7
TAP	132	288	3
TAP	132	288	6
TAP	133	0	5
TAP	133	64	4
TAP	133	96	6
TAP	133	160	0
TAP	133	160	7
TAP	133	256	3
TAP	133	288	1
TAP	133	352	0
TAP	133	352	7
TAP	134	64	6
TAP	134	96	4
TAP	134	160	1
TAP	134	192	3
TAP	134	256	4
TAP	134	288	3
TAP	134	352	2
TAP	134	352	5
TAP	134	368	1
TAP	134	368	6
TAP	135	0	0
TAP	135	0	7
TTP	135	160	1	E	0	M1
TTP	135	160	7	E	0	M1
TTP	135	176	1	B	0	M1
TTP	135	176	6	B	0	M1
TTP	135	192	2	B	0	M1
TTP	135	192	5	B	0	M1
TTP	135	208	3	E	0	M1
TTP	135	208	5	E	0	M1

T_REC_TAP	508
T_REC_BRK	16
T_REC_XTP	111
T_REC_HLD	56
T_REC_XHO	8
T_REC_STR	72
T_REC_BST	1
T_REC_XST	0
T_REC_TTP	93
T_REC_THO	0
T_REC_SLD	74
T_REC_ALL	939
T_NUM_TAP	784
T_NUM_BRK	17
T_NUM_HLD	64
T_NUM_SLD	74
T_NUM_ALL	939
T_JUDGE_TAP	801
T_JUDGE_HLD	155
T_JUDGE_SLD	74
T_JUDGE_ALL	1030
TTM_EACHPAIRS	156
TTM_SCR_TAP	392000
TTM_SCR_BRK	44200
TTM_SCR_HLD	64000
TTM_SCR_SLD	111000
TTM_SCR_ALL	611200
TTM_SCR_S	591250
TTM_SCR_SS	609500
TTM_RAT_ACV	10027

