VERSION	0.00.00	1.03.00
FES_MODE	0
BPM_DEF	230.000	230.000	230.000	230.000
MET_DEF	4	4
RESOLUTION	384
CLK_DEF	384
COMPATIBLE_CODE	MA2

BPM	0	0	230.000
MET	0	0	4	4

HLD	2	0	2	192
HLD	2	192	3	384
HLD	2	336	1	240
XTP	3	288	2
XTP	3	288	4
TAP	4	0	3
TAP	4	96	3
HLD	4	192	4	144
TAP	4	192	5
TAP	4	256	5
HLD	4	336	6	240
TAP	5	96	4
TAP	5	192	4
TAP	5	288	3
TAP	5	288	5
TAP	6	0	2
TAP	6	96	2
TAP	6	96	3
TAP	6	192	5
TAP	6	288	4
TAP	6	288	5
TAP	7	0	2
TAP	7	96	1
TAP	7	96	3
TAP	7	192	5
TAP	7	288	4
TAP	7	288	6
XHO	8	0	3	96
XHO	8	0	5	96
XHO	8	160	2	96
XHO	8	160	4	96
XTP	8	288	1
XTP	8	288	3
TAP	9	0	0
HLD	9	96	1	96
HLD	9	96	5	96
XTP	9	256	1
XTP	9	256	5
TAP	10	0	2
TAP	10	0	3
TAP	10	96	3
TAP	10	96	4
XTP	10	192	5
XHO	10	256	5	96
XHO	10	352	4	128
TAP	11	96	5
TAP	11	192	4
TAP	11	192	5
TAP	11	288	3
TAP	11	288	6
TAP	12	0	4
TAP	12	0	5
TAP	12	96	3
TAP	12	96	4
XTP	12	192	2
XHO	12	256	2	96
XHO	12	352	3	128
TAP	13	96	2
XTP	13	192	1
XTP	13	192	4
TAP	13	288	1
TAP	13	288	4
HLD	14	0	6	96
TAP	14	96	4
HLD	14	192	2	96
TAP	14	288	3
HLD	15	0	6	96
TAP	15	96	7
HLD	15	192	1	96
TAP	15	288	0
TAP	16	0	0
TAP	16	0	1
TAP	16	96	2
TAP	16	96	7
XTP	16	192	6
XST	16	256	6
SUL	16	256	6	96	128	1
XTP	17	256	0
XTP	17	256	7
TAP	18	0	5
TAP	18	96	7
TAP	18	192	4
TAP	18	192	6
TAP	18	288	5
TAP	19	0	2
TAP	19	96	0
TAP	19	192	1
TAP	19	192	3
TAP	19	288	2
TAP	20	0	3
TAP	20	0	5
TAP	20	96	3
TAP	20	96	5
TAP	20	192	2
TAP	20	192	4
TAP	20	288	2
TAP	20	288	4
TAP	21	0	3
TAP	21	0	5
TAP	21	96	3
TAP	21	96	5
TAP	21	192	2
TAP	21	192	6
TAP	21	288	2
TAP	21	288	6
TAP	22	0	1
TAP	22	96	2
TAP	22	192	4
TAP	22	288	3
TAP	22	288	5
TAP	23	0	6
TAP	23	96	5
TAP	23	192	3
TAP	23	288	2
TAP	23	288	4
HLD	24	0	1	96
HLD	24	0	5	96
HLD	24	192	2	96
HLD	24	192	6	96
HLD	25	0	1	96
HLD	25	0	5	96
TAP	25	192	2
TAP	25	192	4
TAP	25	288	2
TAP	25	288	4
TAP	26	0	4
TAP	26	96	6
TAP	26	192	3
TAP	26	192	7
TAP	26	288	5
TAP	27	0	3
TAP	27	96	1
TAP	27	192	0
TAP	27	192	4
TAP	27	288	2
TAP	28	0	4
TAP	28	96	3
TAP	28	96	5
TAP	28	192	2
HLD	28	288	1	288
TAP	28	288	4
TAP	29	0	3
TAP	29	96	3
TAP	29	192	4
TAP	29	288	3
TAP	29	288	5
TAP	30	0	6
TAP	30	96	7
TAP	30	192	0
TAP	30	192	6
TAP	30	288	5
TAP	31	0	1
TAP	31	96	0
TAP	31	192	1
TAP	31	192	7
TAP	31	288	2
HLD	32	0	5	192
TAP	32	96	4
HLD	32	192	2	192
TAP	32	288	3
TAP	33	0	4
TAP	33	96	3
TAP	33	96	4
TAP	33	192	2
TAP	33	192	5
TAP	33	288	2
TAP	33	288	5
STR	34	0	1
SUR	34	0	1	96	192	5
HLD	34	0	6	288
TAP	35	0	7
TAP	35	96	7
TAP	35	192	6
TAP	35	288	5
HLD	36	0	3	288
STR	36	0	4
SUR	36	0	4	96	192	0
TAP	37	0	0
TAP	37	96	0
TAP	37	192	7
TAP	37	288	7
HLD	38	0	0	288
STR	38	0	6
SCL	38	0	6	96	192	3
TAP	39	0	0
TAP	39	96	0
TAP	39	192	1
TAP	39	288	0
HLD	39	288	1	192
HLD	40	96	3	192
HLD	40	288	5	192
TAP	41	96	7
TAP	41	288	3
TAP	41	288	6
TAP	42	0	3
TAP	42	0	6
TAP	42	96	2
TAP	42	96	5
STR	42	192	1
SCL	42	192	1	96	288	4
TAP	42	192	4
XHO	43	288	7	192
TAP	44	96	1
TAP	44	192	1
TAP	44	192	7
TAP	44	288	2
TAP	45	0	2
TAP	45	0	6
TAP	45	96	3
STR	45	192	3
SUR	45	192	3	96	480	4
TAP	45	192	5
TTP	47	288	5	E	0	M1
TTP	48	0	6	E	0	M1
TTP	48	96	7	E	0	M1
TTP	48	192	0	E	0	M1
TTP	48	288	1	E	0	M1
TTP	49	0	2	E	0	M1
TTP	49	96	3	E	0	M1
TTP	49	192	4	E	0	M1
THO	49	288	0	288	C	0	M1
TTP	49	288	1	B	0	M1
TTP	49	288	6	B	0	M1
TAP	51	0	0
TAP	51	0	7
TAP	51	96	0
TAP	51	96	7
TAP	51	192	1
TAP	51	192	6
BRK	52	0	3
BRK	52	0	5
TAP	52	96	1
TAP	52	192	3
TAP	52	192	5
TAP	52	288	7
TAP	53	0	2
TAP	53	0	4
TAP	53	96	0
TAP	53	192	2
TAP	53	192	4
TAP	53	288	7
TAP	54	0	4
TAP	54	0	5
TAP	54	96	1
TAP	54	192	3
TAP	54	192	4
TAP	54	288	7
TAP	55	0	4
TAP	55	0	6
TAP	55	96	4
TAP	55	96	6
TAP	55	192	1
TAP	55	192	3
TAP	55	288	1
TAP	55	288	3
TAP	56	0	3
TAP	56	0	4
TAP	56	96	7
TAP	56	192	2
TAP	56	192	4
TAP	56	288	0
TAP	57	0	3
TAP	57	0	5
TAP	57	96	7
TAP	57	192	3
TAP	57	192	5
TAP	57	288	0
TAP	58	0	2
TAP	58	0	4
TAP	58	96	7
TAP	58	192	3
TAP	58	192	5
TAP	58	288	0
TAP	59	0	2
TAP	59	0	6
TAP	59	96	2
TAP	59	96	6
TAP	59	192	1
TAP	59	192	5
TAP	59	288	1
TAP	59	288	5
HLD	60	0	4	96
HLD	60	96	5	96
HLD	60	192	6	96
HLD	60	288	7	96
HLD	61	0	0	96
HLD	61	96	1	96
HLD	61	192	2	96
HLD	61	288	3	96
HLD	62	0	2	96
HLD	62	96	1	96
HLD	62	192	0	96
HLD	62	288	7	96
HLD	63	0	6	96
HLD	63	96	5	96
HLD	63	192	4	96
TAP	63	288	3
TAP	64	0	2
TAP	64	96	1
TAP	64	96	3
TAP	64	192	5
TAP	64	288	4
TAP	64	288	6
TAP	65	0	2
TAP	65	96	0
TAP	65	96	4
TAP	65	192	5
TAP	65	288	3
TAP	65	288	7
TAP	66	0	2
TAP	66	0	6
TAP	66	96	1
TAP	66	96	5
STR	66	192	0
SCL	66	192	0	96	288	2
HLD	66	192	4	384
TAP	68	0	2
TAP	68	0	3
TAP	68	96	0
TAP	68	192	3
TAP	68	192	4
TAP	68	288	7
TAP	69	0	4
TAP	69	0	5
TAP	69	96	1
TAP	69	192	3
TAP	69	192	4
TAP	69	288	7
TAP	70	0	4
TAP	70	0	5
TAP	70	96	0
TAP	70	192	2
TAP	70	192	3
TAP	70	288	7
TAP	71	0	4
TAP	71	0	6
TAP	71	96	4
TAP	71	96	6
TAP	71	192	1
TAP	71	192	3
TAP	71	288	1
TAP	71	288	3
TAP	72	0	2
TAP	72	0	4
TAP	72	96	7
TAP	72	192	4
TAP	72	192	5
TAP	72	288	1
TAP	73	0	3
TAP	73	0	4
TAP	73	96	7
TAP	73	192	2
TAP	73	192	3
TAP	73	288	0
TAP	74	0	3
TAP	74	0	5
TAP	74	96	7
TAP	74	192	2
TAP	74	192	4
TAP	74	288	0
TAP	75	0	2
TAP	75	0	6
TAP	75	96	2
TAP	75	96	6
TAP	75	192	1
TAP	75	192	5
TAP	75	288	1
TAP	75	288	5
STR	76	0	0
SCR	76	0	0	96	96	3
STR	76	192	7
SCL	76	192	7	96	96	4
STR	77	0	0
SCR	77	0	0	96	96	3
STR	77	192	7
SCL	77	192	7	96	96	4
TAP	78	0	2
TAP	78	96	1
STR	78	192	0
SCR	78	192	0	96	96	3
STR	78	192	4
SCR	78	192	4	96	96	7
XTP	79	192	2
XTP	79	192	6
XHO	80	0	3	96
XHO	80	0	5	96
XHO	80	144	3	96
XHO	80	144	5	96
XHO	80	288	2	96
XHO	80	288	4	96
XHO	81	48	1	96
XHO	81	48	3	96
XTP	81	192	0
XTP	81	192	4
BRK	81	288	0
BRK	81	288	4
TTP	82	288	2	E	0	M1
TTP	83	0	3	E	0	M1
TTP	83	96	4	E	0	M1
TTP	83	192	5	E	0	M1
TTP	83	288	6	E	0	M1
THO	84	0	0	192	C	1	M1
XTP	84	352	0
XTP	84	352	7
TAP	85	288	1
TAP	85	288	4
HLD	86	0	1	192
TAP	86	0	4
HLD	86	192	3	160
TAP	86	352	2
TTP	87	64	0	C	1	M1
TAP	88	0	4
TAP	88	0	5
TAP	88	96	4
TAP	88	96	5
TAP	88	192	3
HLD	88	192	6	160
TTP	88	352	0	C	1	M1
HLD	89	288	0	192
HLD	89	288	7	192
XTP	90	192	1
XST	90	256	1
SCR	90	256	1	96	320	6
BRK	91	288	7
TAP	92	96	0
TAP	92	192	0
TAP	92	288	0
STR	93	0	0
SI_	93	0	0	96	144	4
TAP	93	0	7
TAP	94	0	4
TAP	94	0	5
TTP	94	192	2	E	0	M1
TTP	94	192	7	E	0	M1
TTP	95	192	1	E	0	M1
TTP	95	192	6	E	0	M1
TTP	96	192	2	E	0	M1
TTP	96	192	7	E	0	M1
TTP	97	192	1	E	0	M1
TTP	97	192	6	E	0	M1
TTP	98	192	2	B	0	M1
TTP	98	192	7	E	0	M1
TTP	99	192	1	E	0	M1
TTP	99	192	5	B	0	M1
TTP	100	192	2	B	0	M1
TTP	100	192	7	E	0	M1
TAP	101	0	3
TAP	101	0	4
TAP	101	96	3
TAP	101	96	4
STR	101	192	3
SCL	101	192	3	96	144	0
STR	101	192	4
SCR	101	192	4	96	144	7
BRK	102	192	1
BRK	102	192	6
XHO	102	352	0	128
XHO	102	352	7	128
TAP	103	192	1
TAP	103	192	6
TAP	103	288	2
TAP	103	288	5
TAP	104	0	3
TAP	104	0	4
TAP	104	96	6
STR	104	192	5
SCR	104	192	5	96	192	2
TAP	104	288	4
TAP	105	288	2
HLD	105	288	5	96
TAP	106	0	4
HLD	106	96	1	96
TAP	106	192	3
HLD	106	288	5	96
TAP	107	0	4
HLD	107	96	2	96
TAP	107	192	3
TAP	107	288	2
TAP	107	288	3
TAP	108	0	0
TAP	108	0	1
TAP	108	96	6
TAP	108	96	7
TAP	108	192	4
TAP	108	192	5
STR	108	288	3
SCL	108	288	3	96	96	0
STR	108	288	7
SCL	108	288	7	96	96	4
XTP	109	288	0
XTP	109	288	4
TAP	110	0	2
TAP	110	0	3
TAP	110	96	7
TAP	110	192	4
TAP	110	192	5
TAP	110	288	0
TAP	111	0	2
TAP	111	0	4
TAP	111	96	7
TAP	111	192	3
TAP	111	192	5
TAP	111	288	0
TAP	112	0	2
TAP	112	0	3
TAP	112	96	7
TAP	112	192	4
TAP	112	192	5
TAP	112	288	0
TAP	113	0	6
TAP	113	0	7
TAP	113	96	4
TAP	113	96	5
TAP	113	192	2
TAP	113	192	3
TAP	113	288	0
TAP	113	288	1
TAP	114	0	2
TAP	114	0	3
TAP	114	96	0
TAP	114	192	3
TAP	114	192	5
TAP	114	288	7
TAP	115	0	4
TAP	115	0	5
TAP	115	96	0
TAP	115	192	2
TAP	115	192	4
TAP	115	288	7
TAP	116	0	3
TAP	116	0	5
TAP	116	96	0
TAP	116	192	2
TAP	116	192	4
STR	116	288	7
SCL	116	288	7	96	192	1
TTP	117	0	0	C	1	M1
HLD	118	0	1	96
TAP	118	0	7
HLD	118	96	3	96
HLD	118	192	4	96
HLD	118	288	6	96
HLD	119	0	4	96
HLD	119	96	3	96
HLD	119	192	1	96
TAP	119	288	0
TAP	120	0	0
TAP	120	96	1
TAP	120	96	7
XST	120	192	2
SLR	120	192	2	96	192	1
XST	120	192	6
SLL	120	192	6	96	192	7
XTP	121	192	0
XTP	122	0	6
XTP	122	0	7
TAP	122	96	0
TAP	122	96	5
TAP	122	192	1
TAP	122	192	4
TAP	122	288	2
TAP	122	288	3
TAP	123	0	4
TAP	123	0	5
TAP	123	96	3
TAP	123	96	6
TAP	123	192	2
TAP	123	192	7
TAP	123	288	0
STR	123	288	1
SXR	123	288	1	96	224	4
TAP	124	288	6
TAP	125	0	4
TAP	125	0	5
STR	125	96	2
SI_	125	96	2	96	96	7
TAP	125	96	3
STR	126	0	6
SCR	126	0	6	96	96	1
STR	126	192	2
SCR	126	192	2	96	96	5
STR	127	0	6
SCR	127	0	6	96	96	1
STR	127	192	2
SXR	127	192	2	96	288	4
TAP	128	288	6
TAP	129	0	5
TAP	129	96	3
TAP	129	96	4
XTP	129	192	1
XTP	129	192	5
XST	129	256	1
SXL	129	256	1	96	608	4
XST	129	256	5
SXL	129	256	5	96	608	0
XTP	132	0	3
XTP	132	0	7
TAP	132	96	3
TAP	132	96	7
TAP	132	192	2
TAP	132	192	6
TAP	132	288	2
TAP	132	288	6
TAP	133	0	3
TAP	133	0	5
XHO	133	64	3	96
XHO	133	64	5	96
XHO	133	256	2	96
XHO	133	256	4	96
TAP	134	64	1
TAP	134	64	5
TAP	134	160	2
TAP	134	160	3
TAP	134	256	4
TAP	134	256	5
BRK	134	352	2
BST	134	352	6
SUR	134	352	6	96	160	3

T_REC_TAP	402
T_REC_BRK	8
T_REC_XTP	29
T_REC_HLD	58
T_REC_XHO	23
T_REC_STR	25
T_REC_BST	1
T_REC_XST	6
T_REC_TTP	32
T_REC_THO	2
T_REC_SLD	32
T_REC_ALL	618
T_NUM_TAP	494
T_NUM_BRK	9
T_NUM_HLD	83
T_NUM_SLD	32
T_NUM_ALL	618
T_JUDGE_TAP	503
T_JUDGE_HLD	235
T_JUDGE_SLD	32
T_JUDGE_ALL	770
TTM_EACHPAIRS	186
TTM_SCR_TAP	247000
TTM_SCR_BRK	23400
TTM_SCR_HLD	83000
TTM_SCR_SLD	48000
TTM_SCR_ALL	401400
TTM_SCR_S	388500
TTM_SCR_SS	400500
TTM_RAT_ACV	10022

