VERSION	0.00.00	1.03.00
FES_MODE	0
BPM_DEF	230.000	230.000	230.000	230.000
MET_DEF	4	4
RESOLUTION	384
CLK_DEF	384
COMPATIBLE_CODE	MA2

BPM	0	0	230.000
MET	0	0	4	4

STR	2	0	0
SCR	2	0	0	96	384	5
TAP	4	0	6
TAP	4	96	6
TAP	4	192	6
XTP	5	0	6
XTP	5	0	7
XTP	5	192	0
XTP	5	192	7
HLD	6	0	0	96
HLD	6	0	1	96
TAP	6	192	0
TAP	6	192	1
HLD	7	0	6	96
HLD	7	0	7	96
TAP	7	192	6
TAP	7	192	7
XTP	8	0	0
XTP	8	0	7
XTP	8	160	0
XTP	8	160	7
XTP	8	288	1
XTP	8	288	6
XTP	9	0	1
XTP	9	0	6
TAP	10	0	5
TAP	10	96	5
TAP	10	192	4
TAP	10	192	5
TAP	11	0	2
TAP	11	96	2
TAP	11	192	2
TAP	11	192	3
TAP	12	0	5
TAP	12	96	5
TAP	12	192	4
TAP	12	192	5
TAP	13	0	3
TAP	13	96	3
TAP	13	192	2
TAP	13	192	4
TAP	14	0	1
TAP	14	96	1
TAP	14	192	0
TAP	14	192	1
STR	15	0	7
SCL	15	0	7	96	192	4
TAP	16	0	2
TAP	16	96	2
TAP	16	192	2
TAP	16	192	3
XTP	17	0	3
XTP	17	0	4
HLD	18	0	5	96
TAP	18	192	5
HLD	19	0	4	96
TAP	19	192	4
HLD	20	0	3	96
TAP	20	192	3
HLD	21	0	3	96
HLD	21	0	4	96
TAP	21	192	3
TAP	21	192	4
STR	22	0	5
SCR	22	0	5	96	192	0
STR	23	0	1
SCR	23	0	1	96	192	4
TAP	24	0	5
TAP	24	96	5
TAP	24	192	4
TAP	25	0	3
TAP	25	96	3
TAP	25	192	2
TAP	25	192	4
HLD	26	0	1	96
TAP	26	192	1
HLD	27	0	0	96
TAP	27	192	0
HLD	28	0	7	96
TAP	28	192	7
HLD	29	0	0	96
HLD	29	0	7	96
TAP	29	192	0
TAP	29	192	7
STR	30	0	1
SCR	30	0	1	96	192	4
STR	31	0	5
SCR	31	0	5	96	192	0
TAP	32	0	1
TAP	32	96	1
TAP	32	192	0
TAP	33	0	0
TAP	33	0	7
TAP	33	96	0
TAP	33	96	7
TAP	33	192	1
TAP	33	192	6
STR	34	0	6
SUL	34	0	6	96	192	2
STR	35	0	1
SUR	35	0	1	96	192	5
STR	36	0	6
SCL	36	0	6	96	192	3
TAP	37	0	2
TAP	37	192	2
TAP	37	192	3
STR	38	0	1
SUR	38	0	1	96	192	5
HLD	39	0	6	192
TAP	39	192	7
XTP	39	288	7
XTP	40	96	6
XTP	40	96	7
XTP	40	288	4
XTP	40	288	5
XTP	41	96	2
XTP	41	96	3
XTP	41	288	0
XST	41	288	1
SI_	41	288	1	96	192	4
TAP	42	288	5
TAP	43	0	5
TAP	43	96	4
TAP	43	96	5
TAP	43	288	2
TAP	44	0	2
TAP	44	96	2
TAP	44	96	3
TAP	44	288	4
TAP	45	0	4
TAP	45	96	3
TAP	45	192	3
BST	45	288	3
SXR	45	288	3	96	480	0
BST	45	288	4
SXL	45	288	4	96	480	7
HLD	48	0	7	192
TAP	48	192	0
TAP	49	0	0
TAP	49	0	7
TAP	49	96	0
TAP	49	96	7
TAP	49	192	1
TAP	49	192	6
BST	49	288	1
SLR	49	288	1	96	384	0
BST	49	288	6
SLL	49	288	6	96	384	7
TAP	52	0	1
TAP	52	96	1
TAP	52	192	0
TAP	52	192	1
TAP	52	288	7
TAP	53	0	6
TAP	53	96	6
TAP	53	96	7
TAP	53	192	5
TAP	53	288	4
TAP	54	0	3
TAP	54	96	3
TAP	54	192	2
TAP	54	288	2
TAP	55	0	1
TAP	55	96	1
TAP	55	192	0
TAP	55	192	7
TAP	56	0	6
TAP	56	96	6
TAP	56	192	6
TAP	56	192	7
TAP	56	288	0
TAP	57	0	1
TAP	57	96	0
TAP	57	96	1
TAP	57	192	2
TAP	57	288	3
TAP	58	0	4
TAP	58	96	4
TAP	58	192	5
TAP	58	288	5
TAP	59	0	6
TAP	59	96	6
TAP	59	192	0
TAP	59	192	7
HLD	60	0	6	192
TAP	60	192	7
TAP	61	0	6
TAP	61	0	7
TAP	61	96	6
TAP	61	96	7
TAP	61	192	0
TAP	61	192	5
HLD	62	0	1	192
TAP	62	192	0
TAP	63	0	0
TAP	63	0	7
TAP	63	96	0
TAP	63	96	7
TAP	63	192	1
TAP	63	192	6
TAP	64	0	5
TAP	64	96	5
TAP	64	192	4
TAP	64	192	6
TAP	65	0	2
TAP	65	96	2
TAP	65	192	1
TAP	65	192	3
HLD	66	0	2	96
HLD	66	0	4	96
HLD	66	192	3	96
HLD	66	192	5	96
TAP	67	0	2
TAP	67	0	4
TAP	67	96	2
TAP	67	96	4
BRK	67	192	1
BRK	67	192	5
TAP	68	0	6
TAP	68	96	6
TAP	68	192	6
TAP	68	192	7
TAP	68	288	0
TAP	69	0	1
TAP	69	96	0
TAP	69	96	1
TAP	69	192	2
TAP	69	288	3
TAP	70	0	4
TAP	70	96	4
TAP	70	192	5
TAP	70	288	5
TAP	71	0	6
TAP	71	96	6
TAP	71	192	0
TAP	71	192	7
TAP	72	0	1
TAP	72	96	1
TAP	72	192	0
TAP	72	192	1
TAP	72	288	7
TAP	73	0	6
TAP	73	96	6
TAP	73	96	7
TAP	73	192	5
TAP	73	288	4
TAP	74	0	3
TAP	74	96	3
TAP	74	192	2
TAP	74	288	2
TAP	75	0	1
TAP	75	96	1
TAP	75	192	0
TAP	75	192	7
HLD	76	0	1	192
TAP	76	192	0
TAP	77	0	0
TAP	77	0	1
TAP	77	96	0
TAP	77	96	1
TAP	77	192	2
TAP	77	192	7
HLD	78	0	6	192
TAP	78	192	7
TAP	79	0	0
TAP	79	0	7
TAP	79	96	0
TAP	79	96	7
TAP	79	192	1
TAP	79	192	6
HLD	80	0	2	96
HLD	80	0	4	96
TAP	80	192	2
TAP	80	192	4
HLD	81	0	3	96
HLD	81	0	5	96
TAP	81	192	3
TAP	81	192	5
BST	81	288	3
SI_	81	288	3	96	192	0
BST	81	288	5
SI_	81	288	5	96	192	0
TAP	83	0	1
TAP	83	0	7
TAP	83	96	1
TAP	83	96	7
TAP	83	192	2
TAP	83	192	6
TAP	83	288	2
TAP	83	288	6
XTP	84	192	4
XTP	84	192	5
XHO	84	352	4	416
XHO	84	352	5	416
TAP	86	192	3
TAP	86	192	4
XHO	86	352	3	416
XHO	86	352	4	416
TAP	88	192	2
TAP	88	192	3
XTP	88	352	2
XTP	88	352	3
XTP	89	192	3
XTP	89	192	4
XST	89	288	3
SI_	89	288	3	96	192	0
XST	89	288	4
SI_	89	288	4	96	192	7
TAP	91	0	0
TAP	91	0	7
TAP	91	192	1
TAP	91	192	6
XTP	91	288	1
XTP	91	288	6
TAP	92	96	0
TAP	92	96	7
TAP	92	192	0
TAP	92	192	7
TAP	92	288	1
TAP	92	288	6
TAP	93	0	1
TAP	93	0	6
TAP	93	96	2
TAP	93	96	5
TAP	93	192	2
TAP	93	192	5
TTP	94	0	4	E	0	L1
TTP	95	0	3	E	0	L1
TTP	96	0	2	E	0	L1
TTP	97	0	1	E	0	L1
TTP	98	0	0	E	0	L1
TTP	99	0	7	E	0	L1
TTP	100	0	6	E	0	L1
TTP	101	0	5	E	0	L1
HLD	102	0	3	96
HLD	102	0	4	96
BRK	102	192	3
BRK	102	192	4
TAP	103	0	2
TAP	103	96	2
TAP	103	192	1
TAP	103	288	1
TAP	104	0	0
TAP	104	96	0
TAP	104	192	7
TAP	104	288	7
TAP	105	0	6
TAP	105	96	5
TAP	105	192	3
TAP	105	192	4
TAP	106	0	2
TAP	106	96	2
TAP	106	192	1
TAP	106	192	3
TAP	107	0	5
TAP	107	96	5
TAP	107	192	4
TAP	107	192	6
HLD	108	0	3	96
HLD	108	0	5	96
HLD	108	192	2	96
HLD	108	192	4	96
TAP	109	0	3
TAP	109	0	5
TAP	109	96	3
TAP	109	96	5
BRK	109	192	2
BRK	109	192	6
TAP	110	0	1
TAP	110	96	1
TAP	110	192	0
TAP	110	192	1
TAP	110	288	7
TAP	111	0	6
TAP	111	96	6
TAP	111	96	7
TAP	111	192	5
TAP	111	288	4
TAP	112	0	3
TAP	112	96	3
TAP	112	192	2
TAP	112	288	2
TAP	113	0	1
TAP	113	96	1
TAP	113	192	0
TAP	113	192	7
TAP	114	0	6
TAP	114	96	6
TAP	114	192	6
TAP	114	192	7
TAP	114	288	0
TAP	115	0	1
TAP	115	96	0
TAP	115	96	1
TAP	115	192	2
TAP	115	288	3
TAP	116	0	4
TAP	116	96	4
TAP	116	192	5
TAP	116	288	5
TAP	117	0	6
TAP	117	96	6
TAP	117	192	0
TAP	117	192	7
HLD	118	0	6	192
TAP	118	192	7
TAP	119	0	6
TAP	119	0	7
TAP	119	96	6
TAP	119	96	7
TAP	119	192	0
TAP	119	192	5
HLD	120	0	1	192
TAP	120	192	0
TAP	121	0	0
TAP	121	0	7
TAP	121	96	0
TAP	121	96	7
TAP	121	192	1
TAP	121	192	6
HLD	122	0	3	96
HLD	122	0	5	96
TAP	122	192	3
TAP	122	192	5
HLD	123	0	2	96
HLD	123	0	4	96
TAP	123	192	2
TAP	123	192	4
BST	123	288	2
SI_	123	288	2	96	192	7
BST	123	288	4
SI_	123	288	4	96	192	7
TAP	125	0	0
TAP	125	0	6
TAP	125	96	0
TAP	125	96	6
TAP	125	192	1
TAP	125	192	5
TAP	126	0	2
TAP	126	0	4
TAP	126	96	2
TAP	126	96	4
TAP	126	288	3
TAP	126	288	5
TAP	127	0	3
TAP	127	0	5
TAP	127	192	2
TAP	127	192	4
BST	127	288	2
SI_	127	288	2	96	192	7
BST	127	288	4
SI_	127	288	4	96	192	7
TAP	129	0	0
TAP	129	96	0
TAP	129	192	1
TAP	129	288	1
TAP	130	0	2
TAP	130	96	2
TAP	130	192	3
TAP	130	288	3
TAP	131	0	4
TAP	131	96	4
TAP	131	192	5
TAP	131	288	5
TAP	132	0	6
TAP	132	96	7
TAP	132	192	0
TAP	132	288	1
BRK	133	0	0
BRK	133	0	7
XTP	133	256	0
XTP	133	256	7
XTP	133	352	0
XTP	133	352	7
XTP	134	64	1
XTP	134	64	6
XTP	134	160	1
XTP	134	160	6
XTP	134	256	0
XTP	134	256	7
XST	134	352	0
SCR	134	352	0	96	176	3
XST	134	352	7
SCL	134	352	7	96	176	4

T_REC_TAP	334
T_REC_BRK	8
T_REC_XTP	40
T_REC_HLD	40
T_REC_XHO	4
T_REC_STR	10
T_REC_BST	10
T_REC_XST	5
T_REC_TTP	8
T_REC_THO	0
T_REC_SLD	25
T_REC_ALL	484
T_NUM_TAP	397
T_NUM_BRK	18
T_NUM_HLD	44
T_NUM_SLD	25
T_NUM_ALL	484
T_JUDGE_TAP	415
T_JUDGE_HLD	132
T_JUDGE_SLD	25
T_JUDGE_ALL	572
TTM_EACHPAIRS	137
TTM_SCR_TAP	198500
TTM_SCR_BRK	46800
TTM_SCR_HLD	44000
TTM_SCR_SLD	37500
TTM_SCR_ALL	326800
TTM_SCR_S	315250
TTM_SCR_SS	325000
TTM_RAT_ACV	10055

