VERSION	0.00.00	1.03.00
FES_MODE	0
BPM_DEF	230.000	230.000	230.000	230.000
MET_DEF	4	4
RESOLUTION	384
CLK_DEF	384
COMPATIBLE_CODE	MA2

BPM	0	0	230.000
MET	0	0	4	4

HLD	2	0	0	336
HLD	4	0	0	336
HLD	6	0	7	384
HLD	8	0	7	384
STR	10	0	0
SI_	10	0	0	96	384	3
TAP	13	0	4
STR	14	0	4
SI_	14	0	4	96	384	7
TAP	17	0	0
TAP	17	0	7
TAP	18	0	0
TAP	19	0	0
TAP	20	0	1
TAP	21	0	1
TAP	22	0	2
TAP	23	0	2
TAP	24	0	2
TAP	24	0	3
TAP	26	0	4
TAP	27	0	4
TAP	28	0	5
TAP	29	0	5
TAP	30	0	6
TAP	31	0	6
TAP	32	0	0
TAP	32	0	7
TTP	34	0	7	B	0	L1
TTP	35	0	0	B	0	L1
TTP	36	0	6	B	0	L1
TTP	37	0	1	B	0	L1
TTP	38	0	5	B	0	L1
THO	39	0	0	288	C	0	L1
HLD	41	288	6	384
HLD	41	288	7	384
HLD	43	288	0	384
HLD	43	288	1	384
HLD	45	288	0	864
HLD	45	288	7	864
TTP	49	288	0	C	1	L1
TAP	52	0	7
TAP	52	192	7
TAP	53	0	7
TAP	54	0	6
TAP	54	192	6
TAP	55	0	6
TAP	56	0	5
TAP	56	192	5
TAP	57	0	5
TAP	58	0	4
TAP	58	192	4
TAP	59	0	3
TAP	59	0	4
TAP	60	0	3
TAP	60	192	3
TAP	61	0	3
TAP	62	0	2
TAP	62	192	2
TAP	63	0	2
TAP	64	0	1
TAP	64	192	1
TAP	65	0	1
TAP	66	0	0
TAP	66	192	0
TAP	67	0	0
TAP	67	0	7
TAP	68	0	1
TAP	68	192	1
TAP	69	0	1
TAP	70	0	2
TAP	70	192	2
TAP	71	0	2
TAP	72	0	3
TAP	72	192	3
TAP	73	0	3
TAP	74	0	4
TAP	74	192	4
TAP	75	0	3
TAP	75	0	4
TAP	76	0	5
TAP	76	192	5
TAP	77	0	5
TAP	78	0	6
TAP	78	192	6
TAP	79	0	6
TAP	80	0	7
TAP	80	192	7
HLD	81	0	0	288
HLD	81	0	7	288
STR	84	0	0
SI_	84	0	0	96	384	4
STR	86	0	5
SI_	86	0	5	96	384	1
STR	88	0	0
SI_	88	0	0	96	384	5
XTP	89	288	6
XTP	90	288	0
XTP	90	288	7
XTP	91	288	1
XTP	91	288	6
TTP	94	192	0	B	0	L1
TTP	95	192	1	B	0	L1
TTP	96	192	2	B	0	L1
TTP	97	192	3	B	0	L1
TTP	98	192	4	B	0	L1
TTP	99	192	5	B	0	L1
TTP	100	192	6	B	0	L1
TTP	101	192	0	C	0	L1
TAP	102	192	7
TAP	103	0	7
TAP	103	192	7
TAP	104	0	0
TAP	104	192	0
TAP	105	0	0
TAP	105	0	7
TAP	106	0	6
TAP	106	192	6
TAP	107	0	6
TAP	108	0	5
TAP	108	192	5
TAP	109	0	4
TAP	109	0	5
TAP	110	0	3
TAP	110	192	3
TAP	111	0	3
TAP	112	0	2
TAP	112	192	2
TAP	113	0	2
TAP	114	0	1
TAP	114	192	1
TAP	115	0	1
TAP	116	0	0
TAP	116	192	0
TAP	117	0	0
TAP	117	0	7
TAP	118	0	1
TAP	118	192	1
TAP	119	0	2
TAP	119	192	2
TAP	120	0	3
TAP	121	0	3
TAP	121	0	4
TAP	122	0	4
TAP	122	192	4
TAP	123	0	5
TAP	123	192	5
TAP	124	0	6
TAP	125	0	6
TAP	125	0	7
TAP	126	0	1
TAP	126	192	1
TAP	127	0	0
TAP	127	0	1
TAP	128	0	6
TAP	128	192	6
TAP	129	0	6
TAP	129	0	7
TAP	130	0	0
TAP	130	192	0
TAP	131	0	7
TAP	131	192	7
TAP	132	0	0
TAP	132	0	7
TAP	132	192	0
TAP	132	192	7
BRK	133	0	1
BRK	133	0	6
TTP	134	336	0	C	1	L1
TTP	134	336	1	B	0	L1
TTP	134	336	6	B	0	L1

T_REC_TAP	123
T_REC_BRK	2
T_REC_XTP	5
T_REC_HLD	12
T_REC_XHO	0
T_REC_STR	5
T_REC_BST	0
T_REC_XST	0
T_REC_TTP	17
T_REC_THO	1
T_REC_SLD	5
T_REC_ALL	170
T_NUM_TAP	150
T_NUM_BRK	2
T_NUM_HLD	13
T_NUM_SLD	5
T_NUM_ALL	170
T_JUDGE_TAP	152
T_JUDGE_HLD	116
T_JUDGE_SLD	5
T_JUDGE_ALL	273
TTM_EACHPAIRS	22
TTM_SCR_TAP	75000
TTM_SCR_BRK	5200
TTM_SCR_HLD	13000
TTM_SCR_SLD	7500
TTM_SCR_ALL	100700
TTM_SCR_S	97500
TTM_SCR_SS	100500
TTM_RAT_ACV	10019

