VERSION	0.00.00	1.03.00
FES_MODE	0
BPM_DEF	150.000	150.000	150.000	150.000
MET_DEF	4	4
RESOLUTION	384
CLK_DEF	384
COMPATIBLE_CODE	MA2

BPM	0	0	150.000
MET	0	0	4	4

HLD	1	0	5	48
TAP	1	48	4
TAP	1	64	3
TAP	1	64	6
HLD	1	128	2	48
TAP	1	176	3
TAP	1	192	1
TAP	1	192	4
HLD	1	240	0	48
TAP	1	288	7
TAP	1	304	1
TAP	1	304	6
TTP	2	96	0	C	1	M1
BST	2	96	4
SCR	2	96	4	96	480	3
SUL	2	96	4	96	288	3
TAP	4	0	3
HLD	4	0	5	48
TTP	4	96	4	B	0	M1
HLD	4	96	5	48
TTP	4	108	4	E	0	M1
TAP	4	192	3
HLD	4	192	5	48
TTP	4	288	2	E	0	M1
HLD	4	288	5	48
TTP	4	300	2	B	0	M1
TAP	5	0	3
HLD	5	0	5	48
TTP	5	96	4	B	0	M1
HLD	5	96	5	48
TTP	5	108	4	E	0	M1
TAP	5	192	3
HLD	5	192	5	48
TTP	5	288	2	E	0	M1
HLD	5	288	5	48
TTP	5	300	1	B	0	M1
HLD	6	0	2	48
TAP	6	0	4
HLD	6	96	2	48
TTP	6	96	3	B	0	M1
TTP	6	108	4	E	0	M1
HLD	6	192	2	48
TAP	6	192	4
HLD	6	288	2	48
TTP	6	288	6	E	0	M1
TTP	6	300	5	B	0	M1
HLD	7	0	2	48
TAP	7	0	4
HLD	7	96	2	48
TTP	7	96	3	B	0	M1
TTP	7	108	4	E	0	M1
HLD	7	192	2	48
TAP	7	192	4
HLD	7	288	2	48
TTP	7	288	6	E	0	M1
TTP	7	300	6	B	0	M1
HLD	8	0	3	48
STR	8	0	7
SI_	8	0	7	96	48	5
TTP	8	96	6	B	0	M1
TTP	8	108	5	B	0	M1
STR	8	192	0
SI_	8	192	0	96	48	2
HLD	8	192	3	48
TTP	8	288	1	B	0	M1
TTP	8	300	2	B	0	M1
HLD	9	0	4	48
STR	9	0	7
SI_	9	0	7	96	48	5
TTP	9	96	6	B	0	M1
TTP	9	108	5	B	0	M1
STR	9	192	0
SI_	9	192	0	96	48	2
HLD	9	192	3	48
TTP	9	288	1	B	0	M1
TTP	9	300	2	B	0	M1
STR	10	0	7
SI_	10	0	7	96	48	3
STR	10	48	0
SI_	10	48	0	96	48	4
TAP	10	96	7
TAP	10	144	0
TAP	10	192	6
TAP	10	224	6
TAP	10	240	1
TAP	10	272	1
STR	10	288	5
SUL	10	288	5	96	144	3
SXL	10	288	5	96	144	4
TAP	10	300	4
TAP	10	312	3
TAP	10	324	2
TAP	10	336	1
TAP	10	348	0
TAP	10	360	7
TAP	10	372	6
TAP	11	192	2
TAP	11	224	3
TAP	11	256	4
TAP	11	288	2
TAP	11	288	5
TAP	12	0	4
TAP	12	32	4
TAP	12	48	2
TAP	12	80	2
TAP	12	96	5
TAP	12	128	5
TAP	12	144	3
TAP	12	176	3
TAP	12	192	6
TAP	12	224	6
TAP	12	240	4
TAP	12	272	4
TAP	12	288	7
TAP	12	320	7
TAP	12	336	0
TAP	13	0	6
TAP	13	32	6
TAP	13	48	4
TAP	13	80	4
TAP	13	96	3
TAP	13	128	3
XTP	13	144	1
TTP	13	192	2	E	0	M1
BRK	13	192	7
BRK	13	240	0
TTP	13	240	6	E	0	M1
TTP	13	288	4	E	0	M1
BRK	13	288	7
TAP	14	0	3
TAP	14	32	3
TAP	14	48	5
TAP	14	80	5
TAP	14	96	2
TAP	14	128	2
TAP	14	144	4
TAP	14	176	4
TAP	14	192	1
TAP	14	224	1
TAP	14	240	3
TAP	14	272	3
STR	14	288	0
SCL	14	288	0	96	144	1
TAP	14	320	0
TAP	14	336	7
HLD	15	0	3	192
STR	15	192	0
SI_	15	192	0	96	48	4
TAP	15	224	0
XTP	15	272	4
TAP	16	0	3
TAP	16	32	3
TAP	16	48	5
TAP	16	80	5
TAP	16	96	2
TAP	16	128	2
TAP	16	144	4
TAP	16	176	4
TAP	16	192	1
TAP	16	224	1
TAP	16	240	3
TAP	16	272	3
TAP	16	288	0
TAP	16	320	0
TAP	16	336	7
TAP	17	0	1
TAP	17	32	1
TAP	17	48	3
TAP	17	80	3
TAP	17	96	4
TAP	17	128	4
XTP	17	144	6
BRK	17	192	0
TTP	17	192	6	E	0	M1
TTP	17	240	2	E	0	M1
BRK	17	240	7
BRK	17	288	0
TTP	17	288	4	E	0	M1
TAP	18	0	4
TAP	18	32	4
TAP	18	48	2
TAP	18	80	2
TAP	18	96	5
TAP	18	128	5
TAP	18	144	3
TAP	18	176	3
TAP	18	192	6
TAP	18	224	6
TAP	18	240	4
TAP	18	272	4
TAP	18	288	7
TAP	18	320	7
XTP	18	336	0
TAP	19	0	1
TAP	19	0	4
TAP	19	48	3
TAP	19	48	6
TAP	19	96	2
TAP	19	96	5
TAP	19	112	2
TAP	19	112	5
BRK	19	160	0
BRK	19	160	7
TTP	19	240	2	B	0	M1
TTP	19	240	2	E	0	M1
TTP	19	240	3	E	0	M1
TTP	19	240	5	B	0	M1
TTP	19	240	5	E	0	M1
TTP	19	240	6	E	0	M1
TTP	19	288	0	B	0	M1
TTP	19	288	1	E	0	M1
TTP	19	288	7	B	0	M1
TTP	19	288	7	E	0	M1
XTP	20	0	1
XTP	20	0	6
XTP	20	16	2
XTP	20	16	5
XHO	20	32	3	96
XTP	20	32	4
TAP	20	128	4
TAP	20	144	4
XTP	20	192	1
TAP	20	208	2
TAP	20	224	3
XTP	20	240	7
TAP	20	256	6
TAP	20	272	5
XTP	20	288	3
TAP	20	304	2
TAP	20	320	1
HLD	20	336	0	48
XTP	21	0	7
TAP	21	16	6
TAP	21	32	5
XTP	21	48	1
TAP	21	64	2
TAP	21	80	3
XTP	21	96	6
TAP	21	112	5
TAP	21	128	4
XTP	21	144	1
TAP	21	160	2
TAP	21	176	3
XTP	21	192	0
TAP	21	208	1
TAP	21	224	2
TAP	21	240	3
TAP	21	256	4
TAP	21	272	5
XTP	21	288	0
XTP	21	288	6
TAP	22	0	2
TAP	22	32	2
TAP	22	48	3
TAP	22	80	3
TAP	22	96	2
TAP	22	128	1
HLD	22	128	4	48
TAP	22	176	3
TAP	22	224	5
TAP	22	240	4
TAP	22	272	4
TAP	22	288	6
TAP	22	320	6
TAP	22	336	0
TAP	22	368	0
HLD	23	0	7	64
XTP	23	64	4
XTP	23	80	3
XTP	23	96	2
TAP	23	128	6
TAP	23	144	0
HLD	23	192	0	64
XTP	23	224	3
XTP	23	240	4
XTP	23	256	5
TAP	23	336	4
HLD	24	0	3	48
HLD	24	0	5	48
HLD	24	80	2	48
HLD	24	80	4	48
HLD	24	144	1	48
TAP	24	144	3
TTP	24	192	4	E	0	M1
TTP	24	208	4	B	0	M1
TTP	24	224	5	B	0	M1
TTP	24	240	6	B	0	M1
XTP	24	288	0
XTP	24	336	0
HLD	25	0	1	48
HLD	25	0	3	48
HLD	25	80	2	48
HLD	25	80	4	48
HLD	25	144	3	48
TAP	25	144	5
TTP	25	192	6	B	0	M1
TTP	25	208	5	B	0	M1
TTP	25	224	5	E	0	M1
TTP	25	240	1	B	0	M1
TTP	25	256	2	B	0	M1
TTP	25	272	3	E	0	M1
TTP	25	288	7	E	0	M1
TTP	25	304	6	E	0	M1
TTP	25	320	5	E	0	M1
TTP	25	336	1	E	0	M1
TTP	25	352	2	E	0	M1
TTP	25	368	3	E	0	M1
BRK	26	0	7
TAP	26	64	0
TAP	26	96	6
TAP	26	128	4
TAP	26	160	5
TAP	26	192	1
TAP	26	224	3
TAP	26	256	2
TAP	26	288	5
TAP	26	320	4
TAP	26	352	7
TTP	27	0	2	E	0	M1
BRK	27	0	7
TTP	27	32	3	E	0	M1
BRK	27	32	7
TTP	27	64	4	E	0	M1
BRK	27	64	7
BRK	27	128	0
TTP	27	128	6	E	0	M1
BRK	27	160	0
TTP	27	160	5	E	0	M1
BRK	27	192	0
TTP	27	192	4	E	0	M1
TTP	27	240	1	B	0	M1
TTP	27	240	1	E	0	M1
TTP	27	240	6	B	0	M1
TTP	27	240	7	E	0	M1
TTP	27	288	1	B	0	M1
TTP	27	288	1	E	0	M1
TTP	27	288	6	B	0	M1
TTP	27	288	7	E	0	M1
XTP	28	0	3
XHO	28	0	4	768
TAP	28	96	5
TAP	28	288	5
TAP	29	96	5
TTP	29	192	6	E	0	M1
TTP	29	240	5	E	0	M1
TTP	29	288	0	C	0	M1
TTP	29	336	4	E	0	M1
XHO	30	0	3	384
TAP	30	96	2
STR	30	288	2
SCL	30	288	2	96	120	5
TAP	31	192	3
TAP	31	192	4
TAP	31	288	0
STR	31	288	7
SI_	31	288	7	96	48	4
HLD	32	0	1	48
STR	32	0	7
SI_	32	0	7	96	48	2
HLD	32	96	5	48
STR	32	96	7
SI_	32	96	7	96	48	4
HLD	32	192	1	48
STR	32	192	7
SI_	32	192	7	96	48	2
HLD	32	288	5	48
TAP	32	288	7
STR	33	0	7
SI_	33	0	7	96	48	3
STR	33	48	0
SI_	33	48	0	96	48	4
STR	33	96	7
SI_	33	96	7	96	48	5
STR	33	144	0
SI_	33	144	0	96	48	2
STR	33	192	7
SI_	33	192	7	96	48	3
STR	33	240	0
SI_	33	240	0	96	48	4
TAP	33	288	7
TAP	33	336	0
TAP	34	0	5
TAP	34	32	4
TAP	34	48	2
TAP	34	80	3
TAP	34	96	6
TAP	34	128	4
TAP	34	144	1
TAP	34	176	3
XTP	34	192	6
TAP	34	208	5
TAP	34	224	4
XTP	34	240	1
TAP	34	256	2
TAP	34	272	3
XTP	34	288	7
TAP	34	296	6
TAP	34	304	5
TAP	34	312	4
TAP	34	320	3
TAP	34	328	2
TAP	34	336	1
TAP	34	344	0
TAP	34	352	7
TAP	34	360	6
TAP	34	368	5
TAP	34	376	4
XTP	35	0	3
XTP	35	64	0
XTP	35	64	7
XTP	35	128	2
XTP	35	128	5
XTP	35	192	1
XTP	35	192	6
TTP	35	256	0	C	1	M1
TTP	35	264	5	B	0	M1
TTP	35	272	2	B	0	M1
BRK	36	0	0
BRK	36	0	7
TAP	36	48	1
STR	36	96	6
SI_	36	96	6	96	48	2
TAP	36	128	7
TAP	36	144	4
TAP	36	192	0
STR	36	192	6
SCL	36	192	6	96	48	3
TAP	36	240	0
STR	36	288	2
SCL	36	288	2	96	48	7
TAP	36	336	1
STR	37	0	4
SI_	37	0	4	96	48	0
TAP	37	48	5
TAP	37	96	6
TAP	37	144	7
STR	37	192	1
SI_	37	192	1	96	48	5
TAP	37	224	0
TAP	37	240	3
STR	37	288	4
SCR	37	288	4	96	48	7
STR	37	336	4
SCL	37	336	4	96	48	1
TAP	38	96	5
TAP	38	144	3
STR	38	192	2
SCL	38	192	2	96	48	7
TAP	38	224	1
TAP	38	240	4
STR	38	288	2
SCR	38	288	2	96	48	5
TAP	38	336	3
TAP	39	0	7
TAP	39	48	7
TAP	39	96	1
TAP	39	144	6
STR	39	192	0
SUL	39	192	0	96	96	7
STR	39	192	7
SCL	39	192	7	96	96	0
TAP	39	240	3
TAP	39	240	4
BRK	40	96	0
BRK	40	96	7
BRK	40	104	1
BRK	40	104	6
BRK	40	112	2
BRK	40	112	5
BRK	40	120	3
BRK	40	120	4
STR	40	192	2
SI_	40	192	2	96	48	0
TAP	40	224	1
TAP	40	240	4
STR	40	288	2
SLR	40	288	2	96	48	6
TAP	40	336	3
TAP	41	0	7
TAP	41	48	7
STR	41	96	4
SI_	41	96	4	96	48	6
STR	41	144	3
SI_	41	144	3	96	48	1
TAP	41	192	2
STR	41	288	5
SI_	41	288	5	96	48	1
TAP	41	336	4
STR	42	0	0
SI_	42	0	0	96	48	4
TAP	42	48	7
TAP	42	96	2
TAP	42	144	5
TAP	42	192	5
TAP	42	240	4
TAP	42	240	6
TAP	42	256	3
TAP	42	256	7
TAP	42	320	1
TAP	42	320	3
TAP	42	336	0
TAP	42	336	4
TAP	43	0	3
TAP	43	0	5
TAP	43	64	2
TAP	43	64	7
TAP	43	128	0
TAP	43	128	3
TAP	43	192	4
TAP	43	224	3
TAP	43	224	5
TAP	43	256	2
TAP	43	256	6
STR	43	288	1
SUR	43	288	1	96	144	3
STR	43	288	7
SCL	43	288	7	96	48	4
TAP	44	0	1
BRK	44	0	7
STR	44	96	5
SXL	44	96	5	96	336	0
HLD	44	192	2	48
TAP	44	288	2
TAP	44	336	3
HLD	45	0	2	48
STR	45	96	2
SI_	45	96	2	96	48	4
TAP	45	144	3
XST	45	192	2
SCL	45	192	2	96	48	7
XST	45	192	7
SCL	45	192	7	96	48	4
TAP	45	288	2
STR	45	288	7
SLR	45	288	7	96	48	3
STR	46	0	4
SI_	46	0	4	96	48	7
XST	46	96	2
SXR	46	96	2	96	240	7
BRK	46	192	6
TAP	46	204	5
TAP	46	216	4
BRK	46	288	6
TAP	46	300	5
TAP	46	312	4
BST	47	0	6
SI_	47	0	6	96	48	3
TAP	47	12	5
TAP	47	24	4
TAP	47	96	0
STR	47	192	1
SI_	47	192	1	96	48	7
STR	47	240	7
SI_	47	240	7	96	48	2
TAP	47	288	3
TAP	47	336	3
BST	48	0	3
SI_	48	0	3	96	48	0
TAP	48	12	4
TAP	48	24	5
TAP	48	36	6
TAP	48	48	7
XST	48	96	6
SI_	48	96	6	96	48	2
TTP	48	192	0	C	1	M1
HLD	48	288	0	48
TAP	48	336	1
TAP	48	348	2
TAP	48	360	3
TAP	48	372	4
STR	49	0	5
SXR	49	0	5	96	96	7
TAP	49	12	6
TAP	49	24	7
TAP	49	36	0
TAP	49	48	1
STR	49	192	2
SI_	49	192	2	96	48	6
STR	49	240	6
SI_	49	240	6	96	48	2
STR	49	288	0
SF_	49	288	0	96	48	4
TAP	49	336	7
BRK	50	0	0
TAP	50	288	4
TAP	50	304	3
TAP	50	320	4
BST	51	0	0
SXL	51	0	0	96	216	5
BST	51	0	7
SXR	51	0	7	96	216	2
TTP	51	6	0	E	0	M1
TTP	51	12	0	C	1	M1
TTP	51	18	7	E	0	M1
TTP	51	24	1	E	0	M1
TTP	51	30	5	B	0	M1
TTP	51	36	2	B	0	M1
TTP	51	42	4	E	0	M1
HLD	52	0	5	384
TTP	52	96	3	B	0	M1
TTP	52	108	4	E	0	M1
TTP	52	288	3	B	0	M1
TTP	52	300	4	E	0	M1
HLD	53	0	2	288
TTP	53	96	4	B	0	M1
TTP	53	108	4	E	0	M1
TTP	53	288	4	B	0	M1
TTP	53	300	4	E	0	M1
HLD	54	0	1	384
TAP	54	0	5
TTP	54	96	4	B	0	M1
TTP	54	108	4	E	0	M1
TTP	54	288	4	B	0	M1
TTP	54	300	4	E	0	M1
HLD	55	0	6	288
TTP	55	96	3	B	0	M1
TTP	55	108	4	E	0	M1
TTP	55	288	3	B	0	M1
TTP	55	300	4	E	0	M1
STR	56	0	5
SCL	56	0	5	96	96	3
TTP	56	96	5	B	0	M1
TTP	56	96	6	E	0	M1
STR	56	192	1
SCL	56	192	1	96	96	7
TTP	56	288	1	B	0	M1
TTP	56	288	2	E	0	M1
STR	57	0	5
SCL	57	0	5	96	96	3
TTP	57	96	5	B	0	M1
TTP	57	96	6	E	0	M1
STR	57	192	1
SCL	57	192	1	96	48	7
HLD	57	288	5	480
TAP	58	0	6
TAP	58	48	6
TAP	58	96	7
TAP	58	144	7
TAP	58	192	0
TAP	58	240	1
TAP	58	288	2
TAP	58	336	3
HLD	59	0	4	96
TAP	59	96	3
TAP	59	112	4
TAP	59	128	3
TAP	59	144	4
TAP	59	160	3
TAP	59	176	4
TAP	59	192	3
TAP	59	208	4
TAP	59	224	3
TAP	59	240	4
TAP	59	256	3
TAP	59	272	4
BRK	59	288	2
TAP	59	296	1
TAP	59	304	0
TAP	59	312	7
TAP	59	320	6
TAP	59	328	5
TAP	59	336	4
STR	60	0	1
SI_	60	0	1	96	48	4
TAP	60	48	0
TAP	60	96	1
STR	60	96	5
SXL	60	96	5	96	96	3
TAP	60	144	6
XTP	60	192	3
TAP	60	192	5
XTP	60	272	2
XTP	60	336	1
STR	61	0	0
SI_	61	0	0	96	48	3
TAP	61	0	1
HLD	61	80	0	112
TAP	61	192	4
TAP	61	240	1
TAP	61	240	5
STR	61	288	2
SCL	61	288	2	96	48	0
TAP	61	288	6
TAP	61	336	3
TAP	61	336	7
TAP	62	0	2
STR	62	0	6
SCL	62	0	6	96	48	4
TAP	62	48	7
STR	62	96	2
SCL	62	96	2	96	48	0
TAP	62	96	6
TAP	62	144	3
TAP	62	192	2
TAP	62	192	6
TAP	62	240	4
TAP	62	272	4
TAP	62	288	0
TAP	62	320	0
TAP	62	336	7
TAP	62	368	7
TAP	63	0	1
TAP	63	48	2
TAP	63	48	3
STR	63	96	3
SCL	63	96	3	96	96	4
STR	63	96	4
SUL	63	96	4	96	96	3
TAP	63	144	4
TAP	63	144	5
XTP	63	336	3
XTP	63	368	4
XST	64	0	3
SI_	64	0	3	96	48	7
TAP	64	48	2
TAP	64	96	1
XTP	64	96	3
TAP	64	144	0
TAP	64	176	0
XST	64	192	7
SI_	64	192	7	96	48	3
TAP	64	240	6
TAP	64	288	5
XTP	64	288	7
TAP	64	336	4
TAP	64	368	4
XST	65	0	3
SI_	65	0	3	96	48	7
TAP	65	48	2
TAP	65	96	1
XTP	65	96	3
TAP	65	144	0
TAP	65	176	0
XST	65	192	7
SI_	65	192	7	96	48	3
TAP	65	240	6
TAP	65	288	5
XTP	65	288	7
TAP	65	336	4
TAP	66	0	2
TAP	66	32	2
TAP	66	48	1
TAP	66	80	1
TAP	66	96	0
TAP	66	128	0
TAP	66	144	7
TAP	66	176	7
TAP	66	192	6
TAP	66	224	6
TAP	66	240	5
TAP	66	272	5
TAP	66	288	4
BRK	67	0	0
TTP	67	0	0	E	0	M1
TTP	67	32	0	C	0	M1
BRK	67	32	1
BRK	67	64	2
TTP	67	64	4	E	0	M1
TTP	67	128	0	E	0	M1
BRK	67	128	7
TTP	67	160	0	C	0	M1
BRK	67	160	6
TTP	67	192	4	E	0	M1
BRK	67	192	5
XTP	67	240	0
XTP	67	288	0
XTP	67	288	7
TAP	68	0	2
TAP	68	32	2
TAP	68	48	4
HLD	68	96	4	80
TAP	68	176	3
TAP	68	224	3
HLD	68	240	5	48
TAP	68	288	4
TAP	68	320	4
TAP	68	336	5
TAP	69	0	2
TAP	69	32	2
TAP	69	48	4
HLD	69	96	4	80
TAP	69	176	3
TAP	69	224	2
TAP	69	240	3
TAP	69	272	3
TAP	69	288	1
TAP	69	320	1
TAP	69	336	4
TAP	70	0	5
TAP	70	32	5
TAP	70	48	3
HLD	70	96	3	80
TAP	70	176	4
TAP	70	224	4
HLD	70	240	2	48
TAP	70	288	3
TAP	70	320	3
TAP	70	336	2
TAP	71	0	5
TAP	71	32	5
TAP	71	48	4
TAP	71	80	4
TAP	71	96	3
TAP	71	128	3
TAP	71	144	2
STR	71	176	2
SI_	71	176	2	96	48	5
TAP	71	192	3
TAP	71	240	4
XTP	72	0	6
TAP	72	32	6
TAP	72	48	4
XHO	72	96	3	48
TAP	72	96	5
TAP	72	144	4
TAP	72	176	4
XTP	72	192	2
TAP	72	224	3
HLD	72	240	1	48
XTP	72	288	4
TAP	72	320	4
TAP	72	336	2
XTP	73	0	5
TAP	73	32	5
TAP	73	48	7
XHO	73	96	0	48
TAP	73	96	6
TAP	73	144	7
TAP	73	176	7
XTP	73	192	1
TAP	73	224	0
HLD	73	240	2	48
XTP	73	288	7
TAP	73	320	7
TAP	73	336	1
TAP	74	0	6
TAP	74	32	4
TAP	74	48	1
TAP	74	80	3
TAP	74	96	7
TAP	74	128	5
TAP	74	144	0
TAP	74	176	2
XTP	74	192	7
TAP	74	208	6
TAP	74	224	5
XTP	74	240	0
TAP	74	256	1
TAP	74	272	2
XTP	74	288	7
TAP	74	296	6
TAP	74	304	5
TAP	74	312	4
TAP	74	320	3
TAP	74	328	2
TAP	74	336	1
TAP	74	344	0
TAP	74	352	7
TAP	74	360	6
TAP	74	368	5
TAP	74	376	4
XTP	75	0	3
TAP	75	48	1
TAP	75	48	5
TAP	75	96	2
STR	75	96	6
SXL	75	96	6	96	96	3
TAP	75	112	2
TAP	75	112	6
BRK	75	160	1
TTP	75	168	1	B	0	M1
TTP	75	176	0	C	1	M1
TTP	75	184	5	B	0	M1

T_REC_TAP	441
T_REC_BRK	37
T_REC_XTP	60
T_REC_HLD	59
T_REC_XHO	5
T_REC_STR	63
T_REC_BST	5
T_REC_XST	8
T_REC_TTP	117
T_REC_THO	0
T_REC_SLD	78
T_REC_ALL	873
T_NUM_TAP	689
T_NUM_BRK	42
T_NUM_HLD	64
T_NUM_SLD	78
T_NUM_ALL	873
T_JUDGE_TAP	731
T_JUDGE_HLD	131
T_JUDGE_SLD	78
T_JUDGE_ALL	940
TTM_EACHPAIRS	87
TTM_SCR_TAP	344500
TTM_SCR_BRK	109200
TTM_SCR_HLD	64000
TTM_SCR_SLD	117000
TTM_SCR_ALL	634700
TTM_SCR_S	611600
TTM_SCR_SS	630500
TTM_RAT_ACV	10066

