VERSION	0.00.00	1.03.00
FES_MODE	0
BPM_DEF	150.000	150.000	150.000	150.000
MET_DEF	4	4
RESOLUTION	384
CLK_DEF	384
COMPATIBLE_CODE	MA2

BPM	0	0	150.000
MET	0	0	4	4

HLD	1	0	4	48
HLD	1	0	6	48
TAP	1	64	4
TAP	1	64	6
HLD	1	128	1	48
HLD	1	128	3	48
TAP	1	192	1
TAP	1	192	3
HLD	1	240	0	48
HLD	1	240	7	48
TAP	1	304	0
TAP	1	304	7
XST	2	96	3
SCL	2	96	3	96	384	4
XST	2	96	4
SCR	2	96	4	96	384	3
HLD	4	0	5	192
TTP	4	96	4	B	0	M1
TTP	4	96	4	E	0	M1
HLD	4	192	2	192
TTP	4	288	3	B	0	M1
TTP	4	288	4	E	0	M1
HLD	5	0	5	192
TTP	5	96	4	B	0	M1
TTP	5	96	4	E	0	M1
HLD	5	192	2	192
TTP	5	288	3	B	0	M1
TTP	5	288	4	E	0	M1
HLD	6	0	6	192
TTP	6	96	4	B	0	M1
TTP	6	96	4	E	0	M1
HLD	6	192	1	192
TTP	6	288	3	B	0	M1
TTP	6	288	4	E	0	M1
HLD	7	0	6	96
HLD	7	96	4	96
HLD	7	192	3	96
XTP	7	288	0
HLD	8	0	1	48
HLD	8	0	2	48
TTP	8	96	1	B	0	M1
TTP	8	96	2	B	0	M1
HLD	8	192	5	48
HLD	8	192	6	48
TTP	8	288	5	B	0	M1
TTP	8	288	6	B	0	M1
HLD	9	0	2	48
HLD	9	0	3	48
TTP	9	96	6	B	0	M1
TTP	9	96	7	B	0	M1
HLD	9	192	4	48
HLD	9	192	5	48
TTP	9	288	0	B	0	M1
TTP	9	288	1	B	0	M1
TAP	10	0	3
TAP	10	0	4
TAP	10	48	3
TAP	10	48	4
TAP	10	96	2
TAP	10	96	5
TAP	10	144	1
TAP	10	144	6
HLD	10	192	0	32
HLD	10	192	7	32
HLD	10	240	0	32
HLD	10	240	7	32
BST	10	288	1
SLL	10	288	1	96	144	3
BST	10	288	6
SLR	10	288	6	96	144	4
TAP	11	288	1
TAP	11	288	6
TAP	12	0	4
TAP	12	0	5
TAP	12	48	6
TAP	12	96	0
TAP	12	96	7
TAP	12	144	1
TAP	12	192	2
TAP	12	192	3
TAP	12	240	1
TAP	12	288	0
TAP	12	288	4
TAP	12	336	0
TAP	13	0	1
TAP	13	0	3
TAP	13	48	2
TAP	13	96	3
TAP	13	96	5
TAP	13	144	6
XTP	13	192	4
XTP	13	192	7
XTP	13	240	4
XTP	13	240	7
XTP	13	288	4
XTP	13	288	7
TAP	14	0	2
TAP	14	0	5
TAP	14	48	6
TAP	14	96	0
TAP	14	96	7
TAP	14	144	1
TAP	14	192	2
TAP	14	192	3
TAP	14	240	1
TAP	14	288	0
STR	14	288	7
SCL	14	288	7	96	192	0
THO	15	0	0	192	C	1	M1
TAP	16	0	6
TAP	16	0	7
TAP	16	48	5
TAP	16	96	3
TAP	16	96	4
TAP	16	144	2
TAP	16	192	0
TAP	16	192	1
TAP	16	240	2
TAP	16	288	3
TAP	16	288	7
TAP	16	336	3
TAP	17	0	0
TAP	17	0	2
TAP	17	48	1
TAP	17	96	0
TAP	17	96	6
TAP	17	144	5
XTP	17	192	4
XTP	17	192	7
XTP	17	240	4
XTP	17	240	7
XTP	17	288	4
XTP	17	288	7
TAP	18	0	1
TAP	18	0	6
TAP	18	48	5
TAP	18	96	3
TAP	18	96	4
TAP	18	144	2
TAP	18	192	0
TAP	18	192	1
TAP	18	240	2
TAP	18	288	3
TAP	18	288	4
TAP	18	336	4
TAP	19	0	3
TAP	19	0	5
TAP	19	48	2
TAP	19	48	4
XTP	19	96	1
XTP	19	96	6
XTP	19	112	1
XTP	19	112	6
TTP	19	160	0	C	1	M1
TTP	19	160	2	B	0	M1
TTP	19	160	5	B	0	M1
XTP	20	0	1
XTP	20	0	6
TTP	20	192	5	E	0	M1
TTP	20	208	4	B	0	M1
TTP	20	224	3	B	0	M1
TTP	20	240	3	E	0	M1
TTP	20	288	1	E	0	M1
TTP	20	304	0	B	0	M1
TTP	20	320	7	B	0	M1
TTP	20	336	7	E	0	M1
XTP	21	0	5
TAP	21	48	5
TAP	21	96	2
TAP	21	144	6
TTP	21	192	3	E	0	M1
TTP	21	208	3	B	0	M1
TTP	21	224	4	B	0	M1
TTP	21	240	5	E	0	M1
TTP	21	288	7	E	0	M1
TTP	21	304	7	B	0	M1
TTP	21	320	0	B	0	M1
TTP	21	336	1	E	0	M1
XTP	22	0	2
TAP	22	48	2
TAP	22	96	5
TAP	22	144	1
TAP	22	192	6
TAP	22	240	7
TAP	22	288	0
TAP	22	336	1
XTP	23	0	2
XTP	23	0	6
TTP	23	96	7	E	0	M1
TTP	23	112	6	B	0	M1
TTP	23	128	5	B	0	M1
TTP	23	144	5	E	0	M1
TTP	23	192	1	E	0	M1
TTP	23	208	1	B	0	M1
TTP	23	224	2	B	0	M1
TTP	23	240	3	E	0	M1
XTP	23	336	4
HLD	24	0	4	72
HLD	24	72	5	72
TAP	24	144	6
TTP	24	240	5	B	0	M1
TTP	24	240	5	E	0	M1
TTP	24	288	7	B	0	M1
TTP	24	288	7	E	0	M1
HLD	25	0	3	72
HLD	25	72	2	72
TAP	25	144	1
TAP	25	192	1
TAP	25	240	0
TAP	25	240	7
TAP	25	288	6
TAP	25	336	0
TAP	25	336	7
STR	26	0	1
SXR	26	0	1	96	192	4
STR	26	0	6
SXL	26	0	6	96	192	3
XTP	27	0	5
XTP	27	32	5
XTP	27	64	5
XTP	27	128	2
XTP	27	160	2
XTP	27	192	2
TTP	27	240	5	B	0	M1
TTP	27	240	6	E	0	M1
TTP	27	288	2	B	0	M1
TTP	27	288	2	E	0	M1
TAP	28	0	3
HLD	28	0	4	480
TAP	28	96	5
TAP	28	288	5
STR	29	96	5
SCL	29	96	5	96	96	2
HLD	30	0	3	288
TAP	30	0	4
TAP	30	96	2
STR	30	288	2
SUR	30	288	2	96	120	4
XTP	31	192	3
XTP	31	192	4
TAP	31	288	2
TAP	31	288	5
HLD	32	0	1	48
TTP	32	0	5	E	0	M1
TTP	32	96	3	E	0	M1
HLD	32	96	6	48
HLD	32	192	1	48
TTP	32	192	5	E	0	M1
TTP	32	288	3	E	0	M1
HLD	32	288	6	48
TAP	33	0	0
TTP	33	0	0	C	0	M1
TAP	33	48	0
TTP	33	48	0	C	0	M1
TAP	33	96	0
TTP	33	96	0	C	0	M1
TAP	33	144	0
TTP	33	144	0	C	0	M1
TAP	33	192	0
TTP	33	192	0	C	0	M1
TAP	33	240	0
TTP	33	240	0	C	0	M1
TAP	33	288	0
TTP	33	288	0	C	0	M1
XHO	34	0	7	32
HLD	34	48	6	32
HLD	34	96	5	32
HLD	34	144	4	32
HLD	34	192	3	32
HLD	34	240	2	32
HLD	34	288	1	32
TAP	34	336	0
TAP	34	336	7
TTP	35	0	0	C	1	M1
TTP	35	8	2	B	0	M1
TTP	35	16	5	B	0	M1
XTP	35	288	0
XTP	35	288	7
STR	36	0	6
SI_	36	0	6	96	48	4
STR	36	96	3
SI_	36	96	3	96	48	1
STR	36	192	7
SI_	36	192	7	96	48	5
STR	36	288	2
SI_	36	288	2	96	48	0
STR	37	0	6
SI_	37	0	6	96	48	4
STR	37	96	1
SI_	37	96	1	96	48	3
STR	37	192	5
SI_	37	192	5	96	48	7
STR	37	288	2
SI_	37	288	2	96	48	0
STR	38	0	5
SI_	38	0	5	96	48	2
STR	38	96	1
SI_	38	96	1	96	48	6
STR	38	192	4
SI_	38	192	4	96	48	1
STR	38	288	0
SI_	38	288	0	96	48	5
STR	39	0	3
SI_	39	0	3	96	48	6
STR	39	96	7
SI_	39	96	7	96	48	2
XTP	39	192	5
XTP	39	240	5
XTP	39	288	3
XTP	39	288	6
STR	40	0	2
SI_	40	0	2	96	48	0
BST	40	96	7
SI_	40	96	7	96	48	5
STR	40	192	3
SI_	40	192	3	96	48	1
STR	40	288	6
SI_	40	288	6	96	48	4
STR	41	0	2
SI_	41	0	2	96	48	0
STR	41	96	5
SI_	41	96	5	96	48	7
STR	41	192	1
SI_	41	192	1	96	48	3
STR	41	288	6
SI_	41	288	6	96	48	4
STR	42	0	1
SI_	42	0	1	96	48	6
STR	42	96	5
SI_	42	96	5	96	48	2
STR	42	192	0
SI_	42	192	0	96	48	5
TAP	42	288	3
TTP	43	0	2	E	0	M1
TTP	43	6	2	B	0	M1
TTP	43	12	0	C	1	M1
TTP	43	18	6	B	0	M1
TTP	43	24	6	E	0	M1
XTP	43	288	1
XST	43	288	5
SCR	43	288	5	96	48	0
BST	44	0	3
SXL	44	0	3	96	384	1
HLD	44	192	7	48
HLD	44	288	7	48
HLD	45	0	0	48
HLD	45	96	0	48
XTP	45	192	0
XTP	45	192	7
STR	45	288	2
SCL	45	288	2	96	48	7
TAP	45	288	6
BST	46	0	4
SXR	46	0	4	96	384	6
TTP	46	192	0	E	0	M1
TTP	46	288	1	E	0	M1
TTP	47	0	2	E	0	M1
TTP	47	96	3	E	0	M1
XTP	47	192	3
XTP	47	192	7
XTP	47	240	3
XTP	47	240	7
XTP	47	288	3
STR	47	288	7
SLR	47	288	7	96	120	5
HLD	48	0	4	96
XTP	48	192	3
XTP	48	192	4
XST	48	240	3
SCL	48	240	3	96	144	5
XTP	48	240	4
TTP	48	336	0	C	1	M1
TAP	49	192	0
STR	49	192	7
SI_	49	192	7	96	48	3
TTP	50	0	0	C	1	M1
TTP	50	8	2	B	0	M1
TTP	50	16	5	B	0	M1
TAP	50	288	0
TAP	50	288	7
BST	51	0	1
SUR	51	0	1	96	192	4
BST	51	0	6
SUL	51	0	6	96	192	3
HLD	52	0	2	384
TAP	52	96	3
TTP	52	288	4	E	0	M1
HLD	53	0	5	384
TAP	53	96	4
TTP	53	288	4	E	0	M1
HLD	54	0	2	384
TAP	54	96	3
TTP	54	288	4	E	0	M1
HLD	55	0	5	192
TAP	55	96	4
TTP	55	288	3	B	0	M1
TTP	55	288	4	B	0	M1
HLD	56	0	2	384
TTP	56	96	0	C	0	M1
TAP	56	288	7
HLD	57	0	5	384
TTP	57	96	0	C	0	M1
TAP	57	288	0
THO	58	0	0	288	C	0	M1
TAP	58	96	4
TAP	58	192	5
TAP	58	288	6
XTP	59	0	0
XTP	59	0	7
TAP	59	96	7
TAP	59	120	0
TAP	59	144	7
TAP	59	168	0
TAP	59	192	7
TAP	59	216	0
TAP	59	240	7
TAP	59	264	0
XTP	59	288	7
BST	60	0	5
SI_	60	0	5	96	48	0
TAP	60	48	5
STR	60	96	1
SI_	60	96	1	96	48	5
TAP	60	144	1
HLD	60	192	7	72
HLD	60	264	6	72
TAP	60	336	5
TAP	61	0	4
TAP	61	0	5
XTP	61	72	3
XST	61	72	6
SCL	61	72	6	96	120	1
TAP	61	192	0
TAP	61	240	0
TAP	61	288	0
STR	62	0	1
SI_	62	0	1	96	48	4
TAP	62	48	1
STR	62	96	5
SI_	62	96	5	96	48	1
TAP	62	144	5
HLD	62	192	3	72
HLD	62	264	2	72
TAP	62	336	0
TAP	63	0	0
TAP	63	48	1
TAP	63	48	7
TAP	63	96	2
TAP	63	96	6
TAP	63	144	3
TAP	63	144	5
TTP	63	192	0	C	1	M1
TTP	63	192	2	B	0	M1
TTP	63	192	6	B	0	M1
XTP	63	336	1
XHO	64	0	1	144
TAP	64	48	0
STR	64	96	7
SI_	64	96	7	96	48	2
TAP	64	144	6
BRK	64	192	5
TAP	64	336	6
HLD	65	0	6	144
TAP	65	48	7
STR	65	96	0
SI_	65	96	0	96	48	5
TAP	65	144	1
BRK	65	192	2
TAP	65	336	3
TAP	65	336	4
HLD	66	0	3	32
TAP	66	0	4
HLD	66	48	2	32
HLD	66	96	1	32
HLD	66	144	0	32
HLD	66	192	7	32
HLD	66	240	6	32
HLD	66	288	5	32
TAP	66	336	3
TAP	66	336	4
XTP	67	0	2
XTP	67	32	2
XTP	67	64	2
XTP	67	128	5
XTP	67	160	5
XTP	67	192	5
TTP	67	240	2	B	0	M1
TTP	67	240	2	E	0	M1
TTP	67	288	5	B	0	M1
TTP	67	288	6	E	0	M1
HLD	68	0	0	48
HLD	68	0	1	48
TAP	68	96	0
TAP	68	96	1
HLD	68	168	2	72
TAP	68	240	3
TAP	68	288	2
TAP	68	288	4
HLD	69	0	6	48
HLD	69	0	7	48
TAP	69	96	6
TAP	69	96	7
HLD	69	168	5	72
TAP	69	240	4
TAP	69	288	3
TAP	69	288	5
HLD	70	0	0	48
HLD	70	0	1	48
TAP	70	96	0
TAP	70	96	1
HLD	70	168	2	72
TAP	70	240	3
TAP	70	288	2
TAP	70	288	4
HLD	71	0	0	48
HLD	71	0	6	48
HLD	71	96	1	48
HLD	71	96	7	48
TAP	71	192	2
TAP	71	192	6
TAP	71	240	1
TAP	71	240	5
XTP	71	288	1
XTP	71	288	5
TTP	72	0	3	E	0	M1
HLD	72	0	6	48
HLD	72	96	1	48
TTP	72	96	5	E	0	M1
TTP	72	192	3	E	0	M1
HLD	72	192	6	48
HLD	72	288	1	48
TTP	72	288	5	E	0	M1
TTP	73	0	0	C	0	M1
TAP	73	0	7
TTP	73	48	0	C	0	M1
TAP	73	48	7
TTP	73	96	0	C	0	M1
TAP	73	96	7
TTP	73	144	0	C	0	M1
TAP	73	144	7
TTP	73	192	0	C	0	M1
TAP	73	192	7
TTP	73	240	0	C	0	M1
TAP	73	240	7
TTP	73	288	0	C	0	M1
TAP	73	288	7
XHO	74	0	0	32
XHO	74	0	7	32
HLD	74	48	0	32
HLD	74	48	7	32
HLD	74	96	1	32
HLD	74	96	6	32
HLD	74	144	1	32
HLD	74	144	6	32
HLD	74	192	2	32
HLD	74	192	5	32
HLD	74	240	2	32
HLD	74	240	5	32
TAP	74	288	3
TAP	74	288	4
TAP	74	336	3
TAP	74	336	4
TAP	75	0	2
TAP	75	0	5
TAP	75	48	1
TAP	75	48	6
XTP	75	96	0
XTP	75	96	7
XTP	75	112	0
XTP	75	112	7
TTP	75	160	0	C	1	M1
TTP	75	160	2	B	0	M1
TTP	75	160	3	B	0	M1
TTP	75	160	4	B	0	M1
TTP	75	160	5	B	0	M1

T_REC_TAP	196
T_REC_BRK	2
T_REC_XTP	66
T_REC_HLD	93
T_REC_XHO	4
T_REC_STR	37
T_REC_BST	8
T_REC_XST	5
T_REC_TTP	112
T_REC_THO	2
T_REC_SLD	50
T_REC_ALL	575
T_NUM_TAP	416
T_NUM_BRK	10
T_NUM_HLD	99
T_NUM_SLD	50
T_NUM_ALL	575
T_JUDGE_TAP	426
T_JUDGE_HLD	196
T_JUDGE_SLD	50
T_JUDGE_ALL	672
TTM_EACHPAIRS	107
TTM_SCR_TAP	208000
TTM_SCR_BRK	26000
TTM_SCR_HLD	99000
TTM_SCR_SLD	75000
TTM_SCR_ALL	408000
TTM_SCR_S	394800
TTM_SCR_SS	407000
TTM_RAT_ACV	10024

