VERSION	0.00.00	1.03.00
FES_MODE	0
BPM_DEF	150.000	150.000	150.000	150.000
MET_DEF	4	4
RESOLUTION	384
CLK_DEF	384
COMPATIBLE_CODE	MA2

BPM	0	0	150.000
MET	0	0	4	4

STR	1	0	3
SXR	1	0	3	96	144	1
STR	1	0	4
SXL	1	0	4	96	144	6
XST	2	96	2
SXR	2	96	2	96	384	4
XST	2	96	5
SXL	2	96	5	96	384	3
TTP	4	0	4	E	0	L1
TTP	4	192	3	E	0	L1
TTP	5	0	2	E	0	L1
TTP	5	192	1	E	0	L1
TTP	6	0	0	E	0	L1
TTP	6	192	7	E	0	L1
TTP	7	0	6	E	0	L1
TTP	7	192	5	E	0	L1
XHO	8	0	2	96
HLD	8	96	3	96
HLD	8	192	4	96
TAP	8	288	5
HLD	9	0	6	96
HLD	9	96	7	96
HLD	9	192	0	96
TAP	9	288	1
TAP	10	0	7
TAP	10	48	7
TAP	10	96	7
TAP	10	192	0
TAP	10	240	0
TAP	10	288	0
BST	11	0	0
SI_	11	0	0	96	144	3
BST	11	0	7
SI_	11	0	7	96	144	4
TAP	12	0	5
TAP	12	96	4
TAP	12	96	5
TAP	12	192	4
TAP	12	288	3
TAP	12	288	4
TAP	13	0	2
TAP	13	96	2
TAP	13	96	3
TAP	13	192	4
TAP	13	240	4
TAP	13	288	4
TAP	14	0	5
TAP	14	96	4
TAP	14	96	5
TAP	14	192	4
TAP	14	288	3
TAP	14	288	4
TAP	15	0	2
TAP	15	48	2
TAP	15	96	2
TAP	15	192	1
TAP	15	288	0
TAP	15	288	7
TAP	16	0	6
TAP	16	96	6
TAP	16	96	7
TAP	16	192	7
TAP	16	288	0
TAP	16	288	7
TAP	17	0	1
TAP	17	96	0
TAP	17	96	1
TAP	17	192	7
TAP	17	240	7
TAP	17	288	7
TAP	18	0	6
TAP	18	96	6
TAP	18	96	7
TAP	18	192	7
TAP	18	288	0
TAP	18	288	7
TAP	19	0	1
TAP	19	0	6
TAP	19	48	1
TAP	19	48	6
TAP	19	96	1
TAP	19	96	6
XTP	19	192	2
XTP	19	192	5
HLD	20	0	6	192
TAP	20	192	7
TAP	20	288	7
TAP	21	0	0
TAP	21	96	1
TAP	21	192	2
TAP	21	192	4
HLD	22	0	5	96
TAP	22	96	4
HLD	22	192	3	96
TAP	22	288	4
HLD	23	0	5	96
TAP	23	96	4
TAP	23	192	4
TAP	23	192	5
TAP	23	288	3
TAP	23	288	4
HLD	24	0	2	288
TAP	24	96	3
TAP	24	192	3
TAP	24	288	4
HLD	25	0	5	288
TAP	25	96	4
TAP	25	192	4
TAP	25	288	3
STR	26	0	2
SCR	26	0	2	96	144	5
XTP	27	0	6
XTP	27	144	0
XTP	27	144	7
XTP	27	192	0
XTP	27	192	7
TTP	28	0	0	E	0	L1
TTP	28	192	1	E	0	L1
TTP	29	0	2	E	0	L1
TTP	29	192	2	B	0	L1
TTP	29	192	3	E	0	L1
TTP	30	0	4	E	0	L1
TTP	30	192	5	E	0	L1
TTP	31	0	6	E	0	L1
TTP	31	192	7	E	0	L1
XHO	32	0	6	96
HLD	32	96	7	96
HLD	32	192	0	96
TAP	32	288	1
HLD	33	0	2	96
HLD	33	96	3	96
HLD	33	192	4	96
TAP	33	288	5
TAP	34	0	3
TAP	34	0	4
TAP	34	48	3
TAP	34	48	4
TAP	34	96	3
TAP	34	96	4
TAP	34	192	2
TAP	34	192	5
TAP	34	240	2
TAP	34	240	5
TAP	34	288	2
TAP	34	288	5
BST	35	0	1
SI_	35	0	1	96	144	4
BST	35	0	6
SI_	35	0	6	96	144	3
TTP	36	0	5	E	0	L1
TTP	36	96	6	E	0	L1
TTP	36	192	7	E	0	L1
STR	37	0	0
SV_	37	0	0	96	144	3
TTP	38	0	5	E	0	L1
TTP	38	96	4	E	0	L1
TTP	38	192	3	E	0	L1
HLD	39	0	1	192
XTP	39	192	0
XTP	39	288	0
XTP	39	288	7
TTP	40	0	0	E	0	L1
TTP	40	96	0	C	1	L1
TTP	40	192	4	E	0	L1
STR	41	0	5
SCL	41	0	5	96	144	2
TTP	42	0	1	E	0	L1
TTP	42	96	2	E	0	L1
TTP	42	192	3	E	0	L1
TTP	42	288	4	E	0	L1
TTP	43	0	0	C	1	L1
TTP	43	0	3	B	0	L1
TTP	43	0	4	B	0	L1
STR	44	0	6
SI_	44	0	6	96	144	3
TAP	45	0	2
TAP	45	96	2
TAP	45	192	2
TAP	45	192	3
STR	46	0	1
SI_	46	0	1	96	144	4
TAP	47	0	5
TAP	47	96	5
TAP	47	192	4
TAP	47	192	5
STR	48	0	5
SI_	48	0	5	96	144	0
TAP	49	0	1
TAP	49	96	1
TAP	49	192	0
TAP	49	288	0
XTP	50	0	0
XTP	50	0	7
BST	51	0	1
SI_	51	0	1	96	96	3
BST	51	0	6
SI_	51	0	6	96	96	4
TTP	52	0	4	E	0	L1
TTP	52	192	5	E	0	L1
TTP	53	0	6	E	0	L1
TTP	53	192	7	E	0	L1
TTP	54	0	0	E	0	L1
TTP	54	192	1	E	0	L1
TTP	55	0	2	E	0	L1
TTP	55	192	3	E	0	L1
XHO	56	0	2	192
HLD	56	192	3	192
HLD	57	0	4	192
TAP	57	192	5
HLD	58	0	4	96
HLD	58	0	5	96
HLD	58	192	2	96
HLD	58	192	3	96
STR	59	0	3
SCL	59	0	3	96	144	0
STR	59	0	4
SCR	59	0	4	96	144	7
BRK	60	0	6
TAP	60	96	6
TAP	60	96	7
TAP	60	192	5
TAP	60	240	5
TAP	60	288	5
TAP	61	0	4
TAP	61	96	3
TAP	61	96	4
TAP	61	192	2
TAP	61	240	2
TAP	61	288	2
TAP	62	0	1
TAP	62	96	0
TAP	62	96	1
TAP	62	192	2
TAP	62	240	2
TAP	62	288	2
TAP	63	0	4
TAP	63	96	3
TAP	63	96	4
TAP	63	192	5
TAP	63	240	5
TAP	63	288	5
TAP	64	0	6
TAP	64	48	6
TAP	64	96	6
TAP	64	192	6
TAP	64	192	7
TAP	64	288	0
TAP	64	288	5
TAP	65	0	1
TAP	65	48	1
TAP	65	96	1
TAP	65	192	0
TAP	65	192	1
TAP	65	288	2
TAP	65	288	7
TAP	66	0	3
TAP	66	48	3
TAP	66	96	3
TAP	66	192	3
TAP	66	192	4
TAP	66	240	3
TAP	66	240	4
TAP	66	288	3
TAP	66	288	4
BST	67	0	2
SI_	67	0	2	96	144	7
BST	67	0	5
SI_	67	0	5	96	144	0
HLD	68	0	6	96
TAP	68	96	7
HLD	68	192	1	96
TAP	68	288	0
HLD	69	0	6	96
TAP	69	96	7
HLD	69	192	0	48
HLD	69	192	1	48
TAP	69	288	0
TAP	69	288	1
HLD	70	0	2	96
TAP	70	96	3
HLD	70	192	5	96
TAP	70	288	4
HLD	71	0	2	96
TAP	71	96	3
HLD	71	192	3	48
HLD	71	192	4	48
TAP	71	288	3
TAP	71	288	4
TAP	72	0	5
TAP	72	96	4
TAP	72	96	5
TAP	72	192	2
TAP	72	288	2
TAP	72	288	3
TAP	73	0	1
TAP	73	96	0
TAP	73	96	1
TAP	73	192	7
TAP	73	288	0
TAP	73	288	7
TAP	74	0	1
TAP	74	0	6
TAP	74	48	1
TAP	74	48	6
TAP	74	96	1
TAP	74	96	6
TAP	74	192	2
TAP	74	192	5
TAP	74	240	2
TAP	74	240	5
TAP	74	288	2
TAP	74	288	5
TAP	75	0	3
TAP	75	0	4
TAP	75	48	3
TAP	75	48	4
TAP	75	96	3
TAP	75	96	4
XTP	75	192	2
XTP	75	192	5

T_REC_TAP	188
T_REC_BRK	1
T_REC_XTP	14
T_REC_HLD	33
T_REC_XHO	3
T_REC_STR	10
T_REC_BST	8
T_REC_XST	2
T_REC_TTP	41
T_REC_THO	0
T_REC_SLD	20
T_REC_ALL	320
T_NUM_TAP	255
T_NUM_BRK	9
T_NUM_HLD	36
T_NUM_SLD	20
T_NUM_ALL	320
T_JUDGE_TAP	264
T_JUDGE_HLD	86
T_JUDGE_SLD	20
T_JUDGE_ALL	370
TTM_EACHPAIRS	68
TTM_SCR_TAP	127500
TTM_SCR_BRK	23400
TTM_SCR_HLD	36000
TTM_SCR_SLD	30000
TTM_SCR_ALL	216900
TTM_SCR_S	209550
TTM_SCR_SS	216000
TTM_RAT_ACV	10041

