VERSION	0.00.00	1.03.00
FES_MODE	0
BPM_DEF	150.000	150.000	150.000	150.000
MET_DEF	4	4
RESOLUTION	384
CLK_DEF	384
COMPATIBLE_CODE	MA2

BPM	0	0	150.000
MET	0	0	4	4

THO	1	0	0	480	C	1	L1
TAP	4	96	0
TAP	4	288	0
TAP	5	96	1
TAP	5	288	1
TAP	6	96	2
TAP	6	288	2
TAP	7	96	2
TAP	7	96	3
TAP	7	288	2
TAP	7	288	3
TAP	8	96	4
TAP	8	288	4
TAP	9	96	5
TAP	9	288	5
TAP	10	96	6
XTP	10	288	0
XTP	10	288	7
XTP	11	0	0
XTP	11	0	7
TAP	12	0	7
TAP	12	192	6
TAP	13	0	5
TAP	13	192	4
TAP	13	192	5
TAP	14	0	4
TAP	14	192	3
HLD	15	0	3	192
HLD	15	0	4	192
TAP	16	0	3
TAP	16	192	2
TAP	17	0	1
TAP	17	192	0
TAP	17	192	1
TAP	18	0	7
TAP	18	192	7
BRK	19	0	0
BRK	19	0	7
STR	20	0	0
SI_	20	0	0	96	288	3
STR	22	0	4
SI_	22	0	4	96	288	7
STR	24	0	0
SI_	24	0	0	96	288	5
STR	26	0	6
SI_	26	0	6	96	288	3
HLD	28	0	0	384
HLD	28	0	1	384
HLD	30	0	6	384
HLD	30	0	7	384
TTP	32	0	0	E	0	L1
TTP	33	0	0	B	0	L1
TTP	33	0	7	B	0	L1
THO	34	0	0	384	C	1	L1
TTP	34	0	1	B	0	L1
TTP	34	0	6	B	0	L1
BRK	36	0	0
TAP	36	96	0
TAP	36	192	0
TAP	37	0	1
TAP	37	96	1
TAP	37	192	1
TAP	38	0	2
TAP	38	96	2
TAP	38	192	2
TAP	39	0	3
TAP	39	96	3
TAP	39	192	3
TAP	39	192	4
TAP	40	0	4
TAP	40	96	4
TAP	40	192	4
TAP	41	0	5
TAP	41	96	5
TAP	41	192	5
TAP	42	0	6
TAP	42	96	6
TAP	42	192	6
BRK	43	0	0
BRK	43	0	7
HLD	44	0	6	192
HLD	44	0	7	192
TAP	45	0	6
TAP	45	0	7
TAP	45	192	5
HLD	46	0	4	192
HLD	46	0	5	192
TAP	47	0	4
TAP	47	0	5
TAP	47	192	3
HLD	48	0	3	192
HLD	48	0	4	192
TAP	49	0	3
TAP	49	0	4
TAP	49	192	2
HLD	50	0	0	192
HLD	50	0	1	192
XTP	51	0	0
XTP	51	0	1
TTP	52	0	0	B	0	L1
TTP	52	0	1	B	0	L1
TTP	53	0	2	B	0	L1
TTP	53	0	3	B	0	L1
TTP	54	0	4	B	0	L1
TTP	54	0	5	B	0	L1
TTP	55	0	6	B	0	L1
TTP	55	0	7	B	0	L1
TTP	56	0	0	C	0	L1
TTP	57	0	2	B	0	L1
TTP	57	0	3	B	0	L1
THO	58	0	0	384	C	0	L1
TAP	60	0	7
TAP	60	96	7
TAP	60	192	7
TAP	60	288	7
TAP	61	0	6
TAP	61	96	6
TAP	61	192	6
TAP	61	192	7
TAP	62	0	5
TAP	62	96	5
TAP	62	192	5
TAP	62	288	5
TAP	63	0	4
TAP	63	96	4
TAP	63	192	3
TAP	63	192	4
TAP	64	0	3
TAP	64	96	3
TAP	64	192	3
TAP	64	288	3
TAP	65	0	2
TAP	65	96	2
TAP	65	192	2
TAP	65	192	3
TAP	66	0	1
TAP	66	96	1
TAP	66	192	1
TAP	66	288	1
TAP	67	0	0
TAP	67	96	0
TAP	67	192	0
TAP	67	192	7
STR	68	0	0
SI_	68	0	0	96	288	3
STR	70	0	4
SI_	70	0	4	96	288	1
TTP	72	0	0	B	0	L1
TTP	72	0	7	B	0	L1
TTP	72	192	1	B	0	L1
TTP	72	192	6	B	0	L1
TTP	73	0	2	B	0	L1
TTP	73	0	5	B	0	L1
TTP	73	192	3	B	0	L1
TTP	73	192	4	B	0	L1
THO	74	0	0	384	C	1	L1

T_REC_TAP	91
T_REC_BRK	5
T_REC_XTP	6
T_REC_HLD	14
T_REC_XHO	0
T_REC_STR	6
T_REC_BST	0
T_REC_XST	0
T_REC_TTP	24
T_REC_THO	4
T_REC_SLD	6
T_REC_ALL	156
T_NUM_TAP	127
T_NUM_BRK	5
T_NUM_HLD	18
T_NUM_SLD	6
T_NUM_ALL	156
T_JUDGE_TAP	132
T_JUDGE_HLD	106
T_JUDGE_SLD	6
T_JUDGE_ALL	244
TTM_EACHPAIRS	24
TTM_SCR_TAP	63500
TTM_SCR_BRK	13000
TTM_SCR_HLD	18000
TTM_SCR_SLD	9000
TTM_SCR_ALL	103500
TTM_SCR_S	99950
TTM_SCR_SS	103000
TTM_RAT_ACV	10048

