VERSION	0.00.00	1.03.00
FES_MODE	0
BPM_DEF	128.000	128.000	128.000	128.000
MET_DEF	4	4
RESOLUTION	384
CLK_DEF	384
COMPATIBLE_CODE	MA2

BPM	0	0	128.000
BPM	6	0	128.000
BPM	10	0	128.000
BPM	14	0	128.000
BPM	18	0	128.000
BPM	22	0	128.000
BPM	26	0	128.000
BPM	30	0	128.000
BPM	34	0	128.000
BPM	38	0	128.000
BPM	42	0	128.000
BPM	46	0	128.000
BPM	52	0	128.000
BPM	58	0	128.000
MET	0	0	4	4

TAP	2	0	3
TAP	2	0	4
TAP	2	48	3
TAP	2	48	4
TAP	2	96	2
TAP	2	120	3
TAP	2	168	5
STR	2	192	4
SI_	2	192	4	96	48	7
TAP	3	0	5
TAP	3	48	5
TAP	3	96	5
TAP	3	120	4
TAP	3	168	4
HLD	3	192	6	96
TAP	3	288	5
TAP	4	0	3
TAP	4	0	4
TAP	4	48	3
TAP	4	48	4
TAP	4	96	2
TAP	4	120	3
TAP	4	168	3
HLD	4	192	1	96
TAP	4	288	2
TAP	5	0	3
TAP	5	0	4
TAP	5	48	5
TAP	5	72	4
TAP	5	96	5
TAP	5	144	2
TAP	5	168	3
TAP	5	192	2
TAP	5	240	5
TAP	5	264	4
TAP	5	288	5
TAP	5	312	3
TAP	5	336	6
THO	5	360	0	120	C	0	M1
XTP	6	96	7
TAP	6	192	1
STR	6	192	4
SI_	6	192	4	96	48	7
TTP	6	288	3	B	0	M1
XTP	6	288	4
TTP	6	300	4	E	0	M1
TAP	7	0	2
TAP	7	0	4
TAP	7	48	5
TTP	7	96	3	B	0	M1
TAP	7	96	6
TTP	7	108	4	E	0	M1
TAP	7	144	5
TAP	7	192	2
TAP	7	192	4
TAP	7	240	5
TTP	7	288	3	B	0	M1
TAP	7	288	6
TTP	7	300	4	E	0	M1
TAP	7	336	5
TAP	8	0	2
TAP	8	0	4
TAP	8	48	5
TTP	8	96	3	B	0	M1
TAP	8	96	6
TTP	8	108	4	E	0	M1
TAP	8	144	5
TAP	8	192	2
TAP	8	192	4
TAP	8	240	5
TTP	8	288	3	B	0	M1
TAP	8	288	6
TTP	8	300	4	E	0	M1
TAP	8	336	5
XHO	9	0	1	192
XHO	9	0	5	192
TAP	9	200	2
TAP	9	200	6
TAP	9	208	3
TAP	9	208	7
TAP	9	216	0
TAP	9	216	4
STR	9	288	1
SI_	9	288	1	96	24	5
STR	9	288	4
SCL	9	288	4	96	96	1
BST	10	0	1
SCL	10	0	1	96	120	5
TAP	10	0	4
TTP	10	12	0	C	1	M1
STR	10	192	3
SLL	10	192	3	96	48	7
STR	10	288	3
SCR	10	288	3	96	96	6
STR	10	288	6
SI_	10	288	6	96	24	2
TAP	11	0	3
BST	11	0	6
SCR	11	0	6	96	120	2
TTP	11	12	0	C	1	M1
STR	11	192	4
SI_	11	192	4	96	48	0
STR	11	288	1
SI_	11	288	1	96	24	5
STR	11	288	4
SCL	11	288	4	96	96	1
BST	12	0	1
SCL	12	0	1	96	120	5
TAP	12	0	4
TTP	12	12	0	C	1	M1
STR	12	192	3
SLL	12	192	3	96	48	7
STR	12	288	3
SCR	12	288	3	96	96	6
STR	12	288	6
SI_	12	288	6	96	24	2
TAP	13	0	3
BST	13	0	6
SCR	13	0	6	96	120	2
TTP	13	12	0	C	1	M1
STR	13	192	3
SI_	13	192	3	96	48	0
SI_	13	192	3	96	48	6
TAP	13	288	3
XHO	14	0	1	48
XTP	14	0	5
TAP	14	48	3
TAP	14	72	2
HLD	14	96	6	48
TAP	14	144	4
TAP	14	168	5
STR	14	192	1
SLR	14	192	1	96	48	5
TAP	14	240	3
TAP	14	264	0
XTP	14	288	5
TAP	15	0	3
HLD	15	0	6	48
TAP	15	48	4
TAP	15	72	5
HLD	15	96	1	48
TAP	15	144	3
TAP	15	168	2
STR	15	192	6
SLL	15	192	6	96	48	2
TAP	15	240	4
TAP	15	264	7
XTP	15	288	2
HLD	16	0	1	48
TAP	16	0	5
TAP	16	48	3
TAP	16	72	2
HLD	16	96	6	48
TAP	16	144	4
TAP	16	168	5
STR	16	192	0
SI_	16	192	0	96	48	4
STR	16	240	7
SI_	16	240	7	96	48	3
TAP	16	288	0
TAP	16	336	7
TTP	17	0	0	E	0	M1
TTP	17	12	1	E	0	M1
TTP	17	24	2	E	0	M1
TTP	17	36	3	E	0	M1
TTP	17	48	4	E	0	M1
TTP	17	60	5	E	0	M1
TTP	17	72	6	E	0	M1
TTP	17	84	7	E	0	M1
TTP	17	96	0	E	0	M1
TTP	17	108	1	E	0	M1
TTP	17	120	2	E	0	M1
TTP	17	132	3	E	0	M1
TTP	17	144	4	E	0	M1
TTP	17	156	5	E	0	M1
TTP	17	168	6	E	0	M1
TTP	17	180	7	E	0	M1
XTP	17	192	0
XTP	17	204	1
TAP	17	216	2
TAP	17	228	3
TAP	17	240	4
TAP	17	252	5
TAP	17	264	6
TAP	17	276	7
STR	17	288	0
SSL	17	288	0	96	60	4
SSR	17	288	0	96	60	4
TAP	17	288	4
TAP	18	96	2
TAP	18	96	6
TAP	18	144	0
TAP	18	176	5
TAP	18	192	3
TAP	18	224	6
TAP	18	240	4
TAP	18	272	5
STR	18	288	3
SI_	18	288	3	96	48	0
TAP	18	320	6
BRK	18	336	0
TAP	18	368	5
TAP	19	0	3
TAP	19	96	1
TAP	19	96	3
TAP	19	144	3
TAP	19	176	2
TAP	19	192	4
TAP	19	224	1
TAP	19	240	3
TAP	19	272	2
STR	19	288	4
SI_	19	288	4	96	48	7
TAP	19	320	1
TAP	19	336	3
TAP	19	368	2
BRK	20	0	4
TAP	20	96	4
TAP	20	96	6
TAP	20	144	3
TAP	20	176	6
TAP	20	192	4
TAP	20	224	7
TAP	20	240	5
TAP	20	272	6
STR	20	288	4
SI_	20	288	4	96	48	0
TAP	20	320	7
TAP	20	336	5
TAP	20	368	6
TAP	21	0	4
TAP	21	96	1
TAP	21	96	3
TAP	21	144	4
TAP	21	176	1
TAP	21	192	3
TAP	21	224	0
TAP	21	240	7
STR	21	272	7
SCL	21	272	7	96	48	4
SCR	21	272	7	96	48	2
TAP	21	320	1
TAP	21	320	5
BRK	21	368	7
TAP	22	96	4
TAP	22	144	3
TAP	22	144	5
TAP	22	176	6
TAP	22	192	4
TAP	22	224	7
TAP	22	240	0
TAP	22	272	5
STR	22	288	4
SCL	22	288	4	96	48	1
TAP	22	320	0
BRK	22	336	1
TAP	22	368	5
TAP	23	0	4
TAP	23	96	2
TAP	23	96	4
TAP	23	144	4
TAP	23	176	1
TAP	23	192	3
TAP	23	224	0
TAP	23	240	7
TAP	23	272	2
STR	23	288	3
SCR	23	288	3	96	48	6
TAP	23	320	7
TAP	23	336	6
TAP	23	368	2
BRK	24	0	3
TAP	24	96	3
TAP	24	96	5
TAP	24	144	3
TAP	24	176	6
TAP	24	192	4
TAP	24	224	7
TAP	24	240	0
TAP	24	272	5
STR	24	288	4
SUL	24	288	4	96	96	4
SUR	24	288	4	96	96	4
TAP	24	320	0
TAP	24	336	1
TAP	24	368	5
TAP	25	144	3
TAP	25	144	5
TAP	25	176	2
TAP	25	192	4
TAP	25	224	3
TAP	25	240	5
TAP	25	272	1
STR	25	288	7
SI_	25	288	7	96	48	2
TAP	25	320	0
TAP	25	336	6
TAP	26	0	1
BRK	26	0	7
TAP	26	48	4
HLD	26	72	4	48
TAP	26	120	5
TAP	26	144	2
TAP	26	168	6
STR	26	192	0
SSL	26	192	0	96	72	4
TAP	26	216	7
TAP	26	240	2
TAP	26	264	2
STR	26	288	0
SCL	26	288	0	96	48	5
BRK	27	0	0
TAP	27	48	3
HLD	27	72	3	48
TAP	27	120	2
TAP	27	144	5
TAP	27	168	1
STR	27	192	7
SSR	27	192	7	96	72	3
TAP	27	216	0
TAP	27	240	5
TAP	27	264	5
STR	27	288	7
SCR	27	288	7	96	48	2
BRK	28	0	7
TAP	28	48	4
HLD	28	72	4	48
TAP	28	120	5
TAP	28	144	2
TAP	28	168	6
STR	28	192	0
SSL	28	192	0	96	72	4
TAP	28	216	7
TAP	28	240	2
TAP	28	264	2
TAP	28	288	0
TAP	29	0	0
TAP	29	12	7
TAP	29	24	6
TAP	29	36	5
TAP	29	48	4
TAP	29	60	3
TAP	29	72	2
TAP	29	84	1
STR	29	96	0
SSR	29	96	0	96	96	4
STR	29	96	4
SSL	29	96	4	96	96	0
TAP	29	108	7
TAP	29	120	6
TAP	29	132	5
TAP	29	144	4
TAP	29	156	3
TAP	29	168	2
TAP	29	180	1
TTP	30	0	0	C	1	M1
BRK	30	0	7
TAP	31	0	2
TAP	31	0	5
TAP	31	48	2
TAP	31	48	5
TAP	31	96	3
TAP	31	128	2
TAP	31	144	4
TAP	31	176	5
STR	31	192	2
SI_	31	192	2	96	48	0
TAP	31	224	1
TAP	31	240	5
TAP	31	272	6
STR	31	288	2
SI_	31	288	2	96	48	4
STR	31	288	7
SI_	31	288	7	96	48	3
BRK	32	0	2
BRK	32	0	7
STR	32	96	1
SI_	32	96	1	96	48	3
TAP	32	144	0
STR	32	192	1
SI_	32	192	1	96	48	7
STR	32	192	6
SI_	32	192	6	96	48	4
TAP	32	240	7
STR	32	288	1
SI_	32	288	1	96	48	5
TAP	32	288	6
TAP	33	0	1
STR	33	0	6
SI_	33	0	6	96	48	2
TAP	33	48	7
STR	33	96	1
SI_	33	96	1	96	48	4
TAP	33	96	6
TAP	33	144	0
TAP	33	192	1
STR	33	192	6
SI_	33	192	6	96	48	3
TAP	33	240	7
STR	33	288	1
SI_	33	288	1	96	48	5
STR	33	288	6
SI_	33	288	6	96	48	0
TAP	33	336	0
BRK	34	0	1
BRK	34	0	6
TAP	34	96	3
TAP	34	96	6
TAP	34	128	2
TAP	34	144	4
TAP	34	176	5
TAP	34	192	4
TAP	34	224	3
TAP	34	240	4
TTP	34	272	5	B	0	M1
TTP	34	288	5	E	0	M1
TTP	34	320	2	B	0	M1
TTP	34	336	3	E	0	M1
TAP	34	368	6
TAP	35	0	4
TTP	35	32	6	E	0	M1
TTP	35	48	5	B	0	M1
TAP	35	80	2
TAP	35	96	4
TTP	35	128	3	B	0	M1
TTP	35	144	4	E	0	M1
TAP	35	176	6
TAP	35	192	4
TTP	35	224	6	E	0	M1
TTP	35	240	5	B	0	M1
TAP	35	272	2
STR	35	288	4
SI_	35	288	4	96	48	0
TTP	35	320	3	B	0	M1
TTP	35	336	4	E	0	M1
TAP	35	368	6
BRK	36	0	4
TAP	36	96	1
TAP	36	96	4
TAP	36	128	5
TAP	36	144	3
TAP	36	176	2
TAP	36	192	3
TAP	36	224	4
TAP	36	240	3
TTP	36	272	2	B	0	M1
TTP	36	288	3	E	0	M1
TTP	36	320	5	B	0	M1
TTP	36	336	5	E	0	M1
TAP	36	368	1
TAP	37	0	3
TTP	37	32	2	E	0	M1
TTP	37	48	2	B	0	M1
TAP	37	80	6
TAP	37	96	4
TAP	37	128	4
TAP	37	144	3
TAP	37	176	3
TAP	37	192	1
TAP	37	224	1
TAP	37	240	7
TAP	37	272	7
STR	37	288	5
SCR	37	288	5	96	240	4
TAP	37	320	5
TAP	37	336	4
TTP	38	0	0	C	1	M1
TAP	39	0	3
TAP	39	0	5
TAP	39	48	3
HLD	39	48	5	216
TAP	39	120	4
TAP	39	192	3
HLD	39	264	3	72
TAP	40	0	2
TAP	40	0	4
HLD	40	48	2	216
TAP	40	48	4
TAP	40	120	3
TAP	40	192	4
HLD	40	264	4	72
TAP	41	0	3
TAP	41	0	5
TAP	41	48	3
HLD	41	48	5	216
TAP	41	120	4
TAP	41	192	3
TAP	41	264	2
TAP	41	336	1
TAP	41	336	3
HLD	42	0	1	96
TAP	42	0	3
TTP	42	96	4	B	0	M1
TTP	42	108	4	E	0	M1
TAP	42	144	2
TAP	42	192	3
TAP	42	192	5
TAP	42	240	2
TAP	42	288	1
TTP	42	288	4	B	0	M1
TTP	42	300	4	E	0	M1
TAP	42	336	2
TAP	43	0	3
TAP	43	0	5
TAP	43	48	2
TAP	43	96	1
TTP	43	96	4	B	0	M1
TTP	43	108	4	E	0	M1
TAP	43	144	2
TAP	43	192	3
TAP	43	192	5
TAP	43	240	2
TAP	43	288	1
TTP	43	288	4	B	0	M1
TTP	43	300	4	E	0	M1
TAP	43	336	2
TAP	44	0	3
TAP	44	0	5
TAP	44	48	2
TAP	44	96	1
TTP	44	96	4	B	0	M1
TTP	44	108	4	E	0	M1
TAP	44	144	2
TAP	44	192	3
TAP	44	192	5
TAP	44	240	2
STR	44	288	1
SCR	44	288	1	96	192	7
TTP	44	288	4	B	0	M1
TTP	44	300	4	E	0	M1
TAP	44	336	0
TAP	45	0	7
TAP	45	288	3
TAP	45	288	4
HLD	46	0	4	48
HLD	46	0	5	48
HLD	46	96	5	48
HLD	46	96	6	48
HLD	46	192	6	48
STR	46	192	7
SI_	46	192	7	96	48	3
BRK	46	288	1
BRK	46	288	7
HLD	47	0	2	48
HLD	47	0	3	48
HLD	47	96	1	48
HLD	47	96	2	48
STR	47	192	0
SI_	47	192	0	96	48	4
HLD	47	192	1	48
BRK	47	288	0
BRK	47	288	6
TAP	48	0	5
TAP	48	32	5
TAP	48	48	4
TAP	48	80	4
TAP	48	96	7
TAP	48	128	7
TAP	48	144	0
TAP	48	176	0
TAP	48	192	3
TAP	48	224	3
TAP	48	240	2
TAP	48	272	2
STR	48	288	7
SI_	48	288	7	96	312	3
TAP	48	304	6
TAP	48	320	5
TAP	48	336	1
TAP	48	352	2
TAP	48	368	3
BRK	49	0	7
THO	49	288	0	96	C	1	M1
TAP	50	0	4
TAP	50	8	5
TAP	50	16	6
TAP	50	24	7
STR	50	32	0
SUL	50	32	0	96	128	6
TTP	50	288	0	C	0	M1
TAP	51	0	0
TAP	51	96	1
TAP	51	192	2
STR	51	192	3
SF_	51	192	3	96	24	7
TAP	51	240	0
TAP	51	240	6
BRK	51	288	3
TTP	51	300	0	C	1	M1
XST	52	0	1
SI_	52	0	1	96	48	4
XTP	52	0	5
TAP	52	48	2
TAP	52	48	4
TAP	52	96	0
TAP	52	96	1
TAP	52	144	5
TAP	52	176	6
TAP	52	192	7
TAP	52	224	3
TAP	52	240	2
TAP	52	272	7
STR	52	288	0
SI_	52	288	0	96	32	2
TAP	52	320	6
STR	52	336	4
SI_	52	336	4	96	32	6
TAP	52	368	7
STR	53	0	0
SI_	53	0	0	96	48	4
TAP	53	48	4
TAP	53	96	0
TAP	53	144	5
TAP	53	176	6
TAP	53	192	7
TAP	53	224	3
TAP	53	240	1
TAP	53	272	5
TAP	53	288	7
TAP	53	320	7
BST	53	368	0
SV_	53	368	0	96	16	2
BST	53	368	6
SV_	53	368	6	96	16	4
TAP	53	376	1
TAP	53	376	5
STR	54	0	2
SSL	54	0	2	96	64	6
STR	54	0	4
SSR	54	0	4	96	64	0
TAP	54	8	3
BST	54	288	0
SI_	54	288	0	96	48	4
BRK	54	288	1
XTP	54	336	3
XTP	54	336	5
TAP	55	0	0
STR	55	0	6
SV_	55	0	6	96	48	3
TAP	55	48	5
TAP	55	96	6
TAP	55	96	7
TAP	55	144	2
TAP	55	176	1
TAP	55	192	0
TAP	55	224	4
TAP	55	240	5
TAP	55	272	0
STR	55	288	7
SI_	55	288	7	96	32	5
TAP	55	320	1
STR	55	336	3
SI_	55	336	3	96	32	1
TAP	55	368	0
BST	56	0	7
SI_	56	0	7	96	48	3
TAP	56	48	3
TAP	56	96	7
TAP	56	144	2
TAP	56	176	1
TAP	56	192	0
TAP	56	224	4
TAP	56	240	6
TAP	56	272	2
STR	56	288	0
SSL	56	288	0	96	72	4
TAP	56	320	4
TAP	56	336	5
TAP	56	368	1
TAP	57	0	0
XTP	57	96	3
XTP	57	96	5
TAP	57	144	6
TAP	57	176	6
TAP	57	192	4
TAP	57	224	4
TAP	57	240	3
TAP	57	272	3
TAP	57	288	1
TAP	57	320	1
TAP	57	336	7
TAP	57	368	7
BST	58	0	2
SLR	58	0	2	96	96	0
BRK	58	0	6
TAP	58	48	4
STR	58	96	7
SI_	58	96	7	96	48	5
TAP	58	144	5
STR	58	192	7
SI_	58	192	7	96	48	3
STR	58	240	2
SI_	58	240	2	96	48	0
TAP	58	288	7
TAP	58	336	2
STR	59	0	5
SI_	59	0	5	96	48	3
STR	59	48	3
SI_	59	48	3	96	48	7
STR	59	96	0
SI_	59	96	0	96	48	2
TAP	59	144	2
STR	59	192	0
SI_	59	192	0	96	48	4
STR	59	240	5
SI_	59	240	5	96	32	7
TAP	59	288	0
TAP	59	336	5
STR	60	0	0
SI_	60	0	0	96	32	4
TAP	60	0	1
TAP	60	48	6
STR	60	48	7
SI_	60	48	7	96	32	3
TAP	60	96	0
TAP	60	144	7
TAP	60	192	2
STR	60	224	1
SI_	60	224	1	96	32	5
STR	60	240	7
SI_	60	240	7	96	32	3
TAP	60	272	0
TAP	60	288	6
TAP	60	320	1
TAP	60	336	7
TTP	61	0	0	C	1	M1
TAP	61	48	0
TAP	61	64	4
TAP	61	80	1
TAP	61	96	3
TAP	61	144	7
TAP	61	160	3
TAP	61	176	6
TAP	61	192	4
TAP	61	240	2
TAP	61	240	5
STR	61	272	3
SI_	61	272	3	96	32	7
STR	61	272	4
SI_	61	272	4	96	32	0
TAP	61	288	5
TAP	61	304	6
TAP	61	320	0
TAP	61	320	7
TAP	61	336	1
TAP	61	352	2
BRK	61	368	3
BRK	61	368	4
TTP	62	0	0	C	1	M1

T_REC_TAP	438
T_REC_BRK	24
T_REC_XTP	12
T_REC_HLD	26
T_REC_XHO	3
T_REC_STR	77
T_REC_BST	9
T_REC_XST	1
T_REC_TTP	66
T_REC_THO	2
T_REC_SLD	91
T_REC_ALL	749
T_NUM_TAP	594
T_NUM_BRK	33
T_NUM_HLD	31
T_NUM_SLD	91
T_NUM_ALL	749
T_JUDGE_TAP	627
T_JUDGE_HLD	57
T_JUDGE_SLD	91
T_JUDGE_ALL	775
TTM_EACHPAIRS	92
TTM_SCR_TAP	297000
TTM_SCR_BRK	85800
TTM_SCR_HLD	31000
TTM_SCR_SLD	136500
TTM_SCR_ALL	550300
TTM_SCR_S	530600
TTM_SCR_SS	547000
TTM_RAT_ACV	10060

