VERSION	0.00.00	1.03.00
FES_MODE	0
BPM_DEF	128.000	128.000	128.000	128.000
MET_DEF	4	4
RESOLUTION	384
CLK_DEF	384
COMPATIBLE_CODE	MA2

BPM	0	0	128.000
MET	0	0	4	4

TTP	2	0	0	C	1	M1
TTP	2	0	1	B	0	M1
TTP	2	0	2	B	0	M1
TTP	2	0	5	B	0	M1
TTP	2	0	6	B	0	M1
BRK	2	288	0
TAP	3	0	1
HLD	3	48	1	72
HLD	3	120	2	72
TAP	3	192	3
TAP	3	288	3
TAP	3	288	4
TAP	4	0	6
HLD	4	48	6	72
HLD	4	120	5	72
TAP	4	192	4
TAP	4	288	3
TAP	4	288	4
TAP	5	0	1
TAP	5	0	6
TAP	5	48	5
TAP	5	96	4
TAP	5	144	3
TAP	5	192	2
TAP	5	240	1
TAP	5	288	0
TAP	5	288	4
HLD	5	360	2	96
HLD	5	360	6	96
XTP	6	96	2
XTP	6	96	6
TAP	6	144	1
TAP	6	144	7
STR	6	192	0
SI_	6	192	0	96	48	4
XTP	6	288	0
TAP	7	0	6
HLD	7	48	6	72
HLD	7	120	5	72
TAP	7	192	4
TAP	7	288	3
TAP	7	288	4
TAP	8	0	2
TAP	8	48	2
TAP	8	48	3
TAP	8	96	5
TAP	8	144	4
TAP	8	144	5
XTP	8	192	2
XTP	8	240	1
XST	8	288	5
SCL	8	288	5	96	96	2
XTP	8	336	6
XST	9	192	3
SI_	9	192	3	96	48	0
XST	9	192	4
SI_	9	192	4	96	48	7
XTP	10	0	1
XTP	10	0	6
TAP	10	72	2
TAP	10	72	3
TAP	10	144	5
TAP	10	144	6
TAP	10	216	0
TAP	10	216	1
TAP	10	288	3
TAP	10	288	6
TAP	10	336	4
TAP	11	0	1
TAP	11	0	5
TAP	11	72	4
TAP	11	72	6
TAP	11	144	1
TAP	11	144	2
TAP	11	216	6
TAP	11	216	7
TAP	11	288	1
TAP	11	288	4
TAP	11	336	3
TAP	12	0	2
TAP	12	0	6
TAP	12	72	1
TAP	12	72	3
TAP	12	144	5
TAP	12	144	6
TAP	12	216	0
TAP	12	216	1
TAP	12	288	3
TAP	12	288	6
TAP	12	336	7
TAP	13	0	0
TAP	13	0	2
TAP	13	72	5
TAP	13	72	7
TAP	13	144	1
TAP	13	144	6
STR	13	192	1
SI_	13	192	1	96	48	5
TAP	13	192	6
TAP	14	0	4
TAP	14	0	6
TAP	14	48	5
TAP	14	72	4
TAP	14	120	4
TAP	14	144	3
TAP	14	192	3
TAP	14	216	2
TAP	14	264	2
TAP	14	288	1
XTP	14	336	0
XTP	14	336	4
TAP	15	0	1
TAP	15	0	3
TAP	15	48	2
TAP	15	72	3
TAP	15	120	3
TAP	15	144	4
TAP	15	192	4
TAP	15	216	5
TAP	15	264	5
TAP	15	288	6
XTP	15	336	3
XTP	15	336	7
TAP	16	0	4
TAP	16	0	6
TAP	16	48	5
TAP	16	72	4
TAP	16	96	5
TAP	16	144	2
TAP	16	168	3
TAP	16	192	2
TAP	16	240	1
TAP	16	288	0
STR	16	288	7
SCL	16	288	7	96	192	0
TAP	16	336	6
STR	17	288	7
SI_	17	288	7	96	48	3
HLD	18	96	1	48
HLD	18	96	5	48
HLD	18	192	4	48
HLD	18	192	6	48
HLD	18	288	3	48
XTP	18	336	7
HLD	19	0	0	48
HLD	19	0	6	48
HLD	19	96	5	48
HLD	19	192	4	48
HLD	19	192	6	48
STR	19	288	1
SI_	19	288	1	96	32	7
STR	19	288	5
SI_	19	288	5	96	32	3
HLD	20	96	2	48
HLD	20	96	6	48
HLD	20	192	1	48
HLD	20	192	3	48
HLD	20	288	4	48
XTP	20	336	0
HLD	21	0	1	48
HLD	21	0	7	48
HLD	21	96	2	48
HLD	21	192	1	48
HLD	21	192	3	48
STR	21	288	2
SI_	21	288	2	96	32	4
STR	21	288	6
SI_	21	288	6	96	32	0
TAP	22	96	1
TAP	22	96	5
HLD	22	144	1	48
HLD	22	144	5	48
HLD	22	240	4	48
HLD	22	240	6	48
XTP	22	336	3
XTP	22	336	7
HLD	23	48	1	48
HLD	23	48	5	48
HLD	23	144	4	48
HLD	23	144	6	48
HLD	23	240	3	48
HLD	23	240	5	48
TAP	23	336	2
TAP	23	336	4
XTP	24	0	1
XTP	24	0	5
TAP	24	96	2
TAP	24	96	6
HLD	24	144	2	48
HLD	24	144	6	48
HLD	24	240	1	48
HLD	24	240	3	48
XST	24	336	0
SCR	24	336	0	96	48	3
XTP	24	336	4
XST	25	48	6
SCL	25	48	6	96	32	4
XST	25	144	1
SCR	25	144	1	96	32	3
XST	25	240	7
SCL	25	240	7	96	48	4
XTP	25	336	0
XHO	26	0	0	72
HLD	26	72	2	72
HLD	26	144	1	72
HLD	26	216	3	72
TAP	26	288	2
TAP	26	336	2
TAP	26	336	4
HLD	27	0	7	72
HLD	27	72	5	72
HLD	27	144	6	72
HLD	27	216	4	72
TAP	27	288	5
TAP	27	336	3
TAP	27	336	5
TAP	28	0	2
TAP	28	0	4
TAP	28	72	3
TAP	28	96	4
TAP	28	144	3
TAP	28	144	5
TAP	28	192	4
TAP	28	216	3
TAP	28	288	1
STR	28	288	6
SXL	28	288	6	96	240	1
STR	29	288	2
SI_	29	288	2	96	48	5
TTP	30	144	6	E	0	M1
TTP	30	240	5	E	0	M1
TTP	30	336	4	E	0	M1
TTP	31	48	3	E	0	M1
TTP	31	144	2	E	0	M1
TAP	31	240	0
TAP	31	240	7
TAP	31	288	1
STR	31	288	6
SI_	31	288	6	96	48	1
HLD	32	0	2	768
TTP	32	96	3	E	0	M1
TTP	32	144	2	E	0	M1
TTP	32	192	4	E	0	M1
TTP	32	240	1	E	0	M1
TTP	32	288	0	C	0	M1
TTP	33	0	6	B	0	M1
TTP	33	0	7	E	0	M1
TTP	33	96	3	B	0	M1
TTP	33	96	3	E	0	M1
TTP	33	192	6	B	0	M1
TTP	33	192	7	E	0	M1
TTP	33	288	3	B	0	M1
TTP	33	288	3	E	0	M1
XHO	34	0	5	768
TTP	34	96	5	E	0	M1
TTP	34	144	6	E	0	M1
TTP	34	192	4	E	0	M1
TTP	34	240	7	E	0	M1
TTP	34	288	3	E	0	M1
TTP	34	336	0	E	0	M1
TTP	35	0	2	E	0	M1
TTP	35	48	1	E	0	M1
TTP	35	96	3	E	0	M1
TTP	35	144	0	E	0	M1
TTP	35	192	4	E	0	M1
TTP	35	240	7	E	0	M1
TTP	35	288	5	E	0	M1
TTP	35	336	6	E	0	M1
XHO	36	0	2	432
TTP	36	96	3	E	0	M1
TTP	36	144	2	E	0	M1
TTP	36	192	4	E	0	M1
TTP	36	240	1	E	0	M1
TTP	36	288	5	E	0	M1
TTP	36	336	0	E	0	M1
HLD	37	0	6	48
HLD	37	96	1	48
HLD	37	96	5	48
HLD	37	192	0	48
HLD	37	192	4	48
XST	37	288	3
SUR	37	288	3	96	192	1
XST	37	288	7
SUR	37	288	7	96	192	5
TAP	38	288	2
TAP	38	312	3
TAP	38	336	2
HLD	38	360	3	72
TAP	39	48	1
TAP	39	96	5
TAP	39	120	4
TAP	39	144	5
HLD	39	168	4	72
TAP	39	240	6
TTP	40	0	1	B	0	M1
TTP	40	0	2	E	0	M1
TTP	40	72	4	B	0	M1
TTP	40	72	4	E	0	M1
TTP	40	144	0	B	0	M1
TTP	40	144	0	E	0	M1
TTP	40	216	5	B	0	M1
TTP	40	216	6	E	0	M1
STR	40	288	6
SCL	40	288	6	96	192	1
TAP	40	312	7
TAP	40	336	6
TAP	40	360	7
TAP	41	288	3
TAP	41	288	4
TAP	42	0	5
TAP	42	48	4
TTP	42	96	7	E	0	M1
TAP	42	144	4
TAP	42	192	5
TAP	42	240	4
TTP	42	288	6	E	0	M1
TAP	43	0	2
TAP	43	48	3
TTP	43	96	1	E	0	M1
TAP	43	144	3
TAP	43	192	2
TAP	43	240	3
TTP	43	288	2	E	0	M1
TTP	44	0	6	B	0	M1
TTP	44	0	6	E	0	M1
TTP	44	72	3	B	0	M1
TTP	44	72	4	E	0	M1
TTP	44	144	0	E	0	M1
TTP	44	144	7	B	0	M1
TTP	44	216	2	B	0	M1
TTP	44	216	2	E	0	M1
STR	44	288	1
SCR	44	288	1	96	192	6
TAP	44	312	0
TAP	44	336	1
TAP	44	360	0
TAP	45	288	3
TAP	45	288	4
HLD	46	0	2	48
TAP	46	0	3
TAP	46	96	3
HLD	46	96	4	48
TAP	46	192	2
HLD	46	192	3	48
XTP	46	288	1
XTP	46	288	2
TAP	47	0	4
HLD	47	0	5	48
HLD	47	96	3	48
TAP	47	96	4
HLD	47	192	4	48
TAP	47	192	5
XTP	47	288	5
XTP	47	288	6
TAP	48	0	2
TAP	48	0	3
TAP	48	48	3
TAP	48	96	4
TAP	48	96	5
TAP	48	144	4
TAP	48	192	1
TAP	48	192	3
TAP	48	240	3
TAP	48	288	4
TAP	48	288	6
TAP	48	336	4
TAP	49	0	2
HLD	49	0	3	96
HLD	49	96	4	96
TAP	49	192	5
STR	49	288	2
SCR	49	288	2	96	48	5
STR	49	288	6
SCR	49	288	6	96	48	1
BRK	50	288	0
TTP	51	0	0	C	0	M1
TTP	51	96	2	E	0	M1
TTP	51	96	6	E	0	M1
TTP	51	192	0	C	0	M1
TTP	51	192	0	E	0	M1
TTP	51	192	4	E	0	M1
TAP	51	240	2
TAP	51	240	5
TAP	51	288	1
TAP	51	288	6
TAP	51	336	0
TAP	51	360	7
BRK	52	0	0
TAP	52	96	2
TAP	52	96	3
TAP	52	144	7
TAP	52	192	4
TAP	52	192	5
TAP	52	240	0
TAP	52	288	2
TAP	52	288	3
TAP	52	336	0
TAP	52	336	7
TAP	53	0	4
TAP	53	0	6
TAP	53	48	0
TAP	53	96	1
TAP	53	96	3
TAP	53	144	7
TAP	53	192	4
TAP	53	192	6
TAP	53	240	0
STR	53	288	1
SI_	53	288	1	96	48	5
TAP	53	288	3
TAP	53	336	5
XST	54	0	7
SSR	54	0	7	96	72	3
BRK	54	288	0
TAP	54	336	2
TAP	54	336	6
TAP	55	0	2
TAP	55	0	6
TAP	55	96	4
TAP	55	96	5
TAP	55	144	0
TAP	55	192	2
TAP	55	192	3
TAP	55	240	7
TAP	55	288	4
STR	55	288	5
SI_	55	288	5	96	48	2
TAP	55	336	0
TAP	56	0	0
TAP	56	96	1
TAP	56	96	3
TAP	56	144	7
TAP	56	192	4
TAP	56	192	6
TAP	56	240	0
TAP	56	288	1
TAP	56	288	3
TAP	56	336	7
STR	57	0	6
SCL	57	0	6	96	48	3
TAP	57	48	6
STR	57	96	1
SUR	57	96	1	96	48	5
TAP	57	144	1
STR	57	192	7
SI_	57	192	7	96	48	3
TAP	57	240	7
BRK	57	288	0
XHO	58	0	2	48
TTP	58	0	4	E	0	M1
HLD	58	96	2	48
HLD	58	96	3	48
TTP	58	192	0	C	0	M1
XHO	58	192	2	48
HLD	58	288	1	48
HLD	58	288	3	48
TTP	59	0	4	E	0	M1
XHO	59	0	5	48
HLD	59	96	4	48
HLD	59	96	5	48
TTP	59	192	0	C	0	M1
XHO	59	192	5	48
HLD	59	288	4	48
HLD	59	288	6	48
XHO	60	0	2	48
TTP	60	0	4	E	0	M1
TTP	60	96	0	C	0	M1
XHO	60	96	5	48
TTP	60	192	0	E	0	M1
XHO	60	192	1	48
TTP	60	288	0	C	0	M1
XHO	60	288	6	48
XTP	61	0	0
XTP	61	0	4
TAP	61	48	1
TAP	61	72	7
TAP	61	96	2
TAP	61	120	6
TAP	61	144	3
TAP	61	168	5
STR	61	192	4
SF_	61	192	4	96	32	0
BRK	61	360	2
BRK	61	360	6

T_REC_TAP	228
T_REC_BRK	7
T_REC_XTP	26
T_REC_HLD	73
T_REC_XHO	11
T_REC_STR	21
T_REC_BST	0
T_REC_XST	10
T_REC_TTP	77
T_REC_THO	0
T_REC_SLD	31
T_REC_ALL	484
T_NUM_TAP	362
T_NUM_BRK	7
T_NUM_HLD	84
T_NUM_SLD	31
T_NUM_ALL	484
T_JUDGE_TAP	369
T_JUDGE_HLD	142
T_JUDGE_SLD	31
T_JUDGE_ALL	542
TTM_EACHPAIRS	109
TTM_SCR_TAP	181000
TTM_SCR_BRK	18200
TTM_SCR_HLD	84000
TTM_SCR_SLD	46500
TTM_SCR_ALL	329700
TTM_SCR_S	319150
TTM_SCR_SS	329000
TTM_RAT_ACV	10021

