VERSION	0.00.00	1.03.00
FES_MODE	0
BPM_DEF	128.000	128.000	128.000	128.000
MET_DEF	4	4
RESOLUTION	384
CLK_DEF	384
COMPATIBLE_CODE	MA2

BPM	0	0	128.000
MET	0	0	4	4

TAP	2	0	2
TAP	2	48	2
TAP	2	96	2
HLD	2	192	3	96
HLD	2	192	4	96
TAP	3	0	5
TAP	3	48	5
TAP	3	96	5
TAP	3	192	4
TAP	3	192	6
TAP	3	288	3
TAP	3	288	5
TAP	4	0	2
TAP	4	48	2
TAP	4	96	2
TAP	4	192	1
TAP	4	192	3
TAP	4	288	2
TAP	4	288	4
TAP	5	0	5
TAP	5	48	5
TAP	5	96	5
TAP	5	192	6
TAP	5	240	6
TAP	5	288	6
TAP	6	0	0
TAP	6	0	7
BRK	6	96	1
BRK	6	96	6
HLD	6	192	2	96
HLD	6	192	5	96
TTP	7	0	4	E	0	L1
TTP	7	96	3	E	0	L1
TTP	7	192	2	E	0	L1
TTP	7	288	1	E	0	L1
TTP	8	0	0	E	0	L1
TTP	8	96	7	E	0	L1
TTP	8	192	6	E	0	L1
TTP	8	288	5	E	0	L1
THO	9	0	0	192	C	0	L1
XST	10	0	7
SCL	10	0	7	96	192	2
XST	11	0	0
SCR	11	0	0	96	192	5
XST	12	0	7
SLL	12	0	7	96	192	2
XST	13	0	0
SLR	13	0	0	96	192	5
HLD	14	0	6	96
HLD	14	96	7	96
HLD	14	192	0	96
XTP	14	288	1
HLD	15	0	2	96
HLD	15	96	3	96
HLD	15	192	4	96
XTP	15	288	5
TAP	16	0	4
TAP	16	0	5
TAP	16	96	6
TAP	16	96	7
TAP	16	192	0
TAP	16	192	7
TAP	16	240	0
TAP	16	240	7
TAP	16	288	0
TAP	16	288	7
STR	16	336	0
SXL	16	336	0	96	240	3
STR	16	336	7
SXR	16	336	7	96	240	4
XTP	18	0	2
XTP	18	0	5
TAP	18	96	2
TAP	18	96	5
TAP	18	192	6
TAP	18	240	6
TAP	18	288	6
TAP	19	0	0
TAP	19	0	7
TAP	19	96	1
TAP	19	192	2
TAP	19	240	2
TAP	19	288	2
BRK	20	0	1
BRK	20	0	3
TAP	20	96	0
TAP	20	192	7
TAP	20	240	7
TAP	20	288	7
TAP	21	0	4
TAP	21	0	6
TAP	21	96	5
TAP	21	192	3
TAP	21	192	4
TAP	21	240	3
TAP	21	240	4
TAP	21	288	3
TAP	21	288	4
TAP	22	0	2
TAP	22	0	5
TAP	22	96	2
TAP	22	96	5
TAP	22	192	1
TAP	22	240	1
TAP	22	288	1
TAP	23	0	0
TAP	23	0	7
TAP	23	96	6
TAP	23	192	5
TAP	23	240	5
TAP	23	288	5
BRK	24	0	4
BRK	24	0	6
TAP	24	96	7
TAP	24	192	0
TAP	24	240	0
TAP	24	288	0
HLD	25	0	1	96
HLD	25	0	7	96
TAP	25	192	2
TAP	25	192	6
TAP	25	240	2
TAP	25	240	6
TAP	25	288	2
TAP	25	288	6
HLD	26	0	5	192
TAP	26	192	4
BRK	26	288	3
BRK	26	288	6
HLD	27	0	2	192
TAP	27	192	3
BRK	27	288	1
BRK	27	288	4
HLD	28	0	5	192
TAP	28	192	4
BRK	28	288	3
BST	28	288	6
SCL	28	288	6	96	192	1
TTP	30	0	0	C	1	L1
TAP	31	96	0
TAP	31	96	7
TAP	31	144	0
TAP	31	144	7
TAP	31	192	0
TAP	31	192	7
TAP	31	288	1
TAP	31	288	6
BRK	32	0	0
BRK	32	0	7
HLD	32	96	6	96
TAP	32	192	7
TAP	32	288	0
TAP	32	288	7
HLD	33	0	1	96
HLD	33	96	0	96
HLD	33	192	7	96
TAP	33	288	6
BRK	34	0	0
BRK	34	0	7
TTP	34	192	6	E	0	L1
TTP	34	288	5	B	0	L1
TTP	35	0	4	B	0	L1
TTP	35	96	3	B	0	L1
TTP	35	192	2	B	0	L1
TTP	35	288	1	B	0	L1
TTP	36	0	0	C	1	L1
TTP	36	192	2	E	0	L1
TTP	36	288	2	B	0	L1
TTP	37	0	3	B	0	L1
TTP	37	96	4	B	0	L1
TTP	37	192	5	B	0	L1
TTP	37	288	6	E	0	L1
TTP	38	0	0	C	1	L1
TTP	38	0	1	B	0	L1
TTP	38	0	6	B	0	L1
XST	39	0	7
SCL	39	0	7	96	144	4
STR	40	0	3
SCL	40	0	3	96	144	0
TAP	41	0	6
TAP	41	96	5
TAP	41	192	3
TAP	41	192	4
HLD	42	0	2	672
XTP	42	96	3
XTP	42	288	3
XTP	43	96	3
XTP	43	288	4
HLD	44	0	5	480
XTP	44	96	4
XTP	44	288	4
XTP	45	96	4
TAP	45	192	4
TAP	45	192	5
TAP	45	288	3
TAP	45	288	4
TAP	46	0	3
TAP	46	96	2
TAP	46	192	1
BRK	46	288	0
TAP	47	0	7
TAP	47	96	6
TAP	47	192	5
BRK	47	288	4
TAP	48	0	3
TAP	48	0	4
TAP	48	48	3
TAP	48	48	4
TAP	48	96	3
TAP	48	96	4
TAP	48	192	2
TAP	48	192	5
TAP	48	240	2
TAP	48	240	5
TAP	48	288	2
TAP	48	288	5
BST	49	0	1
SI_	49	0	1	96	144	4
BST	49	0	6
SI_	49	0	6	96	144	3
HLD	50	0	2	288
HLD	50	0	5	288
XTP	51	0	0
XTP	51	96	1
XTP	51	192	2
TAP	51	240	2
TAP	51	288	2
TAP	51	288	4
BRK	52	0	0
BRK	52	0	1
TAP	52	96	2
TAP	52	96	7
TAP	52	192	3
TAP	52	240	3
TAP	52	288	3
TAP	52	288	4
TAP	53	0	5
TAP	53	96	4
TAP	53	96	6
TAP	53	192	7
TAP	53	240	7
TAP	53	288	0
TAP	53	288	7
STR	54	0	1
SI_	54	0	1	96	96	5
STR	54	0	6
SI_	54	0	6	96	96	2
BRK	54	288	0
BRK	54	288	7
TAP	55	0	0
TAP	55	0	7
TAP	55	96	0
TAP	55	96	7
TAP	55	192	6
TAP	55	240	6
TAP	55	288	6
TAP	55	288	7
TAP	56	0	4
TAP	56	0	5
TAP	56	96	3
TAP	56	96	6
TAP	56	192	2
TAP	56	240	2
TAP	56	288	2
TAP	56	288	3
TAP	57	0	0
TAP	57	0	1
TAP	57	96	2
TAP	57	96	7
TAP	57	192	6
TAP	57	240	6
TAP	57	288	0
TAP	57	288	7
HLD	58	0	1	96
HLD	58	96	0	96
HLD	58	192	7	96
TAP	58	288	6
HLD	59	0	5	96
HLD	59	96	4	96
HLD	59	192	3	96
TAP	59	288	2
TAP	60	0	1
TAP	60	48	1
TAP	60	96	0
TAP	60	96	1
TAP	60	192	6
TAP	60	240	6
TAP	60	288	6
TAP	60	288	7
HLD	61	0	4	48
HLD	61	0	5	48
HLD	61	96	2	48
HLD	61	96	3	48
TAP	61	192	1
TAP	61	192	4
HLD	61	288	0	72
HLD	61	288	7	72

T_REC_TAP	175
T_REC_BRK	21
T_REC_XTP	14
T_REC_HLD	35
T_REC_XHO	0
T_REC_STR	5
T_REC_BST	3
T_REC_XST	5
T_REC_TTP	25
T_REC_THO	1
T_REC_SLD	13
T_REC_ALL	297
T_NUM_TAP	224
T_NUM_BRK	24
T_NUM_HLD	36
T_NUM_SLD	13
T_NUM_ALL	297
T_JUDGE_TAP	248
T_JUDGE_HLD	104
T_JUDGE_SLD	13
T_JUDGE_ALL	365
TTM_EACHPAIRS	74
TTM_SCR_TAP	112000
TTM_SCR_BRK	62400
TTM_SCR_HLD	36000
TTM_SCR_SLD	19500
TTM_SCR_ALL	229900
TTM_SCR_S	220700
TTM_SCR_SS	227500
TTM_RAT_ACV	10105

