VERSION	0.00.00	1.03.00
FES_MODE	0
BPM_DEF	128.000	128.000	128.000	128.000
MET_DEF	4	4
RESOLUTION	384
CLK_DEF	384
COMPATIBLE_CODE	MA2

BPM	0	0	128.000
MET	0	0	4	4

XST	2	0	0
SI_	2	0	0	96	288	3
STR	4	0	4
SI_	4	0	4	96	288	7
TAP	6	96	0
BRK	6	288	1
TAP	7	96	2
TAP	7	288	3
TAP	8	96	4
TAP	8	288	5
TAP	9	96	6
TAP	9	288	0
TAP	9	288	7
XHO	10	0	0	192
XHO	10	0	7	192
XHO	11	0	0	192
XHO	11	0	1	192
XHO	12	0	6	192
XHO	12	0	7	192
XHO	13	0	0	192
XHO	13	0	7	192
TAP	14	0	6
TAP	14	192	5
TAP	15	0	4
TAP	15	192	3
TAP	16	0	2
TAP	16	192	1
BRK	17	0	0
BRK	17	0	7
TAP	18	0	1
TAP	18	96	1
TAP	18	192	1
TAP	19	0	2
TAP	19	96	2
TAP	19	192	2
TAP	20	0	3
TAP	20	96	3
TAP	20	192	3
TAP	21	0	4
TAP	21	0	5
TAP	21	192	4
TAP	21	192	5
TAP	22	0	6
TAP	22	96	6
TAP	22	192	6
TAP	23	0	7
TAP	23	96	7
TAP	23	192	7
TAP	24	0	0
TAP	24	96	0
TAP	24	192	0
TAP	25	0	0
TAP	25	0	7
TAP	26	0	1
TAP	26	192	0
TAP	26	192	1
TAP	27	0	2
TAP	27	192	2
TAP	27	192	3
TAP	28	0	5
TAP	28	192	4
TAP	28	192	5
BRK	29	0	6
THO	30	0	0	384	C	0	L1
HLD	32	0	7	192
TAP	33	0	6
TAP	33	0	7
TAP	33	192	6
TAP	33	192	7
HLD	34	0	5	192
TAP	35	0	3
TAP	35	0	4
TAP	35	192	3
TAP	35	192	4
HLD	36	0	2	192
TAP	37	0	0
TAP	37	0	1
TAP	37	192	0
TAP	37	192	1
XST	38	0	7
SI_	38	0	7	96	288	3
STR	40	0	2
SI_	40	0	2	96	288	6
STR	42	0	7
SI_	42	0	7	96	288	2
STR	44	0	2
SI_	44	0	2	96	288	5
TAP	46	0	6
TAP	46	0	7
TAP	46	192	4
TAP	46	192	5
TAP	47	0	2
TAP	47	0	3
TAP	47	192	0
TAP	47	192	1
TAP	48	0	7
TAP	48	96	7
TAP	48	192	0
TAP	48	288	0
BRK	49	0	0
BRK	49	0	7
XHO	50	0	1	384
XHO	50	0	6	384
XTP	51	192	1
XTP	51	192	6
TAP	52	0	0
TAP	52	96	0
TAP	52	192	1
TAP	52	288	1
TAP	53	0	2
TAP	53	192	2
TAP	53	192	3
HLD	54	0	3	168
HLD	54	0	4	168
TAP	55	0	4
TAP	55	96	4
TAP	55	192	5
TAP	55	288	5
TAP	56	0	6
TAP	56	96	6
TAP	56	192	6
TAP	56	192	7
TAP	57	0	0
TAP	57	96	0
TAP	57	192	7
TAP	57	288	7
TAP	58	0	0
TAP	58	0	7
TAP	58	192	1
TAP	58	192	6
TAP	59	0	2
TAP	59	0	5
TAP	59	192	3
TAP	59	192	4
TAP	60	0	4
TAP	60	96	4
TAP	60	192	3
TAP	60	288	3
TAP	61	0	2
TAP	61	0	5
TAP	61	96	2
TAP	61	96	5
TAP	61	192	1
TAP	61	192	6
HLD	61	288	1	72
HLD	61	288	6	72

T_REC_TAP	108
T_REC_BRK	6
T_REC_XTP	2
T_REC_HLD	7
T_REC_XHO	10
T_REC_STR	4
T_REC_BST	0
T_REC_XST	2
T_REC_TTP	0
T_REC_THO	1
T_REC_SLD	6
T_REC_ALL	146
T_NUM_TAP	116
T_NUM_BRK	6
T_NUM_HLD	18
T_NUM_SLD	6
T_NUM_ALL	146
T_JUDGE_TAP	122
T_JUDGE_HLD	80
T_JUDGE_SLD	6
T_JUDGE_ALL	208
TTM_EACHPAIRS	36
TTM_SCR_TAP	58000
TTM_SCR_BRK	15600
TTM_SCR_HLD	18000
TTM_SCR_SLD	9000
TTM_SCR_ALL	100600
TTM_SCR_S	97000
TTM_SCR_SS	100000
TTM_RAT_ACV	10060

