VERSION	0.00.00	1.03.00
FES_MODE	0
BPM_DEF	172.000	172.000	172.000	172.000
MET_DEF	4	4
RESOLUTION	384
CLK_DEF	384
COMPATIBLE_CODE	MA2

BPM	0	0	172.000
MET	0	0	4	4

TTP	1	0	0	C	1	M1
XHO	1	0	0	720
HLD	3	0	0	336
HLD	3	0	6	336
THO	4	0	0	192	C	0	M1
HLD	4	0	5	336
HLD	5	0	1	288
HLD	5	0	4	288
TAP	5	336	2
TAP	5	336	3
HLD	6	0	3	288
HLD	6	0	4	288
TAP	6	336	3
TAP	6	336	4
HLD	7	0	4	288
HLD	7	0	5	288
TAP	7	336	4
TAP	7	336	5
TAP	8	0	3
HLD	8	0	6	192
THO	8	192	0	192	C	1	M1
TAP	9	0	7
TAP	9	96	7
TAP	9	192	7
TAP	9	288	7
TTP	10	0	0	B	0	M1
TTP	10	0	1	B	0	M1
TAP	10	0	6
TAP	10	96	6
TAP	10	192	6
TAP	10	288	6
TTP	11	0	2	B	0	M1
TTP	11	0	3	B	0	M1
TAP	11	0	5
TAP	11	96	5
TAP	11	192	5
TAP	11	288	5
THO	12	0	0	192	C	0	M1
TTP	12	0	1	B	0	M1
TTP	12	0	2	B	0	M1
TAP	12	0	4
TAP	12	96	4
TAP	12	192	4
TAP	12	288	4
HLD	13	0	3	48
STR	13	0	5
SCR	13	0	5	96	96	0
HLD	13	96	3	48
HLD	13	192	3	48
HLD	13	288	3	48
STR	14	0	0
SI_	14	0	0	96	96	3
HLD	14	0	2	48
HLD	14	96	2	48
HLD	14	192	2	48
HLD	14	288	2	48
HLD	15	0	1	24
STR	15	0	3
SI_	15	0	3	96	96	7
HLD	15	48	1	24
HLD	15	96	1	24
HLD	15	144	1	24
HLD	15	192	1	24
HLD	15	240	1	24
HLD	15	288	1	24
HLD	15	336	1	24
HLD	16	0	0	24
HLD	16	0	7	12
HLD	16	48	0	24
HLD	16	48	7	12
HLD	16	96	0	24
HLD	16	96	7	12
HLD	16	144	0	24
HLD	16	144	7	12
HLD	16	192	0	24
HLD	16	192	7	12
HLD	16	240	0	24
HLD	16	240	7	12
STR	16	288	0
SI_	16	288	0	96	48	4
HLD	16	288	7	12
HLD	16	336	0	24
HLD	16	336	7	12
BRK	17	0	0
TAP	17	0	7
TAP	17	96	5
TAP	17	144	5
TAP	17	192	4
TAP	17	240	3
TAP	17	288	2
TAP	17	336	2
TTP	18	0	2	B	0	M1
TAP	18	0	5
TAP	18	48	5
TAP	18	96	4
TAP	18	144	3
TAP	18	192	2
TAP	18	240	2
TAP	18	288	3
TAP	18	336	4
TTP	19	0	3	B	0	M1
TAP	19	0	5
TAP	19	48	5
TAP	19	96	4
TAP	19	144	3
TAP	19	192	2
TAP	19	240	1
TAP	19	288	3
TAP	19	336	4
TTP	20	0	4	B	0	M1
TAP	20	0	5
TAP	20	48	6
TAP	20	96	3
TAP	20	144	2
TAP	20	192	1
TAP	20	240	0
TAP	20	288	7
TAP	20	336	6
TTP	21	0	2	B	0	M1
TAP	21	0	5
TAP	21	48	4
TAP	21	96	3
TAP	21	144	2
TAP	21	192	1
TAP	21	192	6
TAP	21	240	5
TAP	21	288	3
TAP	21	336	2
TTP	22	0	0	B	0	M1
TAP	22	0	7
TAP	22	48	6
TAP	22	96	4
TAP	22	144	3
TAP	22	192	2
TAP	22	192	5
TAP	22	240	1
TAP	22	288	0
TAP	22	336	7
TAP	23	0	0
TTP	23	0	6	B	0	M1
TAP	23	48	1
TAP	23	96	2
TAP	23	144	3
TAP	23	192	1
TAP	23	192	4
TAP	23	240	5
TAP	23	288	6
TAP	23	336	7
TAP	24	0	0
TTP	24	0	4	B	0	M1
TAP	24	48	1
TAP	24	96	2
TAP	24	144	3
THO	24	192	0	96	C	0	M1
TAP	24	192	4
TAP	24	240	5
BST	24	288	6
SI_	24	288	6	96	48	2
HLD	25	0	0	192
TTP	25	192	4	E	0	M1
TTP	25	216	4	B	0	M1
TTP	25	240	5	B	0	M1
TTP	25	264	6	E	0	M1
TTP	25	288	2	E	0	M1
TTP	25	312	2	B	0	M1
TTP	25	336	3	B	0	M1
TTP	25	360	4	E	0	M1
HLD	26	0	6	336
TAP	26	192	0
TAP	26	240	0
TAP	26	288	0
TAP	26	336	0
BRK	27	0	1
TAP	27	48	2
TAP	27	96	3
HLD	27	96	5	48
TAP	27	144	4
HLD	27	192	3	48
TAP	27	192	5
TAP	27	240	4
HLD	27	288	1	48
TAP	27	288	3
TAP	27	336	2
TAP	28	0	1
HLD	28	0	3	48
TAP	28	48	2
TAP	28	96	3
HLD	28	96	5	48
TAP	28	144	4
HLD	28	192	1	48
TAP	28	192	3
TAP	28	240	2
STR	28	288	0
SI_	28	288	0	96	48	4
TAP	28	288	7
TAP	28	336	6
STR	29	0	5
SCL	29	0	5	96	48	3
HLD	29	96	2	96
TTP	29	192	4	E	0	M1
TTP	29	216	5	E	0	M1
TTP	29	240	6	E	0	M1
TTP	29	264	7	E	0	M1
TTP	29	288	1	E	0	M1
TTP	29	312	2	E	0	M1
TTP	29	336	3	E	0	M1
TTP	29	360	4	E	0	M1
TAP	30	0	7
STR	30	96	4
SI_	30	96	4	96	48	0
TAP	30	96	7
TAP	30	192	7
TAP	30	288	1
TAP	30	288	6
TAP	30	336	5
TAP	31	0	2
STR	31	0	4
SI_	31	0	4	96	48	6
TAP	31	96	2
TAP	31	192	0
STR	31	192	7
SI_	31	192	7	96	48	3
TAP	31	288	1
STR	32	0	2
SI_	32	0	2	96	48	0
TAP	32	0	4
TAP	32	96	4
TAP	32	192	5
STR	32	192	7
SI_	32	192	7	96	48	3
TAP	32	288	5
XHO	33	0	3	960
XTP	33	0	6
TAP	33	96	6
TAP	33	192	0
TAP	33	288	1
TAP	34	0	6
TAP	34	96	6
TAP	34	192	1
TAP	34	288	2
TAP	34	336	2
TAP	35	0	2
TAP	35	96	4
TAP	35	192	5
TAP	35	288	3
TAP	35	336	3
TAP	36	0	4
TAP	36	48	4
TAP	36	96	3
TAP	36	144	3
TAP	36	192	4
TAP	36	240	3
STR	36	288	2
SCL	36	288	2	96	96	6
TAP	36	288	5
BST	37	0	6
SCR	37	0	6	96	96	2
TAP	37	96	4
STR	37	192	6
SCL	37	192	6	96	96	2
TAP	37	288	2
TAP	38	0	0
TAP	38	48	0
TAP	38	96	1
TAP	38	96	3
TAP	38	144	2
TAP	38	192	7
TAP	38	240	7
TAP	38	288	0
TAP	38	288	6
TAP	39	0	3
TAP	39	24	5
TAP	39	48	3
TAP	39	72	5
TAP	39	96	1
TAP	39	120	5
TAP	39	144	2
TAP	39	168	5
TAP	39	192	3
TAP	39	216	5
TAP	39	240	4
TAP	39	264	5
TAP	39	288	4
TAP	39	312	5
TAP	39	336	2
TAP	39	360	5
TAP	40	0	3
TAP	40	24	5
TAP	40	48	4
TAP	40	72	5
TAP	40	96	4
TAP	40	120	5
TAP	40	144	3
TAP	40	168	5
TAP	40	192	2
TAP	40	216	5
TAP	40	240	1
TAP	40	264	5
TAP	40	288	0
TAP	40	312	5
TAP	40	336	1
TAP	40	360	5
BST	41	0	2
SCR	41	0	2	96	96	6
STR	41	96	6
SCL	41	96	6	96	96	2
TAP	41	192	0
TAP	41	288	7
TAP	42	0	4
TAP	42	48	4
TAP	42	96	0
TAP	42	96	5
TAP	42	144	6
TAP	42	192	7
TAP	42	240	0
TAP	42	288	1
TAP	42	288	7
TAP	43	0	4
TAP	43	24	2
TAP	43	48	4
TAP	43	72	2
TAP	43	96	3
TAP	43	120	2
TAP	43	144	4
TAP	43	168	2
TAP	43	192	5
TAP	43	216	2
TAP	43	240	6
TAP	43	264	2
TAP	43	288	7
TAP	43	312	2
TAP	43	336	6
TAP	43	360	2
TAP	44	0	1
TAP	44	0	4
TAP	44	48	6
TAP	44	72	7
TAP	44	96	6
TAP	44	144	0
TAP	44	144	5
TAP	44	192	2
TAP	44	216	3
TAP	44	240	2
STR	44	288	3
SI_	44	288	3	96	48	0
STR	44	288	4
SI_	44	288	4	96	48	7
TAP	44	336	2
TAP	44	336	5
TTP	45	12	1	B	0	M1
TTP	45	12	1	E	0	M1
TTP	45	12	2	B	0	M1
TTP	45	12	3	E	0	M1
TTP	45	12	5	B	0	M1
TTP	45	12	5	E	0	M1
TTP	45	12	6	B	0	M1
TTP	45	12	7	E	0	M1
TTP	45	18	0	C	1	M1
THO	48	0	0	192	C	0	M1
TTP	48	0	5	B	0	M1
TTP	48	0	6	B	0	M1
HLD	48	192	7	384
HLD	49	0	5	576
HLD	50	0	3	576
HLD	51	0	1	576
THO	52	0	0	384	C	1	M1
TAP	53	0	0
TAP	53	48	0
TAP	53	96	0
TAP	53	144	0
TAP	53	192	0
TAP	53	240	0
TAP	53	288	0
TAP	53	336	0
TAP	54	0	1
TTP	54	0	2	B	0	M1
TAP	54	48	1
TAP	54	96	1
TAP	54	144	1
TAP	54	192	1
TAP	54	240	1
TAP	54	288	1
TAP	54	336	1
TAP	55	0	2
TTP	55	0	4	B	0	M1
TAP	55	48	2
TAP	55	96	2
TAP	55	144	2
TAP	55	192	2
TAP	55	240	2
TAP	55	288	2
TAP	55	336	2
TAP	56	0	3
TTP	56	0	6	B	0	M1
TAP	56	48	3
TAP	56	96	3
TAP	56	144	3
TAP	56	192	3
TAP	56	240	3
TAP	56	288	3
TAP	56	336	3
TAP	57	0	4
TTP	57	0	7	B	0	M1
TAP	57	48	4
TAP	57	96	4
TAP	57	144	4
TTP	57	192	0	B	0	M1
TAP	57	192	4
TAP	57	240	4
TAP	57	288	4
TAP	57	336	4
TTP	58	0	1	B	0	M1
TAP	58	0	5
TAP	58	48	5
TAP	58	96	5
TAP	58	144	5
TTP	58	192	2	B	0	M1
TAP	58	192	5
TAP	58	240	5
TAP	58	288	5
TAP	58	336	5
TTP	59	0	4	E	0	M1
TAP	59	0	6
TAP	59	48	6
TAP	59	96	6
TAP	59	144	6
TTP	59	192	0	E	0	M1
TAP	59	192	6
TAP	59	240	6
TAP	59	288	6
TAP	59	336	6
THO	60	0	0	288	C	0	M1
TAP	60	0	7
TAP	60	48	7
TAP	60	96	7
TAP	60	144	7
TAP	60	192	7
TAP	60	240	7
BST	60	288	7
SF_	60	288	7	96	96	3
XTP	61	192	2
XHO	61	192	4	96
TAP	61	288	0
TAP	61	312	1
TAP	61	336	4
TAP	61	360	5
TAP	62	0	1
TAP	62	24	2
TAP	62	48	4
TAP	62	72	5
TAP	62	96	2
TAP	62	120	3
TAP	62	144	5
TAP	62	168	6
TAP	62	192	3
TAP	62	216	4
TAP	62	240	6
TAP	62	264	7
BRK	62	288	5
TTP	63	0	7	E	0	M1
TTP	63	24	6	B	0	M1
TTP	63	48	4	B	0	M1
TTP	63	72	4	E	0	M1
TTP	63	96	6	E	0	M1
TTP	63	120	5	B	0	M1
TTP	63	144	3	B	0	M1
TTP	63	168	3	E	0	M1
TTP	63	192	5	E	0	M1
TTP	63	216	4	B	0	M1
TTP	63	240	2	B	0	M1
TTP	63	264	2	E	0	M1
TAP	63	288	7
TAP	63	312	6
TAP	63	336	0
TAP	63	360	1
TAP	64	0	6
TAP	64	24	5
TAP	64	48	1
TAP	64	72	2
THO	64	96	0	96	C	0	M1
STR	64	192	7
SCR	64	192	7	96	48	2
STR	64	288	5
SXL	64	288	5	96	192	5
TTP	65	0	0	C	1	M1
HLD	65	192	3	96
TAP	65	288	4
TAP	65	312	5
TAP	65	336	1
TAP	65	360	2
TAP	66	0	5
TAP	66	24	6
TAP	66	48	1
TAP	66	72	2
TAP	66	96	6
TAP	66	120	7
TAP	66	144	2
TAP	66	168	3
TAP	66	192	5
TAP	66	216	6
TAP	66	240	1
TAP	66	264	2
TAP	66	288	4
TAP	66	312	5
TAP	66	336	0
TAP	66	360	1
TTP	67	0	5	B	0	M1
TTP	67	24	6	E	0	M1
TTP	67	48	2	E	0	M1
TTP	67	72	2	B	0	M1
TTP	67	96	7	E	0	M1
TTP	67	120	6	B	0	M1
TTP	67	144	1	E	0	M1
TTP	67	168	1	B	0	M1
TTP	67	192	4	B	0	M1
TTP	67	216	5	E	0	M1
TTP	67	240	3	E	0	M1
TTP	67	264	3	B	0	M1
TAP	67	288	7
TAP	67	312	6
TAP	67	336	0
TAP	67	360	1
TAP	68	0	6
TAP	68	24	5
TAP	68	48	1
TAP	68	72	2
TAP	68	96	3
STR	68	96	4
SXL	68	96	4	96	192	4
TTP	68	192	0	C	1	M1
HLD	69	0	3	192
BRK	69	192	7
TAP	69	288	6
TAP	69	312	3
TAP	69	336	6
TAP	69	360	4
TAP	70	0	6
TAP	70	24	2
TAP	70	48	6
TAP	70	72	4
TAP	70	96	6
TAP	70	120	0
TAP	70	144	6
TAP	70	168	4
TAP	70	192	6
TAP	70	216	2
TAP	70	240	6
TAP	70	264	4
TAP	70	288	6
TAP	70	336	3
TAP	70	336	5
TAP	71	0	2
TAP	71	24	4
TAP	71	48	2
TAP	71	72	3
TAP	71	96	2
TAP	71	120	5
TAP	71	144	2
TAP	71	168	3
TAP	71	192	2
TAP	71	216	7
TAP	71	240	2
TAP	71	264	3
TAP	71	288	1
TAP	71	312	5
TAP	71	336	1
TAP	71	360	3
TAP	72	0	1
TAP	72	24	4
TAP	72	48	1
TAP	72	72	3
THO	72	96	0	96	C	0	M1
STR	72	192	0
SCL	72	192	0	96	48	5
STR	72	288	1
SXL	72	288	1	96	192	1
TTP	73	0	0	C	1	M1
BST	73	192	7
SI_	73	192	7	96	48	4
STR	73	288	3
SI_	73	288	3	96	48	7
TAP	73	288	7
TAP	74	0	3
STR	74	0	6
SI_	74	0	6	96	48	3
STR	74	96	2
SI_	74	96	2	96	48	6
TAP	74	96	6
TAP	74	192	2
STR	74	192	5
SI_	74	192	5	96	48	2
HLD	74	288	1	96
TAP	74	288	5
TTP	75	0	1	E	0	M1
TTP	75	48	2	E	0	M1
TTP	75	96	3	E	0	M1
TTP	75	144	4	E	0	M1
TAP	75	192	0
TTP	75	192	5	E	0	M1
TTP	75	240	6	E	0	M1
TAP	75	288	1
TAP	75	336	1
TTP	76	0	1	E	0	M1
TAP	76	0	7
TTP	76	48	2	E	0	M1
TAP	76	48	7
TTP	76	96	3	E	0	M1
TAP	76	96	6
TTP	76	144	4	E	0	M1
TAP	76	144	6
TTP	76	192	5	E	0	M1
TAP	76	192	6
STR	76	288	3
SCL	76	288	3	96	48	1
STR	76	288	7
SCL	76	288	7	96	48	5
TAP	76	336	3
TAP	76	336	7
TAP	77	0	3
STR	77	0	7
SI_	77	0	7	96	48	3
STR	77	192	1
SI_	77	192	1	96	48	4
BRK	77	288	1
STR	77	288	7
SI_	77	288	7	96	48	2
STR	78	0	5
SI_	78	0	5	96	48	0
BRK	78	0	7
STR	78	96	3
SI_	78	96	3	96	48	6
BRK	78	96	5
STR	78	192	1
SI_	78	192	1	96	48	4
BST	78	192	3
SI_	78	192	3	96	48	0
STR	78	288	1
SI_	78	288	1	96	48	6
BRK	79	0	1
STR	79	0	7
SI_	79	0	7	96	48	4
STR	79	96	5
SI_	79	96	5	96	48	2
BRK	79	96	7
STR	79	192	3
SI_	79	192	3	96	48	0
BRK	79	192	5
STR	79	288	1
SI_	79	288	1	96	48	6
BRK	79	288	3
BST	80	0	1
SLL	80	0	1	96	144	2
STR	80	0	7
SSR	80	0	7	96	144	3
XTP	80	288	2
XTP	80	288	3
TAP	81	0	0
TAP	81	24	1
TAP	81	48	5
TAP	81	72	6
STR	81	96	2
SI_	81	96	2	96	48	7
TAP	81	120	3
TAP	81	144	6
TAP	81	168	7
STR	81	192	0
SI_	81	192	0	96	48	5
BRK	81	192	2
BRK	81	288	0
STR	81	288	6
SI_	81	288	6	96	48	3
STR	82	0	4
SI_	82	0	4	96	48	1
BRK	82	0	6
STR	82	96	2
SI_	82	96	2	96	48	7
BRK	82	96	4
BST	82	192	2
SI_	82	192	2	96	48	5
STR	82	192	6
SI_	82	192	6	96	48	1
BRK	82	288	2
BRK	82	288	6
BRK	83	0	3
TAP	83	0	7
TAP	83	48	2
BRK	83	48	6
BRK	83	96	1
TAP	83	96	5
TAP	83	144	0
BRK	83	144	4
TTP	83	192	4	E	0	M1
BRK	83	192	7
TTP	83	240	3	E	0	M1
BRK	83	240	6
TTP	83	288	2	E	0	M1
BRK	83	288	5
TTP	83	336	1	E	0	M1
BRK	83	336	4
BRK	84	0	2
TAP	84	24	6
BRK	84	48	3
TAP	84	72	5
BRK	84	96	1
TAP	84	120	4
BRK	84	144	2
TAP	84	168	3
BRK	84	192	1
TAP	84	216	6
BRK	84	240	3
TAP	84	264	4
BST	84	288	0
SI_	84	288	0	96	24	4
TAP	84	312	5
BRK	84	336	2
TAP	84	360	7
BRK	85	0	0
TTP	85	8	0	B	0	M1
TTP	85	16	0	C	1	M1
TTP	85	24	4	B	0	M1
THO	88	0	0	192	C	0	M1
TTP	88	0	1	B	0	M1
TTP	88	0	2	B	0	M1
HLD	88	192	0	192
STR	89	0	1
SSR	89	0	1	96	288	5
STR	90	0	3
SSR	90	0	3	96	288	7
STR	91	0	5
SSR	91	0	5	96	288	1
STR	92	0	7
SCL	92	0	7	96	288	7
SCR	92	0	7	96	288	7

T_REC_TAP	411
T_REC_BRK	33
T_REC_XTP	4
T_REC_HLD	58
T_REC_XHO	3
T_REC_STR	49
T_REC_BST	9
T_REC_XST	0
T_REC_TTP	97
T_REC_THO	10
T_REC_SLD	59
T_REC_ALL	733
T_NUM_TAP	561
T_NUM_BRK	42
T_NUM_HLD	71
T_NUM_SLD	59
T_NUM_ALL	733
T_JUDGE_TAP	603
T_JUDGE_HLD	244
T_JUDGE_SLD	59
T_JUDGE_ALL	906
TTM_EACHPAIRS	77
TTM_SCR_TAP	280500
TTM_SCR_BRK	109200
TTM_SCR_HLD	71000
TTM_SCR_SLD	88500
TTM_SCR_ALL	549200
TTM_SCR_S	528650
TTM_SCR_SS	545000
TTM_RAT_ACV	10077

