VERSION	0.00.00	1.03.00
FES_MODE	0
BPM_DEF	172.000	172.000	172.000	172.000
MET_DEF	4	4
RESOLUTION	384
CLK_DEF	384
COMPATIBLE_CODE	MA2

BPM	0	0	172.000
MET	0	0	4	4

TTP	1	0	0	C	1	M1
TTP	1	0	1	B	0	M1
TTP	1	0	2	B	0	M1
TTP	1	0	5	B	0	M1
TTP	1	0	6	B	0	M1
THO	4	0	0	192	C	0	M1
TTP	4	0	3	B	0	M1
TTP	4	0	4	B	0	M1
HLD	5	0	6	672
HLD	6	0	4	672
HLD	7	0	3	672
HLD	8	0	1	384
XTP	9	0	4
TAP	9	96	4
TAP	9	192	4
TAP	9	288	4
TAP	10	0	3
TAP	10	0	4
TAP	10	96	3
TAP	10	96	4
TAP	10	192	3
TAP	10	192	4
TAP	10	288	3
TAP	10	288	4
TTP	11	0	3	E	0	M1
TAP	11	0	4
TTP	11	96	2	E	0	M1
TAP	11	96	4
TTP	11	192	1	E	0	M1
TAP	11	192	4
TTP	11	288	0	E	0	M1
TAP	11	288	4
TAP	12	0	4
TTP	12	0	7	E	0	M1
TAP	12	96	4
TTP	12	96	6	E	0	M1
TAP	12	192	4
TTP	12	192	5	E	0	M1
TAP	12	288	4
TTP	12	288	4	E	0	M1
TTP	13	0	3	E	0	M1
TAP	13	0	4
TTP	13	96	2	E	0	M1
TAP	13	96	4
TTP	13	192	1	E	0	M1
TAP	13	192	4
TTP	13	288	0	E	0	M1
TAP	13	288	4
TAP	14	0	4
TTP	14	0	7	E	0	M1
TAP	14	96	4
TTP	14	96	6	E	0	M1
TAP	14	192	4
TTP	14	192	5	E	0	M1
TAP	14	288	4
TTP	14	288	4	E	0	M1
TAP	15	0	3
TAP	15	48	3
TAP	15	96	4
TAP	15	144	4
TAP	15	192	2
TAP	15	240	2
TAP	15	288	6
TAP	15	336	6
TAP	16	0	0
TAP	16	24	7
TAP	16	48	0
TAP	16	72	7
TAP	16	96	0
TAP	16	120	7
TAP	16	144	0
TAP	16	168	7
TAP	16	192	0
TAP	16	216	7
TAP	16	240	0
TAP	16	264	7
TAP	16	288	0
TAP	17	0	2
TAP	17	0	5
TAP	17	96	4
TAP	17	144	4
TAP	17	192	3
TAP	17	240	2
TAP	17	288	4
TAP	17	336	5
TAP	18	0	3
TAP	18	48	3
TAP	18	96	4
TAP	18	144	5
TAP	18	192	2
TAP	18	240	1
TAP	18	288	5
TAP	18	336	6
TAP	19	0	1
TAP	19	48	0
TAP	19	96	7
TAP	19	144	7
TAP	19	192	0
TAP	19	240	1
TAP	19	288	6
TAP	19	336	5
TAP	20	0	3
TAP	20	48	2
TAP	20	96	4
TAP	20	144	5
TAP	20	192	2
TAP	20	240	1
TAP	20	288	5
TAP	20	336	6
TAP	21	0	1
TAP	21	48	0
TAP	21	96	7
TAP	21	144	7
TAP	21	192	1
TAP	21	240	2
TAP	21	288	5
TAP	21	336	6
TAP	22	0	3
TAP	22	48	2
TAP	22	96	4
TAP	22	144	5
TAP	22	192	3
TAP	22	240	2
TAP	22	288	4
TAP	22	336	5
TAP	23	0	2
TAP	23	48	1
TAP	23	96	6
TAP	23	144	6
TAP	23	192	3
TAP	23	240	2
TAP	23	288	4
TAP	23	336	5
TAP	24	0	2
TAP	24	48	1
TAP	24	96	5
TAP	24	144	6
TAP	24	192	1
TAP	24	240	0
BST	24	288	7
SI_	24	288	7	96	48	3
HLD	25	0	2	192
XTP	25	192	3
XTP	25	216	2
XTP	25	240	3
XTP	25	264	2
XTP	25	288	3
XTP	25	312	2
XTP	25	336	3
XHO	25	360	2	360
TAP	26	336	3
TAP	27	0	4
TAP	27	48	5
TAP	27	96	2
TAP	27	144	2
TAP	27	192	4
TAP	27	240	3
TAP	27	288	2
TAP	27	336	1
TAP	28	0	5
TAP	28	48	5
TAP	28	96	3
TAP	28	144	3
TAP	28	192	6
TAP	28	240	6
HLD	28	288	4	96
HLD	28	288	5	288
BRK	29	96	3
XTP	29	192	4
XTP	29	216	5
XTP	29	240	4
XTP	29	264	5
XTP	29	288	4
XTP	29	312	5
XTP	29	336	4
XHO	29	360	5	1080
TAP	30	96	3
TAP	30	192	3
TTP	30	288	5	E	0	M1
TTP	30	336	4	E	0	M1
TTP	31	0	3	E	0	M1
TAP	31	96	0
TAP	31	192	0
TAP	31	288	0
TAP	32	0	7
TAP	32	96	1
TAP	32	192	6
HLD	32	288	3	1440
TAP	33	0	7
TAP	33	96	7
TAP	33	192	7
TAP	33	288	7
TAP	34	0	0
TAP	34	96	0
TAP	34	192	6
TAP	34	288	6
TAP	35	0	1
TAP	35	96	1
TAP	35	192	5
TAP	35	288	5
TAP	36	0	2
TAP	36	96	2
TAP	36	192	4
BST	36	288	2
SUR	36	288	2	96	288	5
SXL	36	288	2	96	288	0
BRK	36	288	5
TAP	38	0	0
TAP	38	48	0
TAP	38	96	1
TAP	38	96	3
TAP	38	192	7
TAP	38	240	7
TAP	38	288	4
TAP	38	288	6
HLD	39	0	3	48
HLD	39	48	4	48
HLD	39	96	1	48
HLD	39	144	3	48
HLD	39	192	2	48
HLD	39	240	6	48
HLD	39	288	4	48
HLD	39	336	5	48
TAP	40	0	3
HLD	40	96	2	96
TAP	40	96	6
TAP	40	192	4
TAP	40	288	1
STR	40	288	5
SUL	40	288	5	96	288	2
SXR	40	288	5	96	288	7
TAP	42	0	7
TAP	42	48	7
TAP	42	96	4
TAP	42	96	6
TAP	42	192	0
TAP	42	240	0
TAP	42	288	1
TAP	42	288	3
HLD	43	0	7	48
HLD	43	48	0	48
HLD	43	96	5	48
HLD	43	144	7	48
HLD	43	192	6	48
HLD	43	240	2	48
HLD	43	288	0	48
HLD	43	336	1	48
TAP	44	0	7
TAP	44	96	4
TAP	44	96	5
TAP	44	144	3
TAP	44	144	6
TAP	44	240	2
TAP	44	240	3
TAP	44	288	1
TAP	44	288	4
TTP	45	0	0	C	1	M1
TTP	45	0	1	B	0	M1
TTP	45	0	2	B	0	M1
TTP	45	0	5	B	0	M1
TTP	45	0	6	B	0	M1
THO	48	0	0	192	C	0	M1
TTP	48	0	3	B	0	M1
TTP	48	0	4	B	0	M1
HLD	49	0	1	672
HLD	50	0	3	672
HLD	51	0	4	672
HLD	52	0	6	384
XTP	53	0	3
TAP	53	48	3
TAP	53	96	3
TAP	53	144	3
TAP	53	192	3
HLD	53	192	4	192
TAP	53	240	3
TAP	53	288	3
TAP	53	336	3
XTP	54	0	3
TAP	54	48	3
TAP	54	96	3
TAP	54	144	3
TAP	54	192	3
HLD	54	192	5	192
TAP	54	240	3
TAP	54	288	3
TAP	54	336	3
XTP	55	0	3
TAP	55	48	3
TAP	55	96	3
TAP	55	144	3
TAP	55	192	3
HLD	55	192	6	192
TAP	55	240	3
TAP	55	288	3
TAP	55	336	3
XTP	56	0	3
TAP	56	48	3
TAP	56	96	3
TAP	56	144	3
TAP	56	192	3
HLD	56	192	7	192
TAP	56	240	3
TAP	56	288	3
TAP	56	336	3
XTP	57	0	3
TAP	57	48	3
TAP	57	96	3
TAP	57	144	3
HLD	57	192	0	192
TAP	57	192	3
TAP	57	240	3
TAP	57	288	3
TAP	57	336	3
XTP	58	0	3
TAP	58	48	3
TAP	58	96	3
TAP	58	144	3
HLD	58	192	1	192
TAP	58	192	3
TAP	58	240	3
TAP	58	288	3
TAP	58	336	3
XTP	59	0	3
TAP	59	48	3
TAP	59	96	3
TAP	59	144	3
HLD	59	192	2	192
TAP	59	192	3
TAP	59	240	3
TAP	59	288	3
TAP	59	336	3
XTP	60	0	3
TAP	60	48	3
TAP	60	96	3
TAP	60	144	3
TAP	60	192	3
TAP	60	240	3
BST	60	288	3
SF_	60	288	3	96	96	7
XTP	61	192	0
XTP	61	192	6
TAP	61	288	2
TAP	61	336	1
TAP	62	0	0
TAP	62	48	7
TAP	62	96	2
TAP	62	144	1
TAP	62	192	0
TAP	62	240	7
TAP	62	288	3
TAP	62	288	6
TAP	63	0	0
TAP	63	48	7
TAP	63	96	6
TAP	63	144	5
TAP	63	192	0
TAP	63	240	7
TAP	63	288	6
TAP	63	336	5
TAP	64	0	7
TAP	64	48	6
HLD	64	96	5	96
TAP	64	192	0
STR	64	288	3
SXR	64	288	3	96	192	4
TTP	65	0	0	C	1	M1
TAP	65	192	5
TAP	65	288	5
TAP	65	336	6
TAP	66	0	7
TAP	66	48	0
TAP	66	96	5
TAP	66	144	6
TAP	66	192	7
TAP	66	240	0
TAP	66	288	5
TAP	66	336	6
TAP	67	0	7
TAP	67	48	0
TAP	67	96	1
TAP	67	144	2
TAP	67	192	3
TAP	67	240	4
TAP	67	288	5
TAP	67	336	5
TAP	68	0	4
TAP	68	48	3
TAP	68	96	2
STR	68	96	5
SXL	68	96	5	96	192	3
TTP	68	192	0	C	1	M1
HLD	69	0	0	192
BRK	69	192	7
XTP	69	288	2
TAP	69	312	3
TAP	69	336	2
TAP	69	360	3
XTP	70	0	2
TAP	70	24	3
TAP	70	48	2
TAP	70	72	3
XTP	70	96	1
TAP	70	120	4
TAP	70	144	1
TAP	70	168	4
XTP	70	192	2
TAP	70	216	3
TAP	70	240	2
TAP	70	264	3
XTP	70	288	2
XTP	71	0	5
TAP	71	24	4
TAP	71	48	5
TAP	71	72	4
XTP	71	96	6
TAP	71	120	3
TAP	71	144	6
TAP	71	168	3
XTP	71	192	5
TAP	71	216	4
TAP	71	240	5
TAP	71	264	4
XTP	71	288	6
TAP	71	312	3
TAP	71	336	6
TAP	71	360	3
XTP	72	0	5
TAP	72	24	4
TAP	72	48	5
TAP	72	72	4
XTP	72	96	5
STR	72	192	2
SI_	72	192	2	96	48	4
STR	72	288	5
SXR	72	288	5	96	192	7
TTP	73	0	0	C	1	M1
BRK	73	192	0
TAP	73	288	4
TAP	73	288	6
TAP	74	0	1
TAP	74	0	3
TAP	74	96	5
TAP	74	96	7
TAP	74	192	0
TAP	74	192	2
TAP	74	288	3
TAP	74	288	4
TAP	75	0	5
TAP	75	48	6
TAP	75	96	7
TAP	75	144	0
TAP	75	192	1
TAP	75	240	2
TAP	75	288	5
TAP	75	336	6
TAP	76	0	7
TAP	76	48	0
TAP	76	96	1
TAP	76	144	2
TAP	76	192	6
TAP	76	240	5
TAP	76	288	4
TAP	76	336	3
STR	77	0	2
SCR	77	0	2	96	48	5
HLD	77	0	6	192
XTP	77	192	7
BRK	77	288	4
BRK	77	288	5
BRK	78	0	0
BRK	78	0	1
BRK	78	96	2
BRK	78	96	3
BST	78	192	6
SI_	78	192	6	96	48	4
BST	78	192	7
SI_	78	192	7	96	48	4
BRK	79	0	2
BRK	79	0	3
BRK	79	96	0
BRK	79	96	1
BRK	79	192	4
BRK	79	192	5
BRK	79	288	6
BRK	79	288	7
BRK	80	0	2
BRK	80	0	3
HLD	80	96	2	192
HLD	80	96	3	96
TTP	80	288	4	E	0	M1
TAP	81	0	4
TAP	81	48	5
TAP	81	96	3
TAP	81	144	2
BRK	81	192	1
BRK	81	192	3
BRK	81	288	4
BRK	81	288	6
BRK	82	0	0
BRK	82	0	7
BRK	82	96	1
BRK	82	96	3
BRK	82	192	4
BRK	82	192	6
BRK	82	288	0
BRK	82	288	7
TAP	83	0	3
TAP	83	48	3
TAP	83	96	6
TAP	83	144	6
TAP	83	192	1
TAP	83	240	1
TAP	83	288	5
TAP	83	336	5
BRK	84	0	0
TAP	84	24	7
TAP	84	48	0
TAP	84	72	7
BRK	84	96	1
TAP	84	120	6
TAP	84	144	1
TAP	84	168	6
BRK	84	192	0
XTP	84	216	1
XTP	84	240	2
XTP	84	264	3
XTP	84	288	4
XTP	84	312	5
XTP	84	336	6
XTP	84	360	7
XTP	85	0	0
TTP	85	0	0	C	1	M1
THO	88	0	0	192	C	0	M1
TTP	88	0	2	B	0	M1
TTP	88	0	3	B	0	M1
TTP	88	0	4	B	0	M1
TTP	88	0	5	B	0	M1
HLD	89	0	0	288
HLD	89	0	7	288
HLD	90	0	1	288
HLD	90	0	6	288
HLD	91	0	2	288
HLD	91	0	5	288
STR	92	0	3
SCL	92	0	3	96	288	4
STR	92	0	4
SCR	92	0	4	96	288	3

T_REC_TAP	345
T_REC_BRK	35
T_REC_XTP	45
T_REC_HLD	47
T_REC_XHO	2
T_REC_STR	8
T_REC_BST	5
T_REC_XST	0
T_REC_TTP	42
T_REC_THO	3
T_REC_SLD	15
T_REC_ALL	547
T_NUM_TAP	440
T_NUM_BRK	40
T_NUM_HLD	52
T_NUM_SLD	15
T_NUM_ALL	547
T_JUDGE_TAP	480
T_JUDGE_HLD	283
T_JUDGE_SLD	15
T_JUDGE_ALL	778
TTM_EACHPAIRS	53
TTM_SCR_TAP	220000
TTM_SCR_BRK	104000
TTM_SCR_HLD	52000
TTM_SCR_SLD	22500
TTM_SCR_ALL	398500
TTM_SCR_S	382700
TTM_SCR_SS	394500
TTM_RAT_ACV	10101

