VERSION	0.00.00	1.03.00
FES_MODE	0
BPM_DEF	172.000	172.000	172.000	172.000
MET_DEF	4	4
RESOLUTION	384
CLK_DEF	384
COMPATIBLE_CODE	MA2

BPM	0	0	172.000
MET	0	0	4	4

THO	1	0	0	1152	C	0	L1
XST	5	0	7
SCL	5	0	7	96	384	2
STR	7	0	0
SCR	7	0	0	96	384	5
TTP	9	0	7	E	0	L1
TTP	9	192	0	E	0	L1
TTP	10	0	1	E	0	L1
TTP	10	192	2	E	0	L1
TTP	11	0	3	E	0	L1
TTP	11	192	4	E	0	L1
TTP	12	0	5	E	0	L1
TTP	12	192	6	E	0	L1
XTP	13	0	6
TAP	13	96	7
TAP	13	192	0
TAP	13	288	1
TAP	14	0	2
TAP	14	96	3
TAP	14	192	4
TAP	14	288	5
TAP	15	0	4
TAP	15	48	4
TAP	15	96	4
TAP	15	192	3
TAP	15	240	3
TAP	15	288	3
TAP	16	0	3
TAP	16	0	4
TAP	16	48	3
TAP	16	48	4
TAP	16	96	3
TAP	16	96	4
TAP	16	192	2
TAP	16	192	5
TAP	16	240	2
TAP	16	240	5
TAP	16	288	2
TAP	16	288	5
STR	17	0	6
SXR	17	0	6	96	480	2
STR	19	0	1
SXL	19	0	1	96	480	5
HLD	21	0	6	192
HLD	21	192	7	192
HLD	22	0	0	192
TAP	22	192	1
TAP	23	0	2
TAP	23	96	3
TAP	23	192	4
TAP	23	288	5
TAP	24	0	3
TAP	24	0	4
TAP	24	48	3
TAP	24	48	4
TAP	24	96	3
TAP	24	96	4
TAP	24	192	2
TAP	24	192	5
STR	25	0	7
SCL	25	0	7	96	192	4
STR	26	0	3
SCL	26	0	3	96	192	0
TAP	27	0	6
TAP	27	96	6
TAP	27	192	7
TAP	27	288	7
TAP	28	0	0
TAP	28	96	0
TAP	28	192	1
TAP	28	192	7
TAP	29	0	2
TAP	29	96	2
TAP	29	192	3
TAP	29	288	3
TAP	30	0	4
TAP	30	96	4
TAP	30	192	3
TAP	30	192	5
TAP	31	0	5
TAP	31	96	5
TAP	31	192	4
TAP	31	288	4
TAP	32	0	3
TAP	32	96	3
TAP	32	192	2
TAP	32	192	4
TAP	33	0	1
TAP	33	96	0
TAP	33	192	7
TAP	33	288	6
TAP	34	0	5
TAP	34	96	4
TAP	34	192	3
TAP	34	288	2
TAP	35	0	3
TAP	35	0	4
TAP	35	96	2
TAP	35	96	5
TAP	35	192	1
TAP	35	192	6
TAP	35	288	0
TAP	35	288	7
TAP	36	0	1
TAP	36	0	6
TAP	36	48	1
TAP	36	48	6
TAP	36	96	1
TAP	36	96	6
BRK	36	192	0
BRK	36	192	7
TTP	37	0	6	E	0	L1
TTP	37	96	5	B	0	L1
TTP	37	192	4	B	0	L1
TTP	38	0	2	E	0	L1
TTP	38	96	2	B	0	L1
TTP	38	192	3	B	0	L1
TTP	39	0	6	E	0	L1
TTP	39	96	5	B	0	L1
TTP	39	192	4	B	0	L1
TTP	39	288	3	B	0	L1
TTP	40	0	2	B	0	L1
TTP	40	96	1	B	0	L1
TTP	40	192	1	E	0	L1
TTP	41	0	6	B	0	L1
TTP	41	96	5	B	0	L1
TTP	41	192	5	E	0	L1
TTP	42	0	1	B	0	L1
TTP	42	96	2	B	0	L1
TTP	42	192	3	E	0	L1
TTP	43	0	6	B	0	L1
TTP	43	96	5	B	0	L1
TTP	43	192	4	B	0	L1
TTP	43	288	3	B	0	L1
TTP	44	0	2	B	0	L1
XTP	44	192	1
XTP	44	192	6
BST	45	0	0
SXL	45	0	0	96	480	3
BST	45	0	7
SXR	45	0	7	96	480	4
STR	47	0	5
SCR	47	0	5	96	192	0
STR	48	0	1
SUR	48	0	1	96	192	5
STR	49	0	6
SUL	49	0	6	96	192	2
STR	50	0	1
SCR	50	0	1	96	192	4
TAP	51	0	5
TAP	51	96	5
TAP	51	192	4
TAP	51	192	5
TAP	52	0	3
TAP	52	96	3
TAP	52	192	3
TAP	52	192	4
HLD	53	0	5	384
HLD	54	0	4	384
HLD	55	0	3	384
TAP	56	0	2
TAP	56	192	2
TAP	56	192	3
HLD	57	0	1	192
HLD	57	192	0	192
HLD	58	0	7	192
TAP	58	192	6
TAP	59	0	5
TAP	59	96	4
TAP	59	192	3
TAP	59	288	2
TAP	60	0	3
TAP	60	0	4
TAP	60	48	3
TAP	60	48	4
TAP	60	96	3
TAP	60	96	4
TAP	60	192	2
TAP	60	192	5
HLD	61	0	6	192
HLD	61	0	7	192
TAP	61	288	5
TAP	61	336	5
TAP	62	0	5
TAP	62	96	4
TAP	62	144	4
TAP	62	192	4
TAP	62	288	3
TAP	63	0	2
TAP	63	0	4
TAP	63	96	1
TAP	63	144	1
TAP	63	192	1
TAP	63	288	0
TAP	63	336	0
TAP	64	0	0
TAP	64	96	7
TAP	64	192	0
TAP	64	192	6
TAP	65	0	1
TAP	65	0	7
TAP	65	96	2
TAP	65	144	2
TAP	65	192	2
TAP	65	288	3
TAP	65	336	3
TAP	66	0	3
TAP	66	96	4
TAP	66	144	4
TAP	66	192	4
TAP	66	288	3
TAP	66	288	5
TAP	67	0	4
TAP	67	0	6
TAP	67	96	7
TAP	67	144	7
TAP	67	192	7
TAP	67	288	0
TAP	67	336	0
TAP	68	0	0
TAP	68	96	0
TAP	68	96	7
BRK	68	192	1
BRK	68	192	6
HLD	69	0	0	192
HLD	69	0	1	192
TAP	69	288	2
TAP	69	336	2
TAP	70	0	2
TAP	70	96	3
TAP	70	144	3
TAP	70	192	3
TAP	70	288	4
TAP	71	0	3
TAP	71	0	5
TAP	71	96	6
TAP	71	144	6
TAP	71	192	6
TAP	71	288	7
TAP	71	336	7
TAP	72	0	7
TAP	72	96	0
TAP	72	192	1
TAP	72	192	7
TAP	73	0	0
TAP	73	0	6
TAP	73	96	5
TAP	73	144	5
TAP	73	192	5
TAP	73	288	4
TAP	73	336	4
TAP	74	0	4
TAP	74	96	3
TAP	74	144	3
TAP	74	192	3
TAP	74	288	2
TAP	74	288	4
TAP	75	0	1
TAP	75	0	3
TAP	75	96	0
TAP	75	144	0
TAP	75	192	0
TAP	75	288	7
TAP	75	336	7
TAP	76	0	7
TAP	76	96	0
TAP	76	96	7
TAP	76	192	1
TAP	76	192	6
HLD	76	288	2	96
HLD	76	288	5	96
BRK	77	288	4
BRK	77	288	5
TAP	78	0	4
TAP	78	0	5
TAP	78	96	4
TAP	78	96	5
TAP	78	192	6
TAP	78	192	7
TAP	78	288	6
TAP	78	288	7
TAP	79	0	0
TAP	79	0	1
TAP	79	96	0
TAP	79	96	1
TAP	79	192	2
TAP	79	192	3
TAP	79	288	2
TAP	79	288	3
TAP	80	0	4
TAP	80	0	5
HLD	80	96	3	96
HLD	80	96	6	96
TAP	81	0	6
TAP	81	96	6
TAP	81	192	6
TAP	81	192	7
TAP	81	288	6
TAP	81	288	7
TAP	82	0	4
TAP	82	0	5
TAP	82	96	2
TAP	82	96	3
TAP	82	192	0
TAP	82	192	1
TAP	82	288	6
TAP	82	288	7
TAP	83	0	0
TAP	83	0	7
TAP	83	48	0
TAP	83	48	7
TAP	83	96	0
TAP	83	96	7
TAP	83	192	1
TAP	83	192	6
TAP	83	240	1
TAP	83	240	6
TAP	83	288	1
TAP	83	288	6
TAP	84	0	2
TAP	84	0	5
TAP	84	48	2
TAP	84	48	5
TAP	84	96	2
TAP	84	96	5
TAP	84	192	3
TAP	84	192	4
TAP	84	240	3
TAP	84	240	4
TAP	84	288	3
TAP	84	288	4
BST	85	0	2
SXR	85	0	2	96	480	4
BST	85	0	5
SXL	85	0	5	96	480	3
STR	87	0	5
SSR	87	0	5	96	384	1
STR	89	0	0
SCR	89	0	0	96	384	5
STR	91	0	6
SXL	91	0	6	96	480	3

T_REC_TAP	248
T_REC_BRK	6
T_REC_XTP	3
T_REC_HLD	17
T_REC_XHO	0
T_REC_STR	12
T_REC_BST	4
T_REC_XST	1
T_REC_TTP	32
T_REC_THO	1
T_REC_SLD	17
T_REC_ALL	341
T_NUM_TAP	296
T_NUM_BRK	10
T_NUM_HLD	18
T_NUM_SLD	17
T_NUM_ALL	341
T_JUDGE_TAP	306
T_JUDGE_HLD	96
T_JUDGE_SLD	17
T_JUDGE_ALL	419
TTM_EACHPAIRS	77
TTM_SCR_TAP	148000
TTM_SCR_BRK	26000
TTM_SCR_HLD	18000
TTM_SCR_SLD	25500
TTM_SCR_ALL	217500
TTM_SCR_S	210050
TTM_SCR_SS	216500
TTM_RAT_ACV	10046

