VERSION	0.00.00	1.03.00
FES_MODE	0
BPM_DEF	172.000	172.000	172.000	172.000
MET_DEF	4	4
RESOLUTION	384
CLK_DEF	384
COMPATIBLE_CODE	MA2

BPM	0	0	172.000
MET	0	0	4	4

TTP	1	0	0	C	1	L1
TTP	5	0	0	B	0	L1
TTP	6	0	1	B	0	L1
TTP	7	0	2	B	0	L1
TTP	8	0	3	B	0	L1
TTP	9	0	0	C	1	L1
TTP	11	0	7	B	0	L1
TTP	12	0	6	B	0	L1
TTP	13	0	5	B	0	L1
TTP	14	0	4	B	0	L1
THO	15	0	0	384	C	0	L1
TAP	17	0	0
TAP	18	0	1
TAP	19	0	2
TAP	20	0	3
TAP	21	0	4
TAP	22	0	5
TAP	23	0	6
TAP	24	0	7
BRK	25	0	0
BRK	25	0	7
TAP	27	0	7
TAP	27	192	7
TAP	28	0	6
TAP	28	192	6
TAP	29	0	4
TAP	29	0	5
TAP	29	192	4
TAP	29	192	5
TAP	30	0	3
TAP	30	192	3
TAP	31	0	2
TAP	31	192	2
TAP	32	0	1
TAP	32	192	1
HLD	33	0	0	384
TAP	34	192	0
HLD	35	0	7	384
TAP	36	192	7
BRK	37	0	0
TAP	37	96	0
TAP	37	192	0
TAP	38	0	1
TAP	38	192	1
TAP	39	0	2
TAP	39	96	2
TAP	39	192	2
TAP	40	0	3
TAP	40	192	3
TAP	40	192	4
TAP	41	0	4
TAP	41	96	4
TAP	41	192	4
TAP	42	0	5
TAP	42	192	5
TAP	43	0	6
TAP	43	96	6
TAP	43	192	6
TAP	44	0	0
TAP	44	0	7
TAP	44	192	0
TAP	44	192	7
STR	45	0	7
SI_	45	0	7	96	288	4
STR	47	0	3
SI_	47	0	3	96	288	0
STR	49	0	7
SI_	49	0	7	96	288	3
STR	51	0	2
SI_	51	0	2	96	288	7
TAP	53	0	6
TAP	53	192	6
TAP	54	0	5
TAP	54	192	5
TAP	55	0	4
TAP	55	192	4
TAP	56	0	3
TAP	56	192	3
TAP	57	0	2
TAP	57	192	2
TAP	58	0	1
TAP	58	192	1
TAP	59	0	0
TAP	59	192	0
HLD	60	0	0	192
HLD	60	0	7	192
BRK	61	0	0
BRK	61	0	7
TAP	61	192	1
TAP	61	288	1
TAP	62	0	1
TAP	62	96	2
TAP	62	192	2
TAP	62	288	2
TAP	63	0	2
TAP	63	0	3
TAP	63	192	4
TAP	63	288	4
TAP	64	0	4
TAP	64	96	5
TAP	64	192	5
TAP	64	288	5
TAP	65	0	4
TAP	65	0	5
TAP	65	192	6
TAP	65	288	6
TAP	66	0	6
TAP	66	96	7
TAP	66	192	7
TAP	66	288	7
TAP	67	0	0
TAP	67	96	0
TAP	67	192	0
TAP	67	192	7
TAP	68	0	1
TAP	68	0	6
TAP	68	96	1
TAP	68	96	6
TAP	68	192	1
TAP	68	192	6
BRK	69	0	2
BRK	69	0	5
TAP	69	192	4
TAP	69	288	4
TAP	70	0	4
TAP	70	96	3
TAP	70	192	3
TAP	70	288	3
TAP	71	0	3
TAP	71	0	4
TAP	71	192	2
TAP	71	288	2
TAP	72	0	2
TAP	72	96	1
TAP	72	192	1
TAP	72	288	1
TAP	73	0	0
TAP	73	0	1
TAP	73	192	7
TAP	73	288	7
TAP	74	0	7
TAP	74	96	6
TAP	74	192	6
TAP	74	288	6
TAP	75	0	6
TAP	75	0	7
TAP	75	192	5
TAP	75	288	5
TAP	76	0	5
TAP	76	96	4
TAP	76	192	4
TAP	76	288	4
TAP	77	0	3
TAP	77	0	4
TAP	77	192	4
TAP	77	192	5
BRK	77	288	4
BRK	77	288	5
TAP	78	0	4
TAP	78	0	5
TAP	78	96	4
TAP	78	96	5
TAP	78	192	4
TAP	78	192	5
TAP	79	0	6
TAP	79	0	7
TAP	79	96	6
TAP	79	96	7
TAP	79	192	6
TAP	79	192	7
TAP	79	288	6
TAP	79	288	7
TAP	80	0	6
TAP	80	0	7
TAP	80	192	0
TAP	80	288	0
TAP	81	0	0
TAP	81	192	0
TAP	81	192	1
TAP	81	288	0
TAP	81	288	1
TAP	82	0	2
TAP	82	96	2
TAP	82	192	3
TAP	82	192	4
TAP	82	288	3
TAP	82	288	4
TAP	83	0	2
TAP	83	0	5
TAP	83	96	2
TAP	83	96	5
TAP	83	192	1
TAP	83	192	6
TAP	83	288	1
TAP	83	288	6
TAP	84	0	0
TAP	84	0	7
TAP	84	96	0
TAP	84	96	7
TAP	84	192	1
TAP	84	192	6
TAP	84	288	1
TAP	84	288	6
BRK	85	0	2
BRK	85	0	5
TTP	87	0	4	E	0	L1
TTP	89	0	3	E	0	L1
TTP	89	0	5	E	0	L1
THO	91	0	0	768	C	0	L1
TTP	91	0	2	B	0	L1
TTP	91	0	5	B	0	L1

T_REC_TAP	171
T_REC_BRK	11
T_REC_XTP	0
T_REC_HLD	4
T_REC_XHO	0
T_REC_STR	4
T_REC_BST	0
T_REC_XST	0
T_REC_TTP	15
T_REC_THO	2
T_REC_SLD	4
T_REC_ALL	211
T_NUM_TAP	190
T_NUM_BRK	11
T_NUM_HLD	6
T_NUM_SLD	4
T_NUM_ALL	211
T_JUDGE_TAP	201
T_JUDGE_HLD	48
T_JUDGE_SLD	4
T_JUDGE_ALL	253
TTM_EACHPAIRS	42
TTM_SCR_TAP	95000
TTM_SCR_BRK	28600
TTM_SCR_HLD	6000
TTM_SCR_SLD	6000
TTM_SCR_ALL	135600
TTM_SCR_S	130500
TTM_SCR_SS	134500
TTM_RAT_ACV	10081

