VERSION	0.00.00	1.03.00
FES_MODE	0
BPM_DEF	157.000	157.000	157.000	157.000
MET_DEF	4	4
RESOLUTION	384
CLK_DEF	384
COMPATIBLE_CODE	MA2

BPM	0	0	157.000
MET	0	0	4	4

THO	1	0	0	384	C	1	M1
XTP	2	96	0
XTP	2	96	7
TAP	2	192	1
TAP	2	288	2
STR	2	336	2
SXR	2	336	2	96	288	4
HLD	3	48	5	336
TAP	4	96	6
TAP	4	192	0
TAP	4	192	7
TAP	4	288	1
TAP	4	336	1
TAP	5	48	2
STR	5	48	5
SUL	5	48	5	96	240	3
HLD	5	144	1	144
TAP	5	336	1
TAP	6	192	4
TAP	6	240	2
TAP	6	288	5
STR	6	336	3
SUR	6	336	3	96	240	4
HLD	7	48	6	384
TAP	8	48	5
TAP	8	96	4
TAP	8	144	3
HLD	8	192	2	96
STR	8	288	3
SCL	8	288	3	96	288	4
TAP	8	336	3
TAP	9	288	0
TAP	9	336	0
BRK	10	0	2
BRK	10	0	6
TAP	10	48	3
TAP	10	48	5
TAP	10	96	3
TAP	10	96	5
HLD	10	192	4	96
TAP	10	288	3
TAP	10	336	2
TAP	10	336	4
TAP	11	48	5
TAP	11	96	4
TAP	11	144	3
TAP	11	144	6
TAP	11	240	2
TAP	11	240	3
TAP	11	288	1
TAP	11	288	4
BRK	12	0	0
BRK	12	0	6
TAP	12	48	7
TAP	12	96	7
TAP	12	192	4
BRK	12	192	6
TAP	12	240	5
TAP	12	288	3
TAP	12	336	2
BRK	12	336	6
TAP	13	48	1
TAP	13	96	0
TAP	13	144	2
TAP	13	144	7
TAP	13	240	6
TAP	13	240	7
TAP	13	288	0
TAP	13	288	5
BRK	14	0	1
TAP	14	0	3
TAP	14	48	2
TAP	14	96	3
TAP	14	96	4
TAP	14	192	4
BRK	14	192	6
TAP	14	288	0
TAP	14	288	7
BRK	14	336	1
BRK	14	336	6
TAP	15	48	2
TAP	15	96	3
TAP	15	144	1
TAP	15	144	4
TAP	15	240	4
TAP	15	240	5
TAP	15	288	3
TAP	15	288	6
BRK	16	0	1
BRK	16	0	7
TAP	16	48	0
TAP	16	96	0
BRK	16	192	1
TAP	16	192	3
TAP	16	240	2
TAP	16	288	4
BRK	16	336	1
TAP	16	336	5
TAP	17	48	6
TAP	17	96	7
TAP	17	144	0
TAP	17	144	5
TAP	17	240	0
TAP	17	240	1
TAP	17	288	2
STR	17	288	7
SI_	17	288	7	96	48	3
TAP	18	0	0
TAP	18	0	7
TAP	18	96	2
TAP	18	144	2
HLD	18	192	3	96
TAP	18	288	1
TAP	19	0	2
TAP	19	48	2
HLD	19	96	3	96
TAP	19	192	4
STR	19	288	0
SI_	19	288	0	96	48	4
TAP	20	0	0
TAP	20	0	7
TAP	20	96	5
TAP	20	144	5
HLD	20	192	4	96
TAP	20	288	6
TAP	21	0	5
TAP	21	48	5
HLD	21	96	4	96
TAP	21	192	3
STR	21	288	6
SI_	21	288	6	96	32	4
TAP	21	336	6
TAP	22	0	7
STR	22	96	1
SI_	22	96	1	96	32	3
TAP	22	144	1
TAP	22	192	0
STR	22	288	6
SI_	22	288	6	96	48	3
TAP	22	336	6
TAP	23	0	7
STR	23	96	1
SI_	23	96	1	96	48	4
TAP	23	144	1
TAP	23	192	0
STR	23	288	6
SI_	23	288	6	96	48	2
TAP	23	336	6
STR	24	0	1
SI_	24	0	1	96	32	3
TAP	24	96	1
STR	24	96	7
SI_	24	96	7	96	32	5
STR	24	192	0
SI_	24	192	0	96	48	4
TAP	24	192	7
TAP	24	288	0
STR	24	288	7
SCL	24	288	7	96	192	0
HLD	25	0	3	336
TAP	25	0	7
TAP	25	288	7
TAP	25	336	7
TTP	26	48	0	E	0	M1
TTP	26	96	0	C	0	M1
TTP	26	144	4	E	0	M1
TTP	26	192	2	E	0	M1
TTP	26	240	3	E	0	M1
TTP	26	288	6	E	0	M1
TTP	26	336	5	E	0	M1
TTP	27	0	1	B	0	M1
TTP	27	48	3	B	0	M1
TTP	27	96	6	B	0	M1
TTP	27	144	4	B	0	M1
TTP	27	192	0	E	0	M1
TTP	27	240	0	C	0	M1
TTP	27	288	3	E	0	M1
TTP	27	288	4	E	0	M1
TTP	27	288	5	E	0	M1
XTP	28	0	0
XTP	28	0	7
TAP	28	48	5
XTP	28	96	1
TAP	28	96	3
TAP	28	144	7
XTP	28	192	2
TAP	28	192	4
TAP	28	240	7
XTP	28	288	3
TAP	28	288	5
TAP	28	336	7
TAP	29	0	4
XTP	29	0	6
TAP	29	48	7
TAP	29	96	3
XTP	29	96	5
TAP	29	144	7
TAP	29	192	2
XTP	29	192	4
TAP	29	240	7
TAP	29	288	1
XTP	29	288	3
TAP	29	336	7
TAP	29	360	0
XTP	30	0	7
TAP	30	48	2
TAP	30	96	4
XTP	30	96	6
TAP	30	144	0
TAP	30	192	3
XTP	30	192	5
TAP	30	240	0
TAP	30	288	2
XTP	30	288	4
TAP	30	336	0
XTP	31	0	1
TAP	31	0	3
TAP	31	48	0
XTP	31	96	2
TAP	31	96	4
TAP	31	144	0
XTP	31	192	3
TAP	31	192	5
TAP	31	240	1
XTP	31	264	0
XTP	31	288	1
TAP	31	336	6
TAP	31	360	7
XTP	32	0	6
TAP	32	48	1
TAP	32	96	3
XTP	32	96	5
TAP	32	144	0
XTP	32	192	2
TAP	32	192	4
TAP	32	240	7
TAP	32	288	4
XTP	32	288	6
TAP	32	336	0
XTP	33	0	1
TAP	33	0	3
TAP	33	48	7
TAP	33	96	4
XTP	33	96	5
TAP	33	144	0
XTP	33	192	2
TAP	33	192	3
TAP	33	240	7
XTP	33	288	3
XTP	33	288	4
TAP	33	336	1
TAP	33	336	6
TAP	33	360	1
TAP	33	360	6
TAP	34	48	0
TAP	34	48	4
TAP	34	96	3
TAP	34	96	7
TAP	34	192	0
TAP	34	192	6
STR	34	240	1
SI_	34	240	1	96	48	5
TAP	34	240	5
TAP	34	288	2
TAP	34	288	4
TAP	34	336	1
TAP	34	336	5
TAP	35	48	0
TAP	35	48	6
TAP	35	96	3
TAP	35	96	4
TAP	35	144	1
TAP	35	144	7
TAP	35	240	1
TAP	35	240	6
STR	35	288	1
SSR	35	288	1	96	72	5
STR	35	288	6
SSL	35	288	6	96	72	2
XTP	36	96	3
XTP	36	96	4
TAP	36	192	1
TAP	36	216	3
TAP	36	240	2
TAP	36	288	6
TAP	36	312	4
TAP	36	336	5
TAP	37	0	0
TAP	37	24	3
TAP	37	48	2
TAP	37	96	7
TAP	37	120	4
TAP	37	144	5
TAP	37	168	3
TAP	37	192	3
TAP	37	240	2
TAP	37	240	4
TAP	37	288	1
TAP	37	288	5
TAP	37	336	0
TAP	37	360	7
XST	38	0	0
SI_	38	0	0	96	48	4
TAP	38	48	6
TAP	38	48	7
TAP	38	96	0
TAP	38	144	5
TAP	38	192	6
TAP	38	216	7
TAP	38	240	6
TAP	38	288	1
TAP	38	312	0
TAP	38	336	1
TAP	39	0	2
STR	39	0	6
SI_	39	0	6	96	48	2
TAP	39	48	3
TAP	39	48	5
TAP	39	96	2
TAP	39	96	6
TAP	39	168	0
TAP	39	192	0
TAP	39	240	3
TAP	39	240	5
TAP	39	288	7
TAP	39	312	1
TAP	39	336	7
TAP	39	360	1
XST	40	0	7
SI_	40	0	7	96	48	3
TAP	40	48	0
TAP	40	48	1
TAP	40	96	7
TAP	40	144	2
TAP	40	192	1
TAP	40	216	0
TAP	40	240	1
TAP	40	288	6
TAP	40	312	7
TAP	40	336	6
TAP	41	0	3
TAP	41	24	4
TAP	41	48	3
STR	41	96	1
SI_	41	96	1	96	48	4
STR	41	96	6
SI_	41	96	6	96	48	3
XTP	41	144	0
XTP	41	144	7
XTP	41	192	1
XTP	41	192	6
TTP	41	288	0	E	0	M1
TTP	41	312	6	E	0	M1
TTP	41	336	2	E	0	M1
TTP	41	360	4	E	0	M1
TAP	42	48	0
TAP	42	48	1
TAP	42	96	2
TAP	42	96	7
TAP	42	192	6
TAP	42	240	7
TAP	42	288	0
TAP	42	288	5
TTP	42	336	0	C	0	M1
XTP	42	360	6
TTP	43	0	0	C	0	M1
XTP	43	24	7
TTP	43	48	0	C	0	M1
XTP	43	72	0
TTP	43	96	0	C	0	M1
XTP	43	120	1
TTP	43	144	0	C	0	M1
TAP	43	240	0
TAP	43	240	7
BRK	43	288	1
BRK	43	288	6
TAP	44	0	3
TAP	44	0	4
TAP	44	96	3
TTP	44	96	6	E	0	M1
TAP	44	192	2
TTP	44	192	4	E	0	M1
TAP	44	240	2
TTP	44	288	6	E	0	M1
TAP	44	336	1
TTP	45	0	4	E	0	M1
HLD	45	48	0	336
TTP	45	96	6	E	0	M1
TTP	45	192	4	E	0	M1
TTP	45	288	6	E	0	M1
TTP	46	0	4	E	0	M1
TTP	46	96	2	E	0	M1
TAP	46	96	5
TTP	46	192	4	E	0	M1
TAP	46	192	6
TTP	46	288	2	E	0	M1
TAP	46	288	7
TAP	46	336	7
TTP	47	0	4	E	0	M1
TAP	47	48	6
TTP	47	96	2	E	0	M1
TAP	47	144	5
THO	47	192	0	48	C	0	M1
HLD	47	288	7	48
BRK	48	0	1
BRK	48	0	5
TAP	48	48	2
TAP	48	48	4
TAP	48	96	2
TAP	48	96	4
TAP	48	192	0
TAP	48	192	7
TAP	48	288	3
TAP	48	288	5
TAP	48	336	3
TAP	48	336	5
TAP	49	48	0
TAP	49	96	1
TAP	49	96	7
TAP	49	144	2
TAP	49	144	6
TAP	49	240	1
TAP	49	240	5
TAP	49	288	1
TAP	49	288	5
TAP	50	0	7
TAP	50	48	0
TAP	50	48	6
TAP	50	96	1
TAP	50	96	5
TAP	50	144	2
TAP	50	192	3
TAP	50	192	6
TAP	50	240	5
TAP	50	288	1
STR	50	288	4
SCR	50	288	4	96	288	3
TAP	50	336	0
STR	52	0	0
SLR	52	0	0	96	48	4
HLD	52	0	4	48
BRK	52	96	0
STR	52	96	6
SI_	52	96	6	96	48	2
STR	52	192	4
SI_	52	192	4	96	48	0
TAP	52	192	6
TAP	52	288	4
STR	52	288	6
SI_	52	288	6	96	32	4
STR	53	0	0
SLR	53	0	0	96	48	4
TAP	53	0	6
TAP	53	96	0
STR	53	96	6
SI_	53	96	6	96	32	0
STR	53	192	4
SI_	53	192	4	96	48	0
TAP	53	192	6
TAP	53	288	4
STR	53	288	6
SI_	53	288	6	96	48	2
STR	54	0	0
SLR	54	0	0	96	48	4
TAP	54	0	6
TAP	54	96	0
STR	54	96	6
SI_	54	96	6	96	32	0
STR	54	192	4
SI_	54	192	4	96	48	0
TAP	54	192	6
TAP	54	288	4
STR	54	288	6
SI_	54	288	6	96	32	4
STR	55	0	0
SLR	55	0	0	96	48	4
TAP	55	0	6
TAP	55	96	0
STR	55	96	6
SI_	55	96	6	96	48	2
STR	55	192	4
SF_	55	192	4	96	48	0
TAP	55	192	6
TAP	55	288	4
TAP	56	0	3
TAP	56	0	5
TAP	56	48	2
TAP	56	48	6
TAP	56	96	1
STR	56	96	7
SLL	56	96	7	96	48	3
STR	56	192	1
SI_	56	192	1	96	48	5
TAP	56	192	7
TAP	56	288	1
STR	56	288	3
SI_	56	288	3	96	48	7
STR	57	0	1
SI_	57	0	1	96	32	3
TAP	57	0	3
TAP	57	96	1
STR	57	96	7
SLL	57	96	7	96	48	3
STR	57	192	1
SI_	57	192	1	96	32	7
TAP	57	192	7
TAP	57	288	1
STR	57	288	3
SI_	57	288	3	96	48	7
STR	58	0	1
SLR	58	0	1	96	48	5
TAP	58	0	3
TAP	58	96	0
TAP	58	96	1
STR	58	192	7
SI_	58	192	7	96	48	3
STR	58	240	1
SI_	58	240	1	96	48	5
TAP	58	288	7
BRK	58	336	1
STR	59	48	0
SCR	59	48	0	96	48	3
STR	59	48	7
SCL	59	48	7	96	48	4
TAP	59	96	1
TAP	59	96	6
TAP	59	144	0
TAP	59	144	7
TAP	59	240	1
TAP	59	240	5
STR	59	288	2
SI_	59	288	2	96	48	7
STR	59	288	6
SI_	59	288	6	96	48	3
BRK	60	96	1
BRK	60	96	5
TAP	60	192	3
TAP	60	240	0
TAP	60	240	6
TAP	60	288	4
STR	60	336	1
SI_	60	336	1	96	48	4
TAP	60	336	7
TAP	61	48	1
STR	61	48	5
SI_	61	48	5	96	48	0
TAP	61	96	6
TAP	61	144	3
TAP	61	144	5
TAP	61	240	3
TAP	61	240	4
TAP	61	288	0
STR	61	288	7
SI_	61	288	7	96	48	3
TAP	61	312	1
TAP	61	312	6
TAP	61	336	2
TAP	61	336	5
BRK	62	0	7
TAP	62	48	1
TAP	62	96	0
TAP	62	144	7
TAP	62	192	0
TAP	62	192	6
STR	62	240	1
SI_	62	240	1	96	48	5
TAP	62	240	5
TAP	62	288	2
TAP	62	288	4
XST	62	336	1
SI_	62	336	1	96	32	3
XST	62	336	5
SI_	62	336	5	96	32	7
XST	63	48	1
SI_	63	48	1	96	32	7
XST	63	48	5
SI_	63	48	5	96	32	3
XST	63	144	1
SLR	63	144	1	96	72	7
XST	63	144	5
SLR	63	144	5	96	72	3
XTP	63	240	1
XTP	63	240	5
TTP	63	288	0	C	1	M1
TAP	64	48	1
TAP	64	48	5
TAP	64	96	1
TAP	64	96	5
TAP	64	192	2
TAP	64	192	3
TAP	64	240	7
STR	64	288	4
SCR	64	288	4	96	144	3
TAP	64	288	5
TAP	64	336	0
TTP	65	0	0	C	1	M1
TAP	65	192	2
TAP	65	192	5
TAP	65	240	1
TAP	65	240	6
TAP	65	288	0
TAP	65	288	7
TAP	65	320	0
TAP	65	320	7
TAP	65	352	0
TAP	65	352	7
STR	66	0	1
SI_	66	0	1	96	48	4
STR	66	0	6
SI_	66	0	6	96	48	3
TAP	66	48	2
TAP	66	48	5
TAP	66	96	1
TAP	66	96	6
STR	66	192	0
SCR	66	192	0	96	48	3
STR	66	240	7
SCL	66	240	7	96	48	4
TAP	66	288	0
TAP	66	336	7
TAP	67	48	2
TAP	67	48	3
TAP	67	96	0
TAP	67	96	7
TAP	67	144	4
STR	67	144	5
SLL	67	144	5	96	72	6
TAP	67	240	3
STR	67	288	1
SI_	67	288	1	96	48	5
BRK	68	0	1
XHO	68	0	7	576
TAP	68	192	6
TAP	68	288	5
TAP	69	0	4
TAP	69	48	4
TAP	69	96	4
STR	69	192	3
SI_	69	192	3	96	48	0
STR	69	288	6
SI_	69	288	6	96	48	2
XHO	70	0	0	576
TAP	70	96	1
TAP	70	144	1
TAP	70	192	1
TAP	70	288	2
TAP	71	0	3
TAP	71	48	3
TAP	71	96	3
STR	71	192	4
SI_	71	192	4	96	48	7
STR	71	288	1
SI_	71	288	1	96	48	5
XHO	72	0	6	96
TAP	72	96	4
TAP	72	144	3
HLD	72	192	5	96
TAP	72	288	4
TAP	72	336	5
HLD	73	0	2	96
TAP	73	96	3
TAP	73	144	4
HLD	73	192	1	96
TAP	73	288	3
TAP	73	336	2
HLD	74	0	5	48
TAP	74	48	4
HLD	74	96	2	48
TAP	74	144	3
HLD	74	192	6	48
TAP	74	240	5
HLD	74	288	1	48
TAP	74	336	2
TTP	75	0	0	E	0	M1
TTP	75	24	7	E	0	M1
TTP	75	48	6	E	0	M1
TTP	75	72	5	E	0	M1
TTP	75	96	4	E	0	M1
TTP	75	120	3	E	0	M1
TTP	75	144	2	E	0	M1
TTP	75	168	1	E	0	M1
TTP	75	192	0	E	0	M1
BRK	75	288	0
BRK	75	288	7
TAP	76	0	5
TAP	76	24	4
TAP	76	48	6
TAP	76	96	6
TAP	76	120	7
TAP	76	168	0
TAP	76	168	5
TAP	76	216	1
TAP	76	240	3
TAP	76	288	3
TAP	76	312	2
TAP	76	360	1
TAP	76	360	5
TAP	77	24	6
TAP	77	48	4
TAP	77	96	4
TAP	77	120	5
TAP	77	168	2
TAP	77	168	6
TAP	77	216	0
TAP	77	240	7
TAP	77	288	7
TAP	77	312	6
TAP	77	336	5
TAP	77	360	4
TAP	78	0	1
TAP	78	24	0
TAP	78	48	1
TAP	78	96	2
TAP	78	120	3
TAP	78	168	1
TAP	78	168	4
TAP	78	216	6
TAP	78	240	4
TAP	78	288	4
TAP	78	312	5
TAP	78	360	3
TAP	78	360	6
TAP	79	24	2
TAP	79	48	3
TAP	79	96	1
TAP	79	120	0
TAP	79	168	2
TAP	79	168	7
TAP	79	216	4
TAP	79	240	3
STR	79	288	1
SI_	79	288	1	96	48	4
STR	79	288	5
SI_	79	288	5	96	48	0
TAP	80	0	1
TAP	80	0	5
TAP	80	96	6
TAP	80	120	7
TAP	80	144	6
TAP	80	168	7
TAP	80	216	3
TAP	80	240	4
TAP	80	288	1
TAP	80	312	0
TAP	80	336	1
TAP	80	360	0
TAP	81	24	4
TAP	81	48	3
TAP	81	96	0
TAP	81	120	7
TAP	81	144	1
TAP	81	168	6
TAP	81	216	3
TAP	81	216	4
TAP	81	240	3
TAP	81	240	4
XTP	81	288	6
TAP	81	304	5
TAP	81	320	4
XTP	81	336	1
TAP	81	352	2
TAP	81	368	3
XST	82	0	7
SI_	82	0	7	96	48	3
XTP	82	48	1
XTP	82	48	5
BRK	82	96	7
STR	82	192	1
SCL	82	192	1	96	168	2
STR	82	240	7
SCL	82	240	7	96	168	0
STR	82	288	5
SCL	82	288	5	96	168	6
STR	82	336	3
SCL	82	336	3	96	168	4
TTP	83	288	0	B	0	M1
TTP	83	288	0	C	1	M1
TTP	83	288	0	E	0	M1
TTP	83	288	3	B	0	M1
TTP	83	288	4	B	0	M1
TTP	83	288	4	E	0	M1
TTP	83	288	7	B	0	M1

T_REC_TAP	467
T_REC_BRK	27
T_REC_XTP	45
T_REC_HLD	20
T_REC_XHO	3
T_REC_STR	72
T_REC_BST	0
T_REC_XST	9
T_REC_TTP	56
T_REC_THO	2
T_REC_SLD	81
T_REC_ALL	782
T_NUM_TAP	649
T_NUM_BRK	27
T_NUM_HLD	25
T_NUM_SLD	81
T_NUM_ALL	782
T_JUDGE_TAP	676
T_JUDGE_HLD	91
T_JUDGE_SLD	81
T_JUDGE_ALL	848
TTM_EACHPAIRS	177
TTM_SCR_TAP	324500
TTM_SCR_BRK	70200
TTM_SCR_HLD	25000
TTM_SCR_SLD	121500
TTM_SCR_ALL	541200
TTM_SCR_S	522350
TTM_SCR_SS	538500
TTM_RAT_ACV	10050

