VERSION	0.00.00	1.03.00
FES_MODE	0
BPM_DEF	157.000	157.000	157.000	157.000
MET_DEF	4	4
RESOLUTION	384
CLK_DEF	384
COMPATIBLE_CODE	MA2

BPM	0	0	157.000
MET	0	0	4	4

BRK	2	0	2
HLD	2	0	4	288
STR	2	288	3
SXR	2	288	3	96	288	4
HLD	4	0	5	288
TAP	4	288	4
TAP	5	0	4
TAP	5	96	4
STR	5	96	6
SUL	5	96	6	96	240	3
TAP	6	192	2
TAP	6	288	2
TAP	7	0	2
STR	7	0	3
SUR	7	0	3	96	192	5
TAP	8	96	4
TAP	8	96	5
TAP	8	192	3
TAP	8	192	4
STR	8	288	2
SI_	8	288	2	96	192	6
STR	8	288	3
SI_	8	288	3	96	192	7
XTP	9	288	6
XTP	9	288	7
XHO	10	0	0	528
XHO	10	0	5	528
XTP	11	288	4
XTP	11	288	5
BRK	12	0	3
BRK	12	0	6
XTP	12	192	1
XTP	12	192	4
XHO	12	336	0	336
XHO	12	336	3	336
BRK	14	0	0
BRK	14	0	3
XTP	14	192	1
XTP	14	192	4
XHO	14	336	3	336
XHO	14	336	6	336
BRK	16	0	3
BRK	16	0	6
XTP	16	192	1
XTP	16	192	4
HLD	16	336	0	192
HLD	16	336	3	192
TAP	17	240	0
TAP	17	288	0
XTP	18	0	2
HLD	18	0	6	672
TAP	18	192	3
TAP	18	288	3
TAP	19	0	4
TAP	19	96	4
TAP	19	192	5
TAP	19	288	7
HLD	20	0	1	576
TAP	20	0	5
TAP	20	192	3
TAP	20	288	3
TAP	21	0	2
TAP	21	96	2
TAP	21	192	0
TAP	21	288	0
TAP	21	288	1
HLD	22	0	2	96
HLD	22	0	3	96
HLD	22	192	4	96
HLD	22	192	5	96
HLD	23	0	6	96
HLD	23	0	7	96
HLD	23	192	0	96
HLD	23	192	1	96
TAP	24	0	0
TAP	24	0	1
TAP	24	96	6
TAP	24	96	7
STR	24	192	0
SLR	24	192	0	96	288	7
STR	24	192	5
SLL	24	192	5	96	288	6
XTP	25	288	0
XTP	25	288	5
HLD	26	0	1	96
HLD	26	0	4	96
HLD	26	192	2	96
HLD	26	192	3	96
HLD	27	0	4	96
HLD	27	0	5	96
TAP	27	192	4
TAP	27	192	5
XTP	27	288	3
XTP	27	288	6
TAP	28	0	1
TAP	28	48	1
TAP	28	96	3
TAP	28	192	2
TAP	28	192	3
TAP	28	288	4
TAP	28	288	5
TAP	29	0	6
TAP	29	0	7
TAP	29	96	0
TAP	29	96	1
TAP	29	192	2
TAP	29	192	7
TAP	29	288	2
TAP	29	288	7
TAP	30	0	6
TAP	30	48	6
TAP	30	96	4
TAP	30	192	4
TAP	30	192	5
TAP	30	288	2
TAP	30	288	3
TAP	31	0	0
TAP	31	0	1
TAP	31	96	6
TAP	31	96	7
TAP	31	192	0
TAP	31	192	5
TAP	31	288	0
TAP	31	288	5
TAP	32	0	7
TAP	32	48	7
TAP	32	96	1
TAP	32	192	2
TAP	32	192	3
TAP	32	288	4
TAP	32	288	5
TAP	33	0	6
TAP	33	0	7
TAP	33	96	0
TAP	33	96	5
TAP	33	192	0
TAP	33	192	1
TAP	33	288	2
TAP	33	288	7
TAP	34	0	5
TAP	34	48	5
TAP	34	96	4
STR	34	192	3
SLL	34	192	3	96	288	5
STR	34	192	6
SLR	34	192	6	96	288	4
XTP	35	288	3
XTP	35	288	6
TAP	36	0	0
TAP	36	96	1
TAP	36	144	1
TAP	36	192	3
TAP	36	240	3
TAP	36	288	2
TAP	37	0	3
TAP	37	0	5
TAP	37	96	0
TAP	37	96	7
TAP	37	192	2
TAP	37	192	4
TAP	37	288	1
TAP	37	336	1
TAP	38	0	6
TAP	38	48	6
TAP	38	96	4
TAP	38	144	4
TAP	38	192	5
TAP	38	288	2
TAP	38	288	7
XTP	39	0	0
XTP	39	0	6
XTP	39	48	0
XTP	39	48	6
XST	39	96	0
SI_	39	96	0	96	48	4
XTP	39	96	6
XTP	39	288	3
XTP	39	288	5
TAP	40	0	6
TAP	40	48	6
TAP	40	96	4
TAP	40	144	4
TAP	40	192	5
TAP	40	288	0
TAP	40	288	6
TAP	41	0	2
TAP	41	0	3
TAP	41	96	1
TAP	41	96	7
TAP	41	192	4
TAP	41	192	5
TAP	41	288	2
TAP	41	288	3
TAP	42	0	0
TAP	42	0	1
TAP	42	48	0
TAP	42	48	1
TAP	42	96	0
TAP	42	96	1
STR	42	192	0
SXL	42	192	0	96	288	3
STR	42	192	7
SXR	42	192	7	96	288	4
BRK	43	288	1
BRK	43	288	6
HLD	44	0	2	768
TAP	44	0	5
TTP	45	0	3	B	0	M1
TTP	45	192	1	B	0	M1
HLD	46	0	7	768
TTP	46	192	4	B	0	M1
TTP	47	0	6	B	0	M1
TTP	47	192	0	C	0	M1
TAP	48	0	1
TAP	48	96	1
TAP	48	192	2
TAP	48	288	2
TAP	48	288	3
TAP	49	0	5
TAP	49	96	4
TAP	49	96	5
TAP	49	192	2
TAP	49	288	1
TAP	49	288	3
TAP	50	0	0
TAP	50	48	0
TAP	50	96	7
TAP	50	144	7
STR	50	192	0
SCR	50	192	0	96	288	7
XTP	51	288	2
XTP	51	288	5
TAP	52	0	3
TAP	52	0	4
TAP	52	96	6
TAP	52	96	7
TAP	52	192	3
TAP	52	192	5
TAP	52	288	0
TAP	52	288	1
TAP	53	0	5
TAP	53	0	6
TAP	53	96	2
TAP	53	96	3
TAP	53	192	0
TAP	53	192	1
TAP	53	240	2
TAP	53	240	7
TAP	53	288	3
TAP	53	288	6
TAP	54	0	3
TAP	54	0	6
TAP	54	96	0
TAP	54	96	1
TAP	54	192	2
TAP	54	192	3
TAP	54	288	6
TAP	54	288	7
TAP	55	0	3
TAP	55	0	5
TAP	55	96	1
TAP	55	96	2
TAP	55	192	6
TAP	55	192	7
TAP	55	240	0
TAP	55	240	5
TAP	55	288	1
TAP	55	288	4
TAP	56	0	3
TAP	56	0	6
TAP	56	96	4
TAP	56	96	5
TAP	56	192	0
TAP	56	192	1
TAP	56	288	2
TAP	56	288	3
TAP	57	0	5
TAP	57	0	6
TAP	57	96	0
TAP	57	96	1
TAP	57	192	2
TAP	57	192	3
TAP	57	240	1
TAP	57	240	4
TAP	57	288	0
TAP	57	288	5
TAP	58	0	6
TAP	58	48	6
TAP	58	96	7
TAP	58	192	0
TAP	58	192	5
TAP	58	288	2
TAP	58	288	3
TAP	58	336	2
TAP	58	336	3
TAP	59	48	3
TAP	59	48	4
TAP	59	144	4
TAP	59	144	5
TAP	59	240	2
TAP	59	240	6
BRK	59	288	2
BRK	59	288	6
STR	60	0	4
SCR	60	0	4	96	48	7
TAP	60	96	2
XTP	60	192	3
XTP	60	192	7
TAP	60	288	2
TAP	60	288	6
TAP	61	0	0
HLD	61	0	1	192
TAP	61	96	2
TAP	61	192	0
TAP	61	288	2
TAP	61	288	4
STR	62	0	3
SCL	62	0	3	96	48	0
TAP	62	96	5
XTP	62	192	0
XTP	62	192	4
XTP	62	288	3
XTP	62	288	6
HLD	63	0	6	48
HLD	63	0	7	48
HLD	63	96	0	48
HLD	63	96	7	48
HLD	63	192	0	48
HLD	63	192	1	48
BRK	63	288	2
BRK	63	288	7
STR	64	0	5
SCR	64	0	5	96	48	0
TAP	64	96	4
XTP	64	192	3
XTP	64	192	7
XTP	64	288	1
XTP	64	288	5
TAP	65	0	2
TAP	65	0	3
TAP	65	96	0
TAP	65	96	1
TAP	65	192	5
TAP	65	192	6
TAP	65	288	2
TAP	65	288	3
TAP	66	0	3
TAP	66	0	5
TAP	66	96	1
TAP	66	96	7
XST	66	192	2
SXR	66	192	2	96	288	7
XST	66	192	6
SXR	66	192	6	96	288	3
XTP	67	288	0
XTP	67	288	4
BRK	68	0	2
XHO	68	0	6	576
TAP	68	192	4
TAP	68	288	4
TAP	69	0	5
TAP	69	96	5
TAP	69	192	7
TAP	69	288	7
XHO	70	0	0	576
BRK	70	0	5
TAP	70	192	3
TAP	70	288	3
TAP	71	0	2
TAP	71	96	2
STR	71	192	3
SI_	71	192	3	96	48	7
XHO	72	0	1	96
TAP	72	96	0
HLD	72	192	6	96
TAP	72	288	5
HLD	73	0	2	96
TAP	73	96	3
HLD	73	192	5	96
TAP	73	288	4
TAP	74	0	6
TAP	74	48	6
TAP	74	96	1
TAP	74	144	1
TAP	74	192	7
TAP	74	216	0
TAP	74	240	7
TAP	74	264	0
TAP	74	288	7
TAP	74	312	0
TAP	74	336	7
TAP	74	360	0
STR	75	0	7
SF_	75	0	7	96	96	3
XTP	75	288	1
XTP	75	288	5
BST	76	0	6
SI_	76	0	6	96	48	4
STR	76	96	7
SI_	76	96	7	96	48	1
STR	76	192	6
SI_	76	192	6	96	48	2
STR	76	288	7
SI_	76	288	7	96	48	3
STR	77	0	6
SI_	77	0	6	96	48	2
STR	77	96	0
SCR	77	96	0	96	48	3
STR	77	192	7
SCL	77	192	7	96	48	4
STR	77	288	1
SCR	77	288	1	96	48	4
STR	78	0	0
SI_	78	0	0	96	48	6
STR	78	96	1
SI_	78	96	1	96	48	3
STR	78	192	0
SI_	78	192	0	96	48	4
STR	78	288	1
SI_	78	288	1	96	48	5
STR	79	0	7
SI_	79	0	7	96	48	3
STR	79	96	2
SI_	79	96	2	96	48	6
TAP	79	192	4
BRK	79	288	1
BRK	79	288	7
STR	80	0	2
SI_	80	0	2	96	48	7
TAP	80	0	6
STR	80	96	3
SI_	80	96	3	96	48	6
STR	80	192	1
SI_	80	192	1	96	48	4
XTP	80	288	7
STR	81	0	6
SI_	81	0	6	96	48	3
STR	81	96	7
SI_	81	96	7	96	48	2
STR	81	192	5
SI_	81	192	5	96	48	0
XTP	81	288	3
XTP	82	0	1
XTP	82	0	7
XTP	82	48	1
XTP	82	48	7
BRK	82	96	2
BRK	82	96	6
STR	82	192	4
SXL	82	192	4	96	288	0
SXR	82	192	4	96	288	0
TAP	82	192	5
BRK	83	288	2
BRK	83	288	6

T_REC_TAP	258
T_REC_BRK	21
T_REC_XTP	46
T_REC_HLD	32
T_REC_XHO	9
T_REC_STR	37
T_REC_BST	1
T_REC_XST	3
T_REC_TTP	5
T_REC_THO	0
T_REC_SLD	42
T_REC_ALL	454
T_NUM_TAP	349
T_NUM_BRK	22
T_NUM_HLD	41
T_NUM_SLD	42
T_NUM_ALL	454
T_JUDGE_TAP	371
T_JUDGE_HLD	198
T_JUDGE_SLD	42
T_JUDGE_ALL	611
TTM_EACHPAIRS	141
TTM_SCR_TAP	174500
TTM_SCR_BRK	57200
TTM_SCR_HLD	41000
TTM_SCR_SLD	63000
TTM_SCR_ALL	335700
TTM_SCR_S	323500
TTM_SCR_SS	333500
TTM_RAT_ACV	10065

