VERSION	0.00.00	1.03.00
FES_MODE	0
BPM_DEF	157.000	157.000	157.000	157.000
MET_DEF	4	4
RESOLUTION	384
CLK_DEF	384
COMPATIBLE_CODE	MA2

BPM	0	0	157.000
MET	0	0	4	4

HLD	2	0	2	384
HLD	3	0	3	384
HLD	4	0	4	384
TAP	5	0	5
HLD	6	0	6	384
HLD	7	0	7	384
HLD	8	0	0	384
TAP	9	0	1
STR	10	0	0
SXL	10	0	0	96	480	3
STR	10	0	7
SXR	10	0	7	96	480	4
XTP	12	0	3
XTP	12	0	4
XTP	12	192	4
XTP	12	192	5
XHO	12	336	4	240
XHO	12	336	5	240
XTP	14	0	3
XTP	14	0	4
XTP	14	192	2
XTP	14	192	3
XHO	14	336	2	240
XHO	14	336	3	240
XTP	16	0	3
XTP	16	0	4
XTP	16	192	4
XTP	16	192	5
XHO	16	336	4	240
XHO	16	336	5	240
TTP	18	0	4	E	0	L1
TTP	18	192	5	E	0	L1
TTP	19	0	6	E	0	L1
TTP	19	192	7	E	0	L1
TTP	20	0	0	E	0	L1
TTP	20	192	1	E	0	L1
TTP	21	0	2	E	0	L1
TTP	21	192	3	E	0	L1
XHO	22	0	5	192
HLD	22	192	4	192
HLD	23	0	3	192
TAP	23	192	2
TAP	24	0	1
TAP	24	96	0
TAP	24	192	7
STR	24	288	6
SCL	24	288	6	96	288	1
THO	26	0	0	384	C	0	L1
TAP	28	0	7
TAP	28	96	7
TAP	28	192	6
TAP	28	192	7
TAP	29	0	1
TAP	29	96	1
TAP	29	192	0
TAP	29	192	1
TAP	30	0	6
TAP	30	96	6
TAP	30	192	6
TAP	30	192	7
TAP	31	0	0
TAP	31	96	0
TAP	31	192	1
TAP	31	192	7
TAP	32	0	2
TAP	32	96	2
TAP	32	192	2
TAP	32	192	3
TAP	33	0	5
TAP	33	96	5
TAP	33	192	4
TAP	33	192	5
TAP	34	0	2
TAP	34	96	2
TAP	34	192	3
STR	34	288	3
SI_	34	288	3	96	144	0
STR	34	288	4
SI_	34	288	4	96	144	7
TAP	36	0	6
XTP	36	96	6
TAP	36	192	7
TAP	36	288	7
TAP	37	0	0
TAP	37	96	0
TAP	37	192	1
TAP	37	192	7
TAP	38	0	2
TAP	38	96	2
TAP	38	192	3
TAP	38	288	3
TAP	39	0	4
TAP	39	96	4
TAP	39	192	3
TAP	39	192	5
TAP	40	0	5
TAP	40	96	5
TAP	40	192	4
TAP	40	288	4
TAP	41	0	3
TAP	41	96	3
TAP	41	192	2
TAP	41	192	4
XTP	42	0	0
XTP	42	0	1
XTP	42	192	6
XTP	42	192	7
TAP	43	0	0
TAP	43	0	7
TAP	43	96	0
TAP	43	96	7
TAP	43	192	1
TAP	43	192	6
TTP	44	0	6	E	0	L1
TTP	44	96	5	B	0	L1
TTP	44	192	4	B	0	L1
TTP	45	0	2	E	0	L1
TTP	45	96	2	B	0	L1
TTP	45	192	3	B	0	L1
TTP	46	0	6	E	0	L1
TTP	46	96	5	B	0	L1
TTP	46	192	4	B	0	L1
TTP	47	0	2	E	0	L1
TTP	47	96	2	B	0	L1
TTP	47	192	3	B	0	L1
XST	48	0	5
SI_	48	0	5	96	144	0
STR	49	0	1
SI_	49	0	1	96	144	5
STR	50	0	6
SI_	50	0	6	96	144	3
TAP	51	0	2
TAP	51	96	2
TAP	51	192	3
TAP	51	192	4
BRK	52	0	5
TAP	52	96	5
TAP	52	192	4
TAP	52	192	5
TAP	52	288	4
TAP	52	288	5
TAP	53	0	6
TAP	53	96	7
TAP	53	192	0
TAP	53	288	1
TAP	54	0	2
TAP	54	96	2
TAP	54	192	2
TAP	54	192	3
TAP	54	288	2
TAP	54	288	3
TAP	55	0	1
TAP	55	96	0
TAP	55	192	1
TAP	55	192	7
TAP	56	0	6
TAP	56	96	6
TAP	56	192	6
TAP	56	192	7
TAP	56	288	6
TAP	56	288	7
TAP	57	0	5
TAP	57	96	4
TAP	57	192	3
TAP	57	288	2
TAP	58	0	1
TAP	58	48	1
TAP	58	96	1
TAP	58	192	0
TAP	58	240	0
STR	58	288	0
SLR	58	288	0	96	192	4
XTP	59	288	3
XTP	59	288	5
TAP	60	0	2
TAP	60	96	1
TAP	60	96	3
TAP	60	192	2
TAP	60	240	2
TAP	60	288	2
TAP	61	0	3
TAP	61	96	3
TAP	61	96	4
TAP	61	192	5
TAP	61	240	5
TAP	61	288	5
TAP	62	0	4
TAP	62	96	3
TAP	62	96	5
TAP	62	192	2
TAP	62	240	2
TAP	62	288	2
XTP	63	0	1
XTP	63	96	0
XTP	63	96	1
XTP	63	192	6
XTP	63	192	7
XTP	63	288	4
XTP	63	288	5
TAP	64	0	3
TAP	64	96	2
TAP	64	96	4
TAP	64	192	1
TAP	64	240	1
TAP	64	288	1
HLD	65	0	0	96
HLD	65	0	1	96
HLD	65	192	6	96
HLD	65	192	7	96
TAP	66	0	0
TAP	66	0	7
TAP	66	48	0
TAP	66	48	7
TAP	66	96	0
TAP	66	96	7
TAP	66	192	1
TAP	66	192	6
TAP	66	240	1
TAP	66	240	6
TAP	66	288	1
TAP	66	288	6
BST	66	336	1
SI_	66	336	1	96	144	4
BST	66	336	6
SI_	66	336	6	96	144	3
HLD	68	0	5	192
HLD	68	192	4	192
HLD	69	0	3	192
TAP	69	192	2
HLD	70	0	1	192
HLD	70	192	0	192
HLD	71	0	7	192
TAP	71	192	6
TAP	72	0	5
TAP	72	96	4
TAP	72	192	3
TAP	72	288	2
TAP	73	0	1
TAP	73	96	0
TAP	73	192	7
TAP	73	288	6
TAP	74	0	0
TAP	74	48	0
TAP	74	96	0
TAP	74	192	7
TAP	74	240	7
TAP	74	288	7
STR	75	0	0
SI_	75	0	0	96	144	3
STR	75	0	7
SI_	75	0	7	96	144	4
TAP	76	0	5
TAP	76	48	5
TAP	76	96	5
TAP	76	192	4
TAP	76	192	6
TAP	76	288	3
TAP	76	288	5
TAP	77	0	2
TAP	77	48	2
TAP	77	96	2
TAP	77	192	1
TAP	77	192	3
TAP	77	288	2
TAP	77	288	4
TAP	78	0	5
TAP	78	48	5
TAP	78	96	5
TAP	78	192	4
TAP	78	192	6
TAP	78	288	3
TAP	78	288	5
TAP	79	0	2
TAP	79	48	2
TAP	79	96	2
TAP	79	192	3
TAP	79	192	4
TAP	79	288	2
TAP	79	288	5
TAP	80	0	6
TAP	80	48	6
TAP	80	96	6
TAP	80	192	6
TAP	80	192	7
TAP	80	288	0
TAP	80	288	5
TAP	81	0	1
TAP	81	48	1
TAP	81	96	1
TAP	81	192	0
TAP	81	192	1
TAP	81	288	2
TAP	81	288	7
TAP	82	0	6
TAP	82	48	6
TAP	82	96	6
TAP	82	192	0
TAP	82	192	7
TAP	82	240	0
TAP	82	240	7
TAP	82	288	0
TAP	82	288	7
TAP	82	336	0
TAP	82	336	7
TAP	83	48	1
TAP	83	48	6
HLD	83	144	2	144
HLD	83	144	5	144

T_REC_TAP	207
T_REC_BRK	1
T_REC_XTP	26
T_REC_HLD	20
T_REC_XHO	7
T_REC_STR	10
T_REC_BST	2
T_REC_XST	1
T_REC_TTP	20
T_REC_THO	1
T_REC_SLD	13
T_REC_ALL	308
T_NUM_TAP	264
T_NUM_BRK	3
T_NUM_HLD	28
T_NUM_SLD	13
T_NUM_ALL	308
T_JUDGE_TAP	267
T_JUDGE_HLD	136
T_JUDGE_SLD	13
T_JUDGE_ALL	416
TTM_EACHPAIRS	69
TTM_SCR_TAP	132000
TTM_SCR_BRK	7800
TTM_SCR_HLD	28000
TTM_SCR_SLD	19500
TTM_SCR_ALL	187300
TTM_SCR_S	181400
TTM_SCR_SS	187000
TTM_RAT_ACV	10016

