VERSION	0.00.00	1.03.00
FES_MODE	0
BPM_DEF	157.000	157.000	157.000	157.000
MET_DEF	4	4
RESOLUTION	384
CLK_DEF	384
COMPATIBLE_CODE	MA2

BPM	0	0	157.000
MET	0	0	4	4

TAP	2	0	0
TAP	3	0	0
HLD	4	0	0	384
TAP	6	0	7
TAP	7	0	7
HLD	8	0	7	384
XST	10	0	7
SI_	10	0	7	96	288	4
STR	12	0	0
SI_	12	0	0	96	288	3
STR	14	0	7
SI_	14	0	7	96	288	3
STR	16	0	0
SI_	16	0	0	96	288	4
XTP	18	0	7
TAP	19	0	6
TAP	20	0	5
TAP	21	0	4
TAP	22	0	3
TAP	23	0	2
TAP	24	0	1
HLD	25	0	0	384
HLD	25	0	7	384
XTP	27	0	0
XTP	27	0	7
BRK	28	0	0
TAP	28	192	0
TAP	29	0	0
TAP	30	0	1
TAP	30	192	1
TAP	31	0	1
TAP	32	0	2
TAP	32	192	2
TAP	33	0	2
TAP	34	0	3
TAP	34	192	3
XTP	35	0	3
XTP	35	0	4
TAP	36	0	4
TAP	36	192	4
TAP	37	0	4
TAP	37	192	4
TAP	38	0	5
TAP	38	192	5
TAP	39	0	5
TAP	40	0	6
TAP	40	192	6
TAP	41	0	6
TAP	41	192	6
TAP	42	0	7
TAP	42	192	7
XTP	43	0	0
XTP	43	0	7
TTP	44	0	7	B	0	L1
TTP	45	0	0	B	0	L1
TTP	46	0	6	B	0	L1
TTP	47	0	1	B	0	L1
TTP	48	0	5	B	0	L1
TTP	49	0	2	B	0	L1
TTP	50	0	4	B	0	L1
TTP	51	0	0	C	0	L1
XTP	52	0	7
TAP	52	192	7
TAP	53	0	6
TAP	53	96	6
TAP	53	192	6
TAP	54	0	5
TAP	54	192	5
TAP	55	0	3
TAP	55	0	4
TAP	55	192	3
TAP	55	192	4
TAP	56	0	3
TAP	56	192	3
TAP	57	0	2
TAP	57	96	2
TAP	57	192	2
TAP	58	0	1
TAP	58	192	1
XTP	59	0	0
XTP	59	0	7
HLD	60	0	1	192
TAP	61	0	2
TAP	61	96	2
TAP	61	192	2
HLD	62	0	3	192
TAP	63	0	4
TAP	63	96	4
TAP	63	192	4
HLD	64	0	5	192
TAP	65	0	6
TAP	65	96	6
TAP	65	192	6
HLD	66	0	7	192
TAP	67	0	7
TAP	67	192	7
STR	68	0	7
SI_	68	0	7	96	288	2
STR	70	0	1
SI_	70	0	1	96	288	4
STR	72	0	5
SI_	72	0	5	96	288	0
TAP	74	0	7
TAP	74	192	7
HLD	75	0	0	192
HLD	75	0	7	192
BRK	76	0	6
TAP	76	96	6
TAP	76	192	6
TAP	77	0	5
TAP	77	96	5
TAP	77	192	4
TAP	77	192	5
TAP	78	0	3
TAP	78	96	3
TAP	78	192	3
TAP	79	0	2
TAP	79	96	2
TAP	79	192	2
TAP	79	192	3
TAP	80	0	1
TAP	80	96	1
TAP	80	192	1
TAP	81	0	0
TAP	81	0	7
TAP	81	96	0
TAP	81	96	7
TAP	81	192	0
TAP	81	192	7
TAP	82	0	6
TAP	82	96	6
TAP	82	192	7
TAP	82	288	7
TAP	83	0	0
TAP	83	96	0
XTP	83	192	0
XTP	83	192	7
XTP	83	288	0
XTP	83	288	7

T_REC_TAP	91
T_REC_BRK	2
T_REC_XTP	14
T_REC_HLD	10
T_REC_XHO	0
T_REC_STR	6
T_REC_BST	0
T_REC_XST	1
T_REC_TTP	8
T_REC_THO	0
T_REC_SLD	7
T_REC_ALL	139
T_NUM_TAP	120
T_NUM_BRK	2
T_NUM_HLD	10
T_NUM_SLD	7
T_NUM_ALL	139
T_JUDGE_TAP	122
T_JUDGE_HLD	56
T_JUDGE_SLD	7
T_JUDGE_ALL	185
TTM_EACHPAIRS	15
TTM_SCR_TAP	60000
TTM_SCR_BRK	5200
TTM_SCR_HLD	10000
TTM_SCR_SLD	10500
TTM_SCR_ALL	85700
TTM_SCR_S	82950
TTM_SCR_SS	85500
TTM_RAT_ACV	10023

