VERSION	0.00.00	1.03.00
FES_MODE	0
BPM_DEF	155.000	155.000	180.000	155.000
MET_DEF	4	4
RESOLUTION	384
CLK_DEF	384
COMPATIBLE_CODE	MA2

BPM	0	0	155.000
BPM	73	0	160.000
BPM	74	0	165.000
BPM	75	0	170.000
BPM	76	0	175.000
BPM	77	0	180.000
MET	0	0	4	4

BRK	1	0	3
BST	1	0	4
SSL	1	0	4	96	120	0
SSR	1	0	4	96	120	0
TAP	1	288	2
TAP	1	288	6
XTP	2	0	3
XTP	2	0	5
TTP	2	96	2	B	0	M1
TTP	2	96	2	E	0	M1
TTP	2	96	6	B	0	M1
TTP	2	96	7	E	0	M1
TTP	2	192	5	E	0	M1
TTP	2	240	4	E	0	M1
TTP	2	288	3	E	0	M1
TTP	2	336	6	E	0	M1
TTP	2	352	6	B	0	M1
TTP	2	368	7	B	0	M1
TTP	3	0	0	E	0	M1
TTP	3	48	3	E	0	M1
TTP	3	96	2	E	0	M1
TTP	3	144	1	E	0	M1
THO	3	192	0	96	C	0	M1
XTP	4	0	1
XTP	4	0	3
TTP	4	96	1	B	0	M1
TTP	4	96	1	E	0	M1
TTP	4	96	4	B	0	M1
TTP	4	96	4	E	0	M1
TTP	4	192	6	B	0	M1
TTP	4	192	6	E	0	M1
TTP	4	240	1	B	0	M1
TTP	4	240	2	E	0	M1
TTP	4	288	5	B	0	M1
TTP	4	312	2	B	0	M1
TTP	4	336	4	B	0	M1
TTP	4	360	3	B	0	M1
TTP	5	0	0	C	0	M1
TTP	5	72	1	E	0	M1
TTP	5	96	1	B	0	M1
TTP	5	144	6	B	0	M1
TTP	5	144	7	E	0	M1
THO	5	192	0	96	C	0	M1
XTP	6	0	4
XTP	6	0	6
TAP	6	48	4
TAP	6	48	6
TTP	6	96	2	B	0	M1
TTP	6	96	2	E	0	M1
TTP	6	96	6	B	0	M1
TTP	6	96	7	E	0	M1
TTP	6	192	5	E	0	M1
TTP	6	240	4	E	0	M1
TTP	6	288	3	E	0	M1
TTP	6	336	6	E	0	M1
TTP	6	352	6	B	0	M1
TTP	6	368	7	B	0	M1
TTP	7	0	0	E	0	M1
TTP	7	48	3	E	0	M1
TTP	7	96	2	E	0	M1
TTP	7	144	1	E	0	M1
THO	7	192	0	96	C	0	M1
XHO	8	0	1	96
XHO	8	0	3	96
XHO	8	144	4	96
XHO	8	144	6	96
XTP	8	288	0
XTP	8	288	7
BST	9	0	2
SUL	9	0	2	96	144	1
BST	9	0	5
SUR	9	0	5	96	144	6
TAP	9	288	0
TAP	9	288	7
STR	10	0	1
SI_	10	0	1	96	48	4
STR	10	0	5
SI_	10	0	5	96	48	0
BRK	10	96	1
BRK	10	96	5
TTP	10	192	3	E	0	M1
TTP	10	240	4	E	0	M1
TTP	10	288	5	E	0	M1
TTP	10	336	2	E	0	M1
TTP	10	352	1	B	0	M1
TTP	10	368	0	B	0	M1
TTP	11	0	0	E	0	M1
XTP	11	48	5
XST	11	96	6
SUL	11	96	6	96	120	5
TAP	11	144	7
TTP	11	192	0	C	1	M1
STR	12	0	2
SI_	12	0	2	96	48	7
STR	12	0	6
SI_	12	0	6	96	48	3
BRK	12	96	2
BRK	12	96	6
TTP	12	192	1	B	0	M1
TTP	12	192	2	E	0	M1
TTP	12	240	6	B	0	M1
TTP	12	240	6	E	0	M1
TTP	12	288	2	B	0	M1
TTP	12	312	5	B	0	M1
TTP	12	336	3	B	0	M1
TTP	12	360	4	B	0	M1
TTP	13	0	0	C	0	M1
XTP	13	72	0
XST	13	96	0
SCR	13	96	0	96	96	5
TAP	13	144	7
TTP	13	192	0	C	1	M1
STR	14	0	1
SI_	14	0	1	96	48	4
STR	14	0	5
SI_	14	0	5	96	48	0
XTP	14	48	0
XTP	14	48	4
BRK	14	96	1
BRK	14	96	5
TTP	14	192	3	E	0	M1
TTP	14	240	4	E	0	M1
TTP	14	288	5	E	0	M1
TTP	14	336	2	E	0	M1
TTP	14	352	1	B	0	M1
TTP	14	368	0	B	0	M1
TTP	15	0	0	E	0	M1
XTP	15	48	5
XST	15	96	6
SUL	15	96	6	96	120	4
TAP	15	144	7
TTP	15	192	0	C	1	M1
BRK	16	0	0
BRK	16	0	7
TAP	16	96	4
TAP	16	96	5
BRK	16	144	3
BRK	16	144	6
TAP	16	240	2
TAP	16	240	3
BRK	16	288	1
BRK	16	288	4
BST	17	0	0
SUR	17	0	0	96	120	2
BST	17	0	7
SUL	17	0	7	96	120	5
STR	17	288	3
SI_	17	288	3	96	48	0
TAP	17	288	4
BRK	18	0	7
TAP	18	96	3
TAP	18	96	5
TAP	18	144	6
TAP	18	192	3
TAP	18	192	5
TAP	18	240	2
TAP	18	288	5
TAP	18	312	4
TAP	18	360	4
TAP	19	0	6
TAP	19	96	2
TAP	19	96	3
TAP	19	144	1
TAP	19	192	2
TAP	19	216	3
TAP	19	264	3
TAP	19	288	1
TAP	19	336	0
TAP	19	336	4
BRK	20	0	1
BRK	20	0	5
TAP	20	96	4
TAP	20	96	5
TAP	20	144	6
TAP	20	192	4
TAP	20	192	5
TAP	20	240	3
STR	20	288	5
SI_	20	288	5	96	48	0
TAP	20	312	4
TAP	20	360	4
BST	21	0	5
SI_	21	0	5	96	48	1
TAP	21	48	3
BST	21	96	5
SLR	21	96	5	96	96	3
TAP	21	144	3
BRK	21	192	5
TAP	21	240	2
BRK	21	288	0
BRK	22	0	2
BRK	22	0	5
TAP	22	96	3
TAP	22	96	6
TAP	22	144	5
TAP	22	192	1
TAP	22	192	4
TAP	22	240	2
TAP	22	288	5
TAP	22	312	4
TAP	22	360	2
TAP	23	0	3
TAP	23	48	2
TAP	23	48	4
TAP	23	96	5
TAP	23	144	4
TAP	23	144	6
TAP	23	192	3
TAP	23	216	5
TAP	23	240	3
TAP	23	264	5
TAP	23	288	3
TAP	23	312	5
TAP	23	336	3
TAP	23	360	5
TAP	24	0	2
TAP	24	24	4
TAP	24	48	2
TAP	24	72	4
TAP	24	96	1
TAP	24	120	5
TAP	24	144	0
TAP	24	168	6
TAP	24	192	1
TAP	24	216	7
TAP	24	240	3
TAP	24	264	5
TAP	24	288	0
TAP	24	312	6
TAP	24	336	2
TAP	24	360	4
BST	25	0	0
SXL	25	0	0	96	144	4
SXR	25	0	0	96	144	4
BRK	25	288	2
BRK	25	288	6
TAP	26	0	3
TAP	26	0	5
TAP	26	96	5
TAP	26	120	5
TAP	26	144	4
TAP	26	168	4
HLD	26	192	6	72
HLD	26	264	7	72
STR	26	336	0
SCL	26	336	0	96	48	5
TAP	27	48	3
TAP	27	96	2
TAP	27	120	2
TAP	27	144	3
TAP	27	168	3
HLD	27	192	1	72
HLD	27	264	0	72
STR	27	336	7
SCR	27	336	7	96	48	2
TAP	28	48	5
TAP	28	96	6
TAP	28	144	6
TAP	28	192	4
TAP	28	240	4
TAP	28	288	3
TAP	28	336	3
TAP	29	0	1
TAP	29	48	1
STR	29	96	0
SXL	29	96	0	96	144	3
TAP	29	144	0
BRK	29	192	7
TAP	29	288	5
TAP	29	336	5
BRK	30	0	2
BRK	30	0	6
TAP	30	96	2
TAP	30	120	2
TAP	30	144	0
TAP	30	168	0
HLD	30	192	1	72
HLD	30	264	2	72
STR	30	336	3
SI_	30	336	3	96	48	0
TAP	31	48	6
TAP	31	96	5
TAP	31	120	5
TAP	31	144	7
TAP	31	168	7
HLD	31	192	6	72
HLD	31	264	5	72
STR	31	336	4
SI_	31	336	4	96	48	7
XTP	32	0	4
TAP	32	48	1
TAP	32	96	2
TAP	32	120	2
TAP	32	144	0
TAP	32	168	0
HLD	32	192	1	72
HLD	32	264	2	72
TAP	32	336	3
TAP	33	0	3
TAP	33	0	4
TAP	33	48	2
TAP	33	48	5
TAP	33	96	1
TAP	33	96	6
BRK	33	144	7
TAP	33	160	6
TAP	33	176	5
TAP	33	192	3
TAP	33	192	4
TAP	33	208	2
TAP	33	224	1
TAP	33	240	5
STR	33	288	5
SCR	33	288	5	96	48	0
TAP	33	336	4
BST	34	0	3
SSL	34	0	3	96	480	7
SLR	34	0	3	96	480	1
BRK	36	0	1
BRK	36	0	3
HLD	36	48	2	48
HLD	36	48	4	48
HLD	36	144	2	48
HLD	36	144	3	48
HLD	36	240	3	48
HLD	36	240	5	48
HLD	36	336	4	48
HLD	36	336	5	48
HLD	37	48	2	48
HLD	37	48	4	48
TAP	37	144	1
TAP	37	144	3
TAP	37	192	2
TAP	37	240	3
TAP	37	288	4
TAP	37	336	5
BRK	38	0	4
BRK	38	0	6
HLD	38	48	3	48
HLD	38	48	5	48
HLD	38	144	4	48
HLD	38	144	5	48
HLD	38	240	2	48
HLD	38	240	4	48
HLD	38	336	2	48
HLD	38	336	3	48
HLD	39	48	3	48
HLD	39	48	5	48
TAP	39	144	4
TAP	39	144	6
TAP	39	192	5
TAP	39	240	3
TAP	39	240	4
TAP	39	288	2
TAP	39	312	3
TAP	39	336	2
BRK	40	0	1
BRK	40	0	3
HLD	40	48	2	48
HLD	40	48	4	48
HLD	40	144	2	48
TTP	40	144	3	E	0	M1
HLD	40	240	3	48
HLD	40	240	5	48
TTP	40	336	5	E	0	M1
HLD	40	336	5	48
HLD	41	48	2	48
HLD	41	48	4	48
TAP	41	144	1
TTP	41	144	3	E	0	M1
XTP	41	192	2
XTP	41	240	3
TAP	41	288	4
TAP	41	336	5
BRK	42	0	4
BRK	42	0	6
HLD	42	48	3	48
HLD	42	48	5	48
TTP	42	144	4	E	0	M1
HLD	42	144	5	48
HLD	42	240	2	48
HLD	42	240	4	48
TAP	42	336	2
TTP	42	336	4	E	0	M1
XHO	43	0	1	48
XHO	43	0	5	48
HLD	43	96	2	48
HLD	43	96	6	48
XTP	43	192	3
XTP	43	192	5
TAP	43	240	3
TAP	43	240	5
TAP	43	288	2
TAP	43	288	6
TAP	43	336	1
TAP	43	336	5
STR	44	0	0
SI_	44	0	0	96	48	2
STR	44	0	4
SI_	44	0	4	96	48	6
BRK	44	96	0
BRK	44	96	4
TAP	44	192	4
HLD	44	192	6	72
XTP	44	264	7
HLD	44	336	1	72
TAP	44	336	3
XTP	45	24	0
TAP	45	96	4
TAP	45	96	6
TAP	45	144	5
TAP	45	192	1
TAP	45	192	3
TAP	45	240	2
TAP	45	288	3
TAP	45	288	4
TAP	45	336	5
STR	46	0	2
SI_	46	0	2	96	48	0
STR	46	0	6
SI_	46	0	6	96	48	4
BRK	46	96	2
BRK	46	96	6
HLD	46	192	1	72
TAP	46	264	3
TAP	46	288	2
HLD	46	336	6	72
TAP	47	24	4
TAP	47	48	5
HLD	47	96	1	72
TAP	47	144	3
TAP	47	168	3
TAP	47	192	1
TAP	47	240	2
TAP	47	240	4
TAP	47	288	5
TAP	47	336	6
STR	48	0	3
SI_	48	0	3	96	48	1
STR	48	0	7
SI_	48	0	7	96	48	5
TAP	48	48	0
TAP	48	48	4
BRK	48	96	3
BRK	48	96	7
TAP	48	192	1
TAP	48	216	3
TAP	48	264	5
TAP	48	288	4
TAP	48	336	6
TAP	48	360	7
TAP	49	24	1
TAP	49	48	0
TAP	49	96	2
TAP	49	120	3
TAP	49	144	2
TAP	49	168	3
TAP	49	192	1
TAP	49	240	0
TAP	49	240	7
TAP	49	288	6
TAP	49	336	4
TAP	49	336	5
XHO	50	0	3	96
XHO	50	0	6	96
XHO	50	144	1	96
XHO	50	144	4	96
XTP	50	288	0
XTP	50	288	7
BST	51	0	1
SUR	51	0	1	96	144	2
BST	51	0	6
SUL	51	0	6	96	144	5
STR	51	288	3
SI_	51	288	3	96	336	0
TAP	51	288	4
TAP	52	0	4
TAP	52	96	4
TAP	52	192	4
THO	52	288	0	336	C	0	M1
TAP	53	0	0
TAP	53	48	0
TAP	53	96	0
TAP	53	144	0
TAP	53	192	0
TAP	53	240	0
TAP	53	288	0
TAP	53	336	0
TAP	53	336	7
TAP	54	0	0
TAP	54	24	7
TAP	54	48	2
TAP	54	72	5
TAP	54	96	1
TAP	54	120	6
TAP	54	144	3
TAP	54	168	4
TAP	54	192	0
TAP	54	216	7
TAP	54	240	0
TAP	54	264	7
TAP	54	288	1
TAP	54	300	2
TAP	54	312	3
TAP	54	324	4
TAP	54	336	5
TAP	54	348	6
TAP	54	360	7
TAP	54	372	0
BST	55	0	1
SUR	55	0	1	96	120	3
BST	55	0	5
SUL	55	0	5	96	120	3
BST	55	288	0
SI_	55	288	0	96	48	4
BRK	55	288	7
TAP	56	0	0
STR	56	0	5
SI_	56	0	5	96	48	7
TAP	56	48	6
STR	56	96	0
SI_	56	96	0	96	48	2
TAP	56	96	5
TAP	56	144	1
TAP	56	192	0
STR	56	192	6
SI_	56	192	6	96	48	4
STR	56	240	4
SI_	56	240	4	96	48	7
STR	56	288	1
SI_	56	288	1	96	48	3
TAP	56	288	6
TAP	56	336	2
STR	57	0	1
SI_	57	0	1	96	48	7
STR	57	48	6
SI_	57	48	6	96	48	2
STR	57	96	1
SI_	57	96	1	96	48	5
TAP	57	144	6
TAP	57	192	1
TAP	57	240	6
STR	57	288	6
SI_	57	288	6	96	48	3
TAP	57	312	7
TAP	57	360	7
BST	58	0	6
SI_	58	0	6	96	48	0
STR	58	96	2
SI_	58	96	2	96	48	4
TAP	58	96	6
TAP	58	144	3
TAP	58	192	2
STR	58	192	7
SI_	58	192	7	96	48	5
TAP	58	240	6
STR	58	288	1
SI_	58	288	1	96	48	5
TAP	58	288	7
STR	58	336	0
SI_	58	336	0	96	48	4
STR	59	0	1
SCR	59	0	1	96	48	4
TAP	59	48	0
TAP	59	96	1
TAP	59	144	6
TAP	59	168	6
TAP	59	192	6
TAP	59	240	1
STR	59	288	0
SI_	59	288	0	96	48	4
STR	59	288	7
SI_	59	288	7	96	48	3
TAP	59	304	1
TAP	59	304	6
TAP	59	320	2
TAP	59	320	5
TAP	59	336	3
TAP	59	336	4
BRK	60	0	0
BST	60	0	7
SI_	60	0	7	96	48	5
STR	60	96	2
SI_	60	96	2	96	48	0
TAP	60	96	7
TAP	60	144	1
TAP	60	192	2
STR	60	192	6
SI_	60	192	6	96	48	4
TAP	60	240	5
STR	60	288	1
SI_	60	288	1	96	48	5
TAP	60	288	6
TAP	60	336	0
TAP	61	0	1
STR	61	0	6
SI_	61	0	6	96	48	2
STR	61	48	7
SI_	61	48	7	96	48	3
STR	61	96	6
SLL	61	96	6	96	96	7
TAP	61	144	7
TAP	61	192	6
TAP	61	240	1
STR	61	288	1
SI_	61	288	1	96	48	5
TAP	61	312	0
TAP	61	360	0
BST	62	0	1
SI_	62	0	1	96	48	3
TAP	62	96	1
STR	62	96	7
SI_	62	96	7	96	48	5
STR	62	144	0
SI_	62	144	0	96	48	4
STR	62	192	7
SI_	62	192	7	96	48	3
STR	62	240	0
SI_	62	240	0	96	48	2
TAP	62	288	7
TAP	62	336	0
XTP	63	0	7
XTP	63	48	0
XTP	63	48	7
STR	63	96	0
SI_	63	96	0	96	48	4
STR	63	96	7
SI_	63	96	7	96	48	3
TAP	63	112	1
TAP	63	112	6
TAP	63	128	2
TAP	63	128	5
TAP	63	144	3
TAP	63	144	4
BRK	63	192	0
BRK	63	192	7
TTP	63	288	0	C	1	M1
TTP	63	288	2	B	0	M1
TTP	63	288	2	E	0	M1
TTP	63	288	5	B	0	M1
TTP	63	288	6	E	0	M1
BST	64	0	0
SCR	64	0	0	96	144	5
BRK	64	0	7
TTP	64	192	2	B	0	M1
TTP	64	192	3	B	0	M1
STR	64	288	7
SXL	64	288	7	96	144	6
TAP	65	0	4
HLD	65	192	1	96
TAP	65	240	7
TAP	65	256	6
TAP	65	272	5
STR	65	288	4
SI_	65	288	4	96	48	7
TAP	65	336	1
BST	66	0	2
SLL	66	0	2	96	96	3
BRK	66	0	4
TAP	66	96	2
STR	66	96	6
SI_	66	96	6	96	48	4
STR	66	144	7
SI_	66	144	7	96	48	3
STR	66	192	6
SI_	66	192	6	96	48	2
STR	66	240	7
SI_	66	240	7	96	48	1
STR	66	288	6
SCL	66	288	6	96	48	3
TAP	66	336	7
BRK	67	0	6
TAP	67	96	1
TAP	67	96	3
TAP	67	144	0
TAP	67	192	4
TAP	67	192	6
TAP	67	240	5
STR	67	288	3
SI_	67	288	3	96	48	1
TAP	67	312	4
TAP	67	336	2
BRK	68	0	3
BST	68	0	6
SI_	68	0	6	96	48	4
TAP	68	48	7
STR	68	96	0
SI_	68	96	0	96	48	2
TAP	68	96	6
TAP	68	144	7
TAP	68	192	0
STR	68	192	5
SI_	68	192	5	96	48	7
TAP	68	240	4
STR	68	288	5
SI_	68	288	5	96	48	3
TAP	68	336	0
TAP	68	360	0
BST	69	0	5
SCR	69	0	5	96	48	0
TAP	69	48	1
TAP	69	96	1
TAP	69	96	5
TAP	69	144	2
TAP	69	192	2
TAP	69	216	3
TAP	69	264	6
STR	69	288	7
SI_	69	288	7	96	48	3
STR	69	336	0
SI_	69	336	0	96	48	4
TAP	69	336	6
BST	70	0	7
SI_	70	0	7	96	48	5
STR	70	48	0
SI_	70	48	0	96	24	2
TAP	70	96	7
TAP	70	144	0
TAP	70	192	6
TAP	70	216	1
TAP	70	240	4
TAP	70	264	3
STR	70	288	7
SSR	70	288	7	96	120	3
TAP	70	312	0
TAP	70	336	5
TAP	70	360	2
BRK	71	0	7
XTP	71	192	2
XTP	71	192	4
XST	71	288	1
SI_	71	288	1	96	48	4
XST	71	288	5
SI_	71	288	5	96	48	0
BRK	72	0	1
BRK	72	0	5
XHO	72	96	3	480
BRK	72	96	7
TTP	72	288	2	B	0	M1
TTP	72	296	3	E	0	M1
TTP	73	96	5	B	0	M1
TTP	73	104	5	E	0	M1
XST	73	288	2
SI_	73	288	2	96	48	7
XST	73	288	6
SI_	73	288	6	96	48	3
BRK	74	0	2
BRK	74	0	6
BRK	74	96	0
XHO	74	96	4	384
TTP	74	288	5	B	0	M1
TTP	74	296	5	E	0	M1
STR	75	96	3
SCL	75	96	3	96	144	4
TTP	75	192	0	C	1	M1
TTP	75	192	3	B	0	M1
TTP	75	192	4	B	0	M1
BRK	76	0	2
BRK	76	0	7
TAP	76	48	6
TAP	76	96	5
TAP	76	144	1
TAP	76	144	4
TAP	76	192	2
TAP	76	240	3
TAP	76	288	4
TAP	76	288	6
TAP	76	336	5
BRK	77	0	0
BRK	77	0	4
TAP	77	48	1
TAP	77	96	2
TAP	77	144	3
TAP	77	144	6
TAP	77	192	5
TAP	77	240	4
TAP	77	288	1
TAP	77	288	3
TAP	77	336	1
TAP	77	336	3
BRK	78	0	0
TAP	78	24	4
TAP	78	48	0
TAP	78	72	4
TAP	78	96	0
TAP	78	120	4
TAP	78	144	0
TAP	78	168	4
TAP	78	192	0
TAP	78	216	4
TAP	78	240	0
TAP	78	264	4
TAP	78	288	1
TAP	78	300	2
TAP	78	312	3
TAP	78	324	4
TAP	78	336	5
TAP	78	348	6
TAP	78	360	7
TAP	78	372	0
BST	79	0	1
SXL	79	0	1	96	120	0
BST	79	0	5
SXL	79	0	5	96	120	4
BRK	79	288	2
BRK	79	288	6
XTP	80	0	0
XTP	80	0	4
HLD	80	48	0	96
TAP	80	96	4
TAP	80	120	5
TAP	80	144	6
TAP	80	168	7
XTP	80	192	1
HLD	80	240	1	96
TAP	80	288	5
TAP	80	312	6
TAP	80	336	7
TAP	80	360	0
XTP	81	0	2
HLD	81	48	2	96
TAP	81	96	6
TAP	81	120	7
TAP	81	144	0
TAP	81	168	1
XST	81	192	3
SUR	81	192	3	96	96	4
TAP	81	240	3
TTP	81	288	0	C	0	M1
XTP	82	0	7
HLD	82	48	7	96
TAP	82	96	3
TAP	82	120	2
TAP	82	144	1
TAP	82	168	0
XTP	82	192	6
HLD	82	240	6	96
TAP	82	288	2
TAP	82	312	1
TAP	82	336	0
TAP	82	360	7
XTP	83	0	5
HLD	83	48	5	96
TAP	83	96	1
TAP	83	120	0
TAP	83	144	7
TAP	83	168	6
XST	83	192	4
SUL	83	192	4	96	96	3
TAP	83	240	4
TTP	83	288	0	C	0	M1
XTP	84	0	0
HLD	84	48	0	96
TAP	84	96	4
TAP	84	120	5
TAP	84	144	6
TAP	84	168	7
XTP	84	192	1
HLD	84	240	1	96
TAP	84	288	5
TAP	84	312	6
TAP	84	336	7
TAP	84	360	0
XTP	85	0	2
HLD	85	48	2	96
TAP	85	96	6
TAP	85	120	7
TAP	85	144	0
TAP	85	168	1
XTP	85	192	3
TAP	85	240	3
TAP	85	288	2
TAP	85	288	4
TAP	85	336	1
TAP	85	336	5
TAP	86	0	0
TAP	86	24	7
TAP	86	48	0
TAP	86	72	7
BRK	86	96	1
BRK	86	96	6
TAP	86	144	2
TAP	86	168	3
BRK	86	192	1
XTP	86	192	4
TAP	86	240	5
TAP	86	264	4
XTP	86	288	3
BRK	86	288	6
STR	86	336	0
SXL	86	336	0	96	144	3
STR	86	336	7
SXR	86	336	7	96	144	4
TAP	86	360	1
TAP	86	360	6
XTP	87	0	2
XTP	87	0	5
BRK	87	288	0
BST	87	288	7
SI_	87	288	7	96	48	3
TAP	88	0	1
STR	88	0	7
SI_	88	0	7	96	48	5
TAP	88	48	1
TAP	88	96	2
STR	88	96	7
SI_	88	96	7	96	48	3
TAP	88	144	2
TAP	88	192	1
STR	88	192	7
SI_	88	192	7	96	48	5
TAP	88	240	1
TAP	88	288	0
STR	88	288	7
SI_	88	288	7	96	48	3
TAP	88	336	0
TAP	89	0	1
STR	89	0	7
SI_	89	0	7	96	48	5
TAP	89	48	1
TAP	89	96	2
STR	89	96	7
SI_	89	96	7	96	48	1
TAP	89	144	2
TAP	89	192	3
STR	89	192	7
SI_	89	192	7	96	48	3
STR	89	240	3
SI_	89	240	3	96	48	5
TAP	89	288	7
TAP	89	336	0
TAP	90	48	1
STR	90	96	0
SI_	90	96	0	96	48	4
TAP	90	96	5
TAP	90	144	5
STR	90	192	0
SI_	90	192	0	96	48	2
TAP	90	192	6
TAP	90	240	6
STR	90	288	0
SI_	90	288	0	96	48	4
TAP	90	288	5
STR	90	336	5
SI_	90	336	5	96	48	7
XTP	91	0	0
XTP	91	48	5
XTP	91	96	3
XTP	91	144	7
TAP	91	192	4
TAP	91	216	6
TAP	91	240	4
TAP	91	264	6
BRK	91	288	3
BST	91	288	7
SI_	91	288	7	96	48	3
TAP	92	0	1
STR	92	0	7
SI_	92	0	7	96	48	5
TAP	92	48	1
TAP	92	96	2
STR	92	96	7
SI_	92	96	7	96	48	3
TAP	92	144	2
TAP	92	192	1
STR	92	192	7
SI_	92	192	7	96	48	5
TAP	92	240	1
TAP	92	288	0
STR	92	288	7
SI_	92	288	7	96	48	3
XTP	92	336	0
XTP	92	360	1
XTP	93	0	2
STR	93	0	7
SI_	93	0	7	96	48	5
XTP	93	48	2
TAP	93	96	1
STR	93	96	7
SI_	93	96	7	96	48	3
TAP	93	144	1
STR	93	192	2
SI_	93	192	2	96	48	0
STR	93	192	7
SI_	93	192	7	96	48	5
TAP	93	240	2
BRK	93	288	2
BRK	93	288	7
XST	94	0	0
SI_	94	0	0	96	48	4
STR	94	48	7
SI_	94	48	7	96	48	3
STR	94	96	0
SI_	94	96	0	96	48	2
STR	94	144	7
SI_	94	144	7	96	48	5
STR	94	192	0
SI_	94	192	0	96	48	4
TAP	94	240	7
TAP	94	288	0
TAP	94	336	6
TAP	95	0	6
TAP	95	24	7
TAP	95	48	6
TAP	95	72	7
BRK	95	96	6
TAP	95	108	5
TAP	95	120	4
TAP	95	132	3
HLD	95	192	0	36
BRK	95	192	1
TAP	95	204	2
TAP	95	216	3
TAP	95	228	4
TAP	95	288	6
TAP	95	288	7
TAP	95	300	5
TAP	95	312	4
TAP	95	324	3
TAP	95	336	2
TAP	95	348	1
TAP	95	360	0
TAP	95	372	7
BST	96	0	2
SXL	96	0	2	96	624	7
BST	96	0	6
SXR	96	0	6	96	624	1

T_REC_TAP	471
T_REC_BRK	72
T_REC_XTP	50
T_REC_HLD	61
T_REC_XHO	12
T_REC_STR	92
T_REC_BST	28
T_REC_XST	10
T_REC_TTP	94
T_REC_THO	4
T_REC_SLD	133
T_REC_ALL	1027
T_NUM_TAP	717
T_NUM_BRK	100
T_NUM_HLD	77
T_NUM_SLD	133
T_NUM_ALL	1027
T_JUDGE_TAP	817
T_JUDGE_HLD	135
T_JUDGE_SLD	133
T_JUDGE_ALL	1085
TTM_EACHPAIRS	176
TTM_SCR_TAP	358500
TTM_SCR_BRK	260000
TTM_SCR_HLD	77000
TTM_SCR_SLD	199500
TTM_SCR_ALL	895000
TTM_SCR_S	858450
TTM_SCR_SS	885000
TTM_RAT_ACV	10112

