VERSION	0.00.00	1.03.00
FES_MODE	0
BPM_DEF	155.000	155.000	180.000	155.000
MET_DEF	4	4
RESOLUTION	384
CLK_DEF	384
COMPATIBLE_CODE	MA2

BPM	0	0	155.000
BPM	73	0	160.000
BPM	74	0	165.000
BPM	75	0	170.000
BPM	76	0	175.000
BPM	77	0	180.000
MET	0	0	4	4

BRK	2	0	0
BRK	2	0	7
TTP	2	96	0	C	1	M1
TTP	2	96	2	B	0	M1
TTP	2	96	2	E	0	M1
TTP	2	96	6	B	0	M1
TTP	2	96	6	E	0	M1
BRK	4	0	1
BRK	4	0	5
TTP	4	96	0	C	1	M1
TTP	4	96	3	E	0	M1
TTP	4	96	7	E	0	M1
BRK	6	0	2
BRK	6	0	6
XTP	6	48	2
XTP	6	48	6
TTP	6	96	0	C	1	M1
TTP	6	96	1	E	0	M1
TTP	6	96	5	E	0	M1
BRK	8	0	1
TAP	8	0	3
TAP	8	144	4
BRK	8	144	6
BRK	8	288	3
BRK	8	288	4
TTP	9	0	0	C	1	M1
TTP	9	0	2	B	0	M1
TTP	9	0	2	E	0	M1
TTP	9	0	6	B	0	M1
TTP	9	0	6	E	0	M1
XST	9	192	0
SUL	9	192	0	96	48	4
SUR	9	192	0	96	48	4
XTP	10	0	3
XTP	10	0	5
XTP	10	96	2
XTP	10	96	6
TAP	10	192	1
TAP	10	240	1
HLD	10	288	3	96
TAP	11	0	2
TAP	11	48	2
STR	11	96	4
SCL	11	96	4	96	144	6
XTP	12	0	2
XTP	12	0	4
XTP	12	96	1
XTP	12	96	5
TAP	12	192	6
TAP	12	240	6
HLD	12	288	4	168
HLD	13	0	5	72
XST	13	96	3
SCR	13	96	3	96	144	1
XTP	13	96	6
XTP	14	0	3
XTP	14	0	4
XTP	14	48	2
XTP	14	48	5
XTP	14	96	1
XTP	14	96	6
TAP	14	192	0
TAP	14	240	0
HLD	14	288	1	96
TAP	15	0	7
TAP	15	48	7
HLD	15	96	6	96
STR	15	192	1
SI_	15	192	1	96	48	5
XHO	16	0	4	96
XHO	16	0	6	96
XHO	16	144	1	96
XHO	16	144	3	96
XTP	16	288	2
XTP	16	288	6
XTP	17	0	0
XST	17	0	4
SCR	17	0	4	96	192	3
TAP	18	0	3
TAP	18	0	4
TAP	18	96	3
TAP	18	96	7
TAP	18	192	3
TAP	18	240	5
TAP	18	288	3
TAP	19	0	3
TAP	19	48	1
TAP	19	96	3
TAP	19	192	3
TAP	19	192	5
TAP	19	288	1
TAP	19	288	3
TAP	20	0	3
TAP	20	0	4
TAP	20	96	0
TAP	20	96	4
TAP	20	192	4
TAP	20	240	2
TAP	20	288	4
TAP	21	0	3
TAP	21	0	5
TAP	21	96	2
TAP	21	96	6
TAP	21	192	1
STR	21	192	7
SI_	21	192	7	96	48	3
XTP	21	288	0
TAP	22	0	2
TAP	22	0	4
TAP	22	96	3
TAP	22	96	5
TAP	22	192	6
TAP	22	240	6
TAP	22	288	7
TAP	23	0	1
TAP	23	48	1
TAP	23	96	0
TAP	23	192	3
TAP	23	240	3
TAP	23	288	4
TAP	23	336	4
TAP	24	0	2
TAP	24	48	2
TAP	24	96	1
TAP	24	144	5
TAP	24	192	5
TAP	24	240	6
TAP	24	288	0
TAP	24	336	0
XHO	25	0	1	48
XHO	25	0	7	48
HLD	25	96	2	48
HLD	25	96	6	48
HLD	25	192	3	48
HLD	25	192	5	48
BRK	25	288	0
HLD	26	0	2	192
TAP	26	0	6
TAP	26	192	3
TAP	26	288	1
HLD	26	288	5	144
HLD	27	48	4	144
TAP	27	192	3
TAP	27	288	1
TAP	27	288	6
TTP	28	0	4	E	0	M1
TTP	28	48	1	E	0	M1
TTP	28	96	2	E	0	M1
TTP	28	144	3	E	0	M1
TTP	28	192	6	E	0	M1
TTP	28	240	5	E	0	M1
TTP	28	288	2	E	0	M1
TTP	28	336	3	E	0	M1
TTP	29	0	7	E	0	M1
TTP	29	48	6	E	0	M1
TTP	29	96	1	E	0	M1
TTP	29	144	2	E	0	M1
TTP	29	192	0	E	0	M1
TTP	29	240	0	C	0	M1
TTP	29	288	4	E	0	M1
TAP	30	0	1
TAP	30	0	6
TAP	30	48	1
TAP	30	48	6
TAP	30	96	0
TAP	30	120	7
TAP	30	144	0
TAP	30	168	7
XTP	30	192	0
XTP	30	240	1
XTP	30	240	7
XHO	30	288	2	144
XTP	30	288	6
HLD	31	48	3	144
TAP	31	192	4
TAP	31	288	1
TAP	31	288	5
HLD	32	0	0	96
HLD	32	0	2	96
HLD	32	144	5	96
HLD	32	144	7	96
TAP	32	288	1
TAP	32	288	6
TAP	33	0	3
TAP	33	0	4
TAP	33	96	1
TAP	33	96	3
TAP	33	144	1
TAP	33	144	3
TAP	33	240	4
TAP	33	240	6
TAP	33	288	4
STR	33	288	6
SXL	33	288	6	96	576	1
TTP	34	0	3	B	0	M1
TTP	34	0	4	B	0	M1
XTP	36	0	2
HLD	36	48	2	528
TAP	36	144	3
TAP	36	240	1
TAP	36	336	3
TAP	37	48	1
TAP	37	144	3
TAP	37	192	3
TAP	37	288	1
TAP	37	288	4
XTP	38	0	5
HLD	38	48	5	336
TAP	38	144	4
TAP	38	240	6
TAP	38	336	4
TAP	39	0	4
TAP	39	96	2
TAP	39	96	3
TAP	39	192	4
TAP	39	192	5
TAP	39	288	3
TAP	39	288	6
XTP	40	0	1
HLD	40	48	1	528
TAP	40	144	0
TAP	40	240	2
TAP	40	336	0
TAP	41	48	2
TAP	41	144	0
TAP	41	192	0
TAP	41	288	3
TAP	41	288	4
XTP	42	0	6
HLD	42	48	6	336
TAP	42	144	7
TAP	42	240	5
TAP	42	336	7
TAP	43	0	7
TAP	43	96	4
TAP	43	96	5
TAP	43	192	2
TAP	43	192	3
TAP	43	288	0
TAP	43	288	1
TTP	44	0	0	E	0	M1
TTP	44	0	6	B	0	M1
TTP	44	0	7	B	0	M1
TTP	44	96	4	B	0	M1
TTP	44	96	5	B	0	M1
TTP	44	96	6	E	0	M1
TAP	44	192	2
TAP	44	264	1
TAP	44	264	3
TAP	44	336	2
TAP	44	336	4
TAP	45	24	3
TAP	45	24	5
TAP	45	96	4
TAP	45	96	6
TAP	45	192	0
TAP	45	192	1
TAP	45	240	0
TAP	45	240	1
TAP	45	288	2
TAP	45	288	7
TTP	46	0	0	B	0	M1
TTP	46	0	0	E	0	M1
TTP	46	0	1	B	0	M1
TTP	46	96	2	B	0	M1
TTP	46	96	2	E	0	M1
TTP	46	96	3	B	0	M1
TAP	46	192	5
TAP	46	264	5
TAP	46	288	4
TAP	46	336	3
TAP	46	336	6
TAP	47	24	2
TAP	47	48	3
TAP	47	96	1
TAP	47	96	4
TAP	47	192	6
TAP	47	192	7
TAP	47	240	6
TAP	47	240	7
TAP	47	288	0
TAP	47	288	5
TTP	48	0	2	B	0	M1
TTP	48	0	2	E	0	M1
TTP	48	48	5	B	0	M1
TTP	48	48	6	E	0	M1
TTP	48	96	3	B	0	M1
TTP	48	96	4	B	0	M1
TAP	48	192	6
TAP	48	216	7
TAP	48	264	1
TAP	48	288	0
TAP	48	336	2
TAP	48	360	3
TAP	49	24	5
TAP	49	48	4
TAP	49	96	7
TAP	49	120	0
TAP	49	144	7
TAP	49	168	0
XTP	49	192	7
XTP	49	240	0
XTP	49	240	6
XTP	49	288	1
XTP	49	288	5
XTP	50	0	3
TAP	50	48	2
TAP	50	96	1
XTP	50	144	4
TAP	50	192	5
TAP	50	240	6
XTP	50	288	0
XTP	50	288	7
TTP	51	0	0	C	1	M1
TTP	51	0	1	B	0	M1
TTP	51	0	2	E	0	M1
TTP	51	0	5	B	0	M1
TTP	51	0	6	E	0	M1
XST	51	192	7
SUL	51	192	7	96	48	3
SUR	51	192	7	96	48	3
XTP	52	0	2
XTP	52	0	4
TAP	52	96	2
TAP	52	96	4
TAP	52	192	1
TAP	52	192	3
TAP	52	288	1
TAP	52	288	3
TAP	53	0	3
TAP	53	0	5
TAP	53	96	3
TAP	53	96	5
TAP	53	192	4
TAP	53	192	6
TAP	53	288	4
TAP	53	288	6
TAP	54	0	2
TAP	54	0	3
TAP	54	96	4
TAP	54	96	5
TAP	54	192	1
TAP	54	192	3
TAP	54	288	4
TAP	54	288	6
STR	55	0	1
SUR	55	0	1	96	96	6
XTP	55	240	0
XTP	55	240	7
BRK	55	288	1
BRK	55	288	6
XTP	56	0	0
XTP	56	0	7
TAP	56	48	1
TAP	56	96	0
TAP	56	96	7
TAP	56	144	2
TAP	56	192	0
TAP	56	192	7
TAP	56	240	3
TAP	56	288	0
TAP	56	288	7
TAP	56	336	4
TAP	57	0	0
TAP	57	0	7
TAP	57	48	5
TAP	57	96	0
TAP	57	96	7
TAP	57	144	6
TAP	57	192	0
TAP	57	192	7
TAP	57	240	1
TAP	57	288	3
TAP	57	336	5
TAP	58	0	6
TAP	58	0	7
TAP	58	48	0
TAP	58	96	6
TAP	58	96	7
TAP	58	144	1
TAP	58	192	6
TAP	58	192	7
TAP	58	240	2
TAP	58	288	6
TAP	58	288	7
TAP	58	336	3
TAP	59	0	6
TAP	59	0	7
TAP	59	48	5
TAP	59	96	3
TAP	59	144	1
TAP	59	192	0
TAP	59	192	7
TAP	59	240	6
TAP	59	288	4
TAP	59	336	2
XTP	60	0	0
XTP	60	0	1
TAP	60	48	7
TAP	60	96	0
TAP	60	96	1
TAP	60	144	6
TAP	60	192	0
TAP	60	192	1
TAP	60	240	5
TAP	60	288	0
TAP	60	288	1
TAP	60	336	4
TAP	61	0	0
TAP	61	0	1
TAP	61	48	3
TAP	61	96	0
TAP	61	96	1
TAP	61	144	2
TAP	61	192	0
TAP	61	192	1
TAP	61	240	7
TAP	61	288	5
TAP	61	336	3
STR	62	0	2
SI_	62	0	2	96	48	7
XTP	62	0	4
TAP	62	96	4
XTP	62	192	3
STR	62	192	5
SI_	62	192	5	96	48	0
TAP	62	288	3
XTP	63	0	3
XTP	63	0	4
TAP	63	48	2
TAP	63	48	5
STR	63	96	1
SI_	63	96	1	96	48	5
TAP	63	96	6
BRK	63	288	0
BRK	63	288	7
HLD	64	0	3	144
HLD	64	0	4	144
TAP	64	192	1
TAP	64	192	2
HLD	64	288	3	240
HLD	65	48	4	96
TAP	65	192	5
TAP	65	192	6
TAP	65	288	0
TAP	65	288	7
XTP	66	0	3
XTP	66	0	4
TAP	66	48	2
TAP	66	96	3
TAP	66	96	4
TAP	66	144	5
TAP	66	192	3
TAP	66	192	4
TAP	66	240	1
TAP	66	288	3
TAP	66	288	4
TAP	66	336	6
HLD	67	0	3	48
HLD	67	0	4	48
TAP	67	96	1
TAP	67	96	6
TAP	67	144	1
TAP	67	144	6
TAP	67	192	1
TAP	67	192	6
TAP	67	240	1
TAP	67	240	6
XTP	67	288	0
XTP	67	312	7
XTP	67	336	0
XTP	68	0	1
XTP	68	0	6
HLD	68	96	2	48
HLD	68	96	3	48
HLD	68	192	4	48
HLD	68	192	5	48
HLD	68	288	1	48
HLD	68	288	3	48
HLD	69	0	4	48
HLD	69	0	6	48
HLD	69	96	1	48
HLD	69	96	2	48
HLD	69	192	5	48
HLD	69	192	6	48
XTP	69	288	0
XTP	69	288	7
TAP	70	0	1
TAP	70	48	1
TAP	70	96	6
TAP	70	144	6
TAP	70	192	0
TAP	70	216	7
TAP	70	240	0
TAP	70	264	7
TAP	70	288	0
TAP	70	312	7
TAP	70	336	0
TAP	70	360	7
XST	71	0	0
SCR	71	0	0	96	192	7
BRK	72	0	3
BRK	72	0	4
TTP	72	96	0	C	1	M1
TTP	72	96	1	B	0	M1
TTP	72	96	2	E	0	M1
TTP	72	96	6	B	0	M1
TTP	72	96	6	E	0	M1
BRK	74	0	0
BRK	74	0	7
TTP	74	96	0	C	1	M1
TTP	74	96	2	B	0	M1
TTP	74	96	2	E	0	M1
TTP	74	96	5	B	0	M1
TTP	74	96	6	E	0	M1
STR	76	0	0
SI_	76	0	0	96	48	3
STR	76	192	7
SI_	76	192	7	96	48	4
STR	77	0	1
SI_	77	0	1	96	48	3
STR	77	192	6
SI_	77	192	6	96	48	4
HLD	78	0	1	96
HLD	78	96	3	96
HLD	78	192	4	96
HLD	78	288	6	96
THO	79	0	0	96	C	1	M1
BRK	80	0	0
TAP	80	96	6
XTP	80	96	7
XTP	80	120	0
XTP	80	144	1
XTP	80	168	2
TAP	80	192	3
XTP	80	288	0
TAP	80	288	1
XTP	80	312	7
XTP	80	336	6
XTP	80	360	5
TAP	81	0	4
TAP	81	96	6
XTP	81	96	7
XTP	81	120	0
XTP	81	144	1
XTP	81	168	2
TAP	81	192	3
TAP	81	288	4
TAP	81	288	5
TAP	81	336	4
TAP	81	336	5
TAP	82	0	3
TAP	82	0	6
XTP	82	96	0
TAP	82	96	1
XTP	82	120	7
XTP	82	144	6
XTP	82	168	5
TAP	82	192	4
TAP	82	288	6
XTP	82	288	7
XTP	82	312	0
XTP	82	336	1
XTP	82	360	2
TAP	83	0	3
XTP	83	96	0
TAP	83	96	1
XTP	83	120	7
XTP	83	144	6
XTP	83	168	5
TAP	83	192	4
TAP	83	288	2
TAP	83	288	3
TAP	83	336	2
TAP	83	336	3
TAP	84	0	1
TAP	84	0	4
TAP	84	96	6
XTP	84	96	7
XTP	84	120	0
XTP	84	144	1
XTP	84	168	2
TAP	84	192	3
XTP	84	288	0
TAP	84	288	1
XTP	84	312	7
XTP	84	336	6
XTP	84	360	5
TAP	85	0	4
TAP	85	96	6
XTP	85	96	7
XTP	85	120	0
XTP	85	144	1
XTP	85	168	2
STR	85	192	3
SI_	85	192	3	96	48	7
TAP	86	0	0
TAP	86	48	0
TAP	86	96	6
TAP	86	144	6
TAP	86	192	2
TAP	86	240	2
TAP	86	288	4
TAP	86	336	4
TAP	87	0	3
STR	87	0	5
SUL	87	0	5	96	144	3
BRK	87	288	0
TAP	88	0	1
TAP	88	0	7
TAP	88	48	2
TAP	88	96	4
TAP	88	144	4
TAP	88	192	3
TAP	88	192	5
TAP	88	240	3
TAP	88	240	5
TAP	88	288	2
TAP	88	336	2
TAP	89	0	1
TAP	89	0	3
TAP	89	48	1
TAP	89	48	3
TAP	89	96	0
TAP	89	144	0
TAP	89	192	6
TAP	89	192	7
TAP	89	240	0
TAP	89	240	5
TAP	89	288	1
TAP	89	288	4
TAP	89	336	2
TAP	89	336	3
TAP	90	48	4
TAP	90	48	5
TAP	90	96	4
TAP	90	96	5
TAP	90	144	3
TAP	90	144	6
TAP	90	192	2
TAP	90	240	1
TAP	90	288	6
TAP	90	336	5
XST	91	0	3
SI_	91	0	3	96	48	1
XST	91	0	4
SI_	91	0	4	96	48	6
TAP	91	192	0
TAP	91	216	7
TAP	91	240	0
TAP	91	264	7
XTP	91	288	0
XTP	92	0	3
XTP	92	0	4
XTP	92	48	3
XTP	92	48	4
XTP	92	96	1
XTP	92	96	6
TAP	92	144	0
TAP	92	192	6
TAP	92	192	7
TAP	92	240	6
TAP	92	240	7
TAP	92	288	5
TAP	92	336	5
TAP	93	0	3
TAP	93	0	4
TAP	93	48	3
TAP	93	48	4
TAP	93	96	2
TAP	93	144	2
TAP	93	192	0
TAP	93	192	1
TAP	93	240	2
TAP	93	240	7
TAP	93	288	3
TAP	93	288	6
TAP	93	336	4
TAP	93	336	5
TAP	94	48	2
TAP	94	48	3
TAP	94	96	2
TAP	94	96	3
TAP	94	144	1
TAP	94	144	4
TAP	94	192	0
TAP	94	240	0
TAP	94	288	7
TAP	94	336	7
TAP	95	0	4
TAP	95	0	6
TAP	95	48	4
TAP	95	48	6
TAP	95	96	3
TAP	95	96	5
TAP	95	144	3
TAP	95	144	5
TAP	95	192	2
TAP	95	192	4
TAP	95	240	2
TAP	95	240	4
STR	95	288	1
SI_	95	288	1	96	48	5
TAP	95	288	3
TAP	95	336	1
TAP	95	336	3
TTP	96	0	0	C	1	M1

T_REC_TAP	420
T_REC_BRK	21
T_REC_XTP	102
T_REC_HLD	43
T_REC_XHO	7
T_REC_STR	15
T_REC_BST	0
T_REC_XST	7
T_REC_TTP	67
T_REC_THO	1
T_REC_SLD	24
T_REC_ALL	707
T_NUM_TAP	611
T_NUM_BRK	21
T_NUM_HLD	51
T_NUM_SLD	24
T_NUM_ALL	707
T_JUDGE_TAP	632
T_JUDGE_HLD	123
T_JUDGE_SLD	24
T_JUDGE_ALL	779
TTM_EACHPAIRS	186
TTM_SCR_TAP	305500
TTM_SCR_BRK	54600
TTM_SCR_HLD	51000
TTM_SCR_SLD	36000
TTM_SCR_ALL	447100
TTM_SCR_S	431650
TTM_SCR_SS	445000
TTM_RAT_ACV	10047

