VERSION	0.00.00	1.03.00
FES_MODE	0
BPM_DEF	155.000	155.000	180.000	155.000
MET_DEF	4	4
RESOLUTION	384
CLK_DEF	384
COMPATIBLE_CODE	MA2

BPM	0	0	155.000
BPM	73	0	160.000
BPM	74	0	165.000
BPM	75	0	170.000
BPM	76	0	175.000
BPM	77	0	180.000
MET	0	0	4	4

STR	2	0	2
SI_	2	0	2	96	144	7
TAP	2	0	3
TAP	3	0	6
TAP	3	96	6
XTP	3	192	6
XTP	3	192	7
STR	4	0	5
SI_	4	0	5	96	144	0
TAP	5	0	1
TAP	5	96	1
TAP	5	192	1
STR	6	0	1
SI_	6	0	1	96	192	4
TAP	7	0	5
TAP	7	96	5
XTP	7	192	4
XTP	7	192	5
TAP	8	0	2
TAP	8	96	2
TAP	8	192	3
TAP	8	288	3
STR	9	0	3
SCL	9	0	3	96	144	0
STR	9	0	4
SCR	9	0	4	96	144	7
TAP	10	0	6
TAP	10	96	6
TAP	10	192	7
TAP	10	288	7
TAP	11	0	0
TAP	11	96	0
TAP	11	192	1
TAP	11	192	7
TAP	12	0	2
TAP	12	96	2
TAP	12	192	3
TAP	12	288	3
TAP	13	0	4
TAP	13	96	4
TAP	13	192	3
TAP	13	192	5
TAP	14	0	5
TAP	14	96	5
TAP	14	192	4
TAP	14	288	4
TAP	15	0	3
TAP	15	96	3
TAP	15	192	2
TAP	15	192	4
TAP	16	0	1
TAP	16	96	1
TAP	16	192	0
TAP	16	288	0
TAP	17	0	7
TAP	17	96	0
TAP	17	96	7
TAP	17	192	1
TAP	17	192	6
HLD	18	0	5	384
TAP	18	96	4
TAP	18	192	4
TAP	18	288	4
TAP	19	0	4
TAP	19	96	4
TAP	19	96	5
TAP	19	192	3
TAP	19	192	6
HLD	20	0	2	288
TAP	20	96	3
TAP	20	192	3
TAP	20	288	3
XTP	21	0	2
XTP	21	0	3
XTP	21	96	3
XTP	21	96	4
XTP	21	192	4
XTP	21	192	5
HLD	22	0	6	288
TAP	22	96	7
TAP	22	192	7
TAP	22	288	7
HLD	23	0	1	192
TAP	23	96	0
TAP	23	192	0
TAP	23	288	0
TAP	23	288	1
TAP	24	0	7
TAP	24	48	7
TAP	24	96	7
TAP	24	192	0
TAP	24	240	0
TAP	24	288	0
BST	25	0	0
SI_	25	0	0	96	144	4
BST	25	0	7
SI_	25	0	7	96	144	3
STR	26	0	5
SI_	26	0	5	96	144	0
STR	27	0	1
SI_	27	0	1	96	144	5
TAP	28	0	6
TAP	28	96	6
TAP	28	192	6
TAP	28	192	7
TAP	29	0	1
TAP	29	96	1
TAP	29	192	0
TAP	29	192	7
STR	30	0	1
SI_	30	0	1	96	144	4
STR	31	0	5
SI_	31	0	5	96	144	0
TAP	32	0	1
TAP	32	96	1
TAP	32	192	0
TAP	32	288	0
TAP	33	0	7
TAP	33	96	7
TAP	33	192	6
TAP	33	288	5
BST	34	0	3
SXR	34	0	3	96	480	0
BST	34	0	4
SXL	34	0	4	96	480	7
TTP	36	0	6	E	0	L1
TTP	36	96	5	B	0	L1
TTP	36	192	4	B	0	L1
TTP	37	0	2	E	0	L1
TTP	37	96	2	B	0	L1
TTP	37	192	3	B	0	L1
TTP	38	0	6	B	0	L1
TTP	38	96	5	B	0	L1
TTP	38	192	5	E	0	L1
TTP	39	0	1	B	0	L1
TTP	39	96	2	B	0	L1
TTP	39	192	3	E	0	L1
TTP	40	0	6	E	0	L1
TTP	40	96	6	B	0	L1
TTP	40	192	7	B	0	L1
TTP	41	0	2	E	0	L1
TTP	41	96	1	B	0	L1
TTP	41	192	0	B	0	L1
TTP	42	0	5	B	0	L1
TTP	42	96	6	B	0	L1
TTP	42	192	7	E	0	L1
TTP	43	0	2	B	0	L1
TTP	43	96	1	B	0	L1
TTP	43	192	1	E	0	L1
XHO	44	0	7	192
XTP	44	192	0
XTP	44	336	0
XTP	44	336	7
XTP	45	96	0
XTP	45	96	7
TAP	45	192	1
TAP	45	288	2
XTP	46	0	3
XHO	46	0	4	192
TAP	46	192	3
TAP	46	288	3
TAP	46	288	4
TAP	47	0	2
TAP	47	96	2
TAP	47	96	3
TAP	47	192	5
TAP	47	288	4
TAP	47	288	5
TAP	48	0	3
TAP	48	0	6
TAP	48	192	6
TAP	48	288	6
TAP	48	288	7
TAP	49	0	1
TAP	49	96	0
TAP	49	96	1
TAP	49	192	6
TAP	49	288	6
TAP	49	288	7
HLD	50	0	0	96
HLD	50	0	5	96
HLD	50	192	1	96
HLD	50	192	6	96
STR	51	0	0
SCR	51	0	0	96	144	3
STR	51	0	7
SCL	51	0	7	96	144	4
TAP	52	0	4
TAP	52	96	5
TAP	52	192	6
TAP	52	288	7
TAP	53	0	0
TAP	53	96	1
TAP	53	192	2
TAP	53	288	3
TAP	54	0	4
TAP	54	48	4
TAP	54	96	4
TAP	54	192	3
TAP	54	240	3
TAP	54	288	3
TTP	55	0	0	C	1	L1
XTP	55	288	0
XTP	55	288	7
BRK	56	0	6
TAP	56	96	6
TAP	56	96	7
TAP	56	192	1
TAP	56	288	0
TAP	56	288	1
TAP	57	0	2
TAP	57	48	2
TAP	57	96	2
TAP	57	192	4
TAP	57	240	4
TAP	57	288	4
TAP	58	0	5
TAP	58	96	4
TAP	58	96	5
TAP	58	192	2
TAP	58	288	2
TAP	58	288	3
TAP	59	0	1
TAP	59	48	1
TAP	59	96	1
TAP	59	192	7
TAP	59	240	7
TAP	59	288	0
TAP	59	288	7
TAP	60	0	1
TAP	60	96	0
TAP	60	96	1
TAP	60	192	6
TAP	60	288	6
TAP	60	288	7
TAP	61	0	5
TAP	61	48	5
TAP	61	96	5
TAP	61	192	3
TAP	61	240	3
TAP	61	288	3
TAP	62	0	2
TAP	62	96	2
TAP	62	96	3
TAP	62	192	5
TAP	62	288	4
TAP	62	288	5
TAP	63	0	6
TAP	63	48	6
TAP	63	96	6
TAP	63	192	0
TAP	63	192	7
BRK	63	288	0
BRK	63	288	7
STR	64	0	6
SI_	64	0	6	96	144	3
TAP	65	0	2
TAP	65	96	2
TAP	65	192	2
TAP	65	192	3
TAP	65	288	1
TAP	65	288	4
BRK	66	0	5
TAP	66	96	4
TAP	66	96	6
TAP	66	192	5
TAP	66	240	5
TAP	66	288	5
TAP	67	0	2
TAP	67	96	1
TAP	67	96	3
TAP	67	192	2
TAP	67	240	2
TAP	67	288	2
TAP	68	0	4
TAP	68	96	3
TAP	68	96	4
TAP	68	192	5
TAP	68	240	5
TAP	68	288	5
TAP	69	0	3
TAP	69	96	3
TAP	69	96	4
TAP	69	192	2
TAP	69	240	2
TAP	69	288	2
TAP	70	0	4
TAP	70	96	3
TAP	70	96	4
TAP	70	192	2
TAP	70	192	5
TAP	70	240	2
TAP	70	240	5
TAP	70	288	2
TAP	70	288	5
BST	71	0	1
SI_	71	0	1	96	144	5
BST	71	0	6
SI_	71	0	6	96	144	2
TTP	72	0	4	E	0	L1
TTP	72	192	5	E	0	L1
TTP	73	0	6	E	0	L1
TTP	73	192	7	E	0	L1
TTP	74	0	0	E	0	L1
TTP	74	192	1	E	0	L1
TTP	75	0	2	E	0	L1
TTP	75	192	0	C	1	L1
XTP	76	0	7
XTP	76	96	7
XTP	76	192	7
XTP	77	0	0
XTP	77	96	0
XTP	77	192	0
TAP	78	0	6
TAP	78	96	7
TAP	78	192	0
TAP	78	288	1
BST	79	0	0
SI_	79	0	0	96	192	3
BST	79	0	7
SI_	79	0	7	96	192	4
TAP	80	0	5
TAP	80	96	5
TAP	80	192	4
TAP	80	288	4
TAP	81	0	3
TAP	81	96	3
TAP	81	192	2
TAP	81	192	4
TAP	82	0	1
TAP	82	96	1
TAP	82	192	0
TAP	82	288	0
TAP	83	0	7
TAP	83	96	7
TAP	83	192	0
TAP	83	192	7
TAP	84	0	6
TAP	84	96	6
TAP	84	192	7
TAP	84	288	7
TAP	85	0	0
TAP	85	96	0
TAP	85	192	1
TAP	85	192	7
TAP	86	0	2
TAP	86	96	2
TAP	86	192	3
TAP	86	288	3
TAP	87	0	3
TAP	87	0	4
TAP	87	96	3
TAP	87	96	4
BRK	87	192	2
BRK	87	192	5
TAP	88	0	6
TAP	88	96	6
TAP	88	96	7
TAP	88	192	0
TAP	88	240	0
TAP	88	288	0
TAP	89	0	1
TAP	89	96	0
TAP	89	96	1
TAP	89	192	7
TAP	89	240	7
TAP	89	288	7
TAP	90	0	6
TAP	90	96	6
TAP	90	96	7
TAP	90	192	0
TAP	90	240	0
TAP	90	288	0
TAP	91	0	1
TAP	91	96	0
TAP	91	96	1
TAP	91	192	7
TAP	91	240	7
TAP	91	288	7
TAP	92	0	6
TAP	92	96	4
TAP	92	96	5
TAP	92	192	3
TAP	92	240	3
TAP	92	288	3
TAP	93	0	2
TAP	93	96	2
TAP	93	96	3
TAP	93	192	4
TAP	93	240	4
TAP	93	288	4
TAP	94	0	5
TAP	94	96	4
TAP	94	96	5
TAP	94	192	6
TAP	94	240	6
TAP	94	288	6
TAP	95	0	7
TAP	95	48	7
TAP	95	96	7
TAP	95	192	0
TAP	95	192	7
TAP	95	240	0
TAP	95	240	7
TAP	95	288	0
TAP	95	288	7
BST	96	0	1
SXL	96	0	1	96	480	7
BST	96	0	6
SXR	96	0	6	96	480	0

T_REC_TAP	293
T_REC_BRK	6
T_REC_XTP	24
T_REC_HLD	8
T_REC_XHO	2
T_REC_STR	12
T_REC_BST	10
T_REC_XST	0
T_REC_TTP	33
T_REC_THO	0
T_REC_SLD	22
T_REC_ALL	410
T_NUM_TAP	362
T_NUM_BRK	16
T_NUM_HLD	10
T_NUM_SLD	22
T_NUM_ALL	410
T_JUDGE_TAP	378
T_JUDGE_HLD	40
T_JUDGE_SLD	22
T_JUDGE_ALL	440
TTM_EACHPAIRS	73
TTM_SCR_TAP	181000
TTM_SCR_BRK	41600
TTM_SCR_HLD	10000
TTM_SCR_SLD	33000
TTM_SCR_ALL	265600
TTM_SCR_S	256100
TTM_SCR_SS	264000
TTM_RAT_ACV	10060

