VERSION	0.00.00	1.03.00
FES_MODE	0
BPM_DEF	155.000	155.000	180.000	155.000
MET_DEF	4	4
RESOLUTION	384
CLK_DEF	384
COMPATIBLE_CODE	MA2

BPM	0	0	155.000
BPM	73	0	160.000
BPM	74	0	165.000
BPM	75	0	170.000
BPM	76	0	175.000
BPM	77	0	180.000
MET	0	0	4	4

XTP	2	0	0
XHO	2	96	0	288
XTP	3	192	0
TAP	4	0	7
HLD	4	96	7	288
TAP	5	192	7
TAP	6	0	0
HLD	6	96	0	288
TAP	7	192	0
HLD	8	0	0	384
HLD	8	0	7	384
TAP	10	0	1
TAP	10	192	2
TAP	11	0	3
TAP	11	192	3
TAP	12	0	4
TAP	12	192	5
TAP	13	0	6
TAP	13	192	0
TAP	13	192	7
TAP	14	0	6
TAP	14	192	5
TAP	15	0	4
TAP	15	192	3
TAP	15	192	4
TAP	16	0	2
TAP	16	192	1
XTP	17	0	0
XTP	17	0	7
TAP	18	0	1
TAP	18	96	1
TAP	18	192	1
TAP	19	0	2
TAP	19	192	2
TAP	20	0	3
TAP	20	96	3
TAP	20	192	3
TAP	21	0	3
TAP	21	0	4
TAP	21	192	3
TAP	21	192	4
TAP	22	0	5
TAP	22	96	5
TAP	22	192	5
TAP	23	0	6
TAP	23	192	6
TAP	24	0	7
TAP	24	96	7
TAP	24	192	7
BRK	25	0	0
BRK	25	0	7
STR	26	0	7
SI_	26	0	7	96	288	4
STR	28	0	3
SI_	28	0	3	96	288	0
STR	30	0	7
SI_	30	0	7	96	288	2
STR	32	0	1
SI_	32	0	1	96	288	4
BRK	34	0	3
BRK	34	0	4
TTP	36	0	4	B	0	L1
TTP	36	192	5	B	0	L1
TTP	37	0	6	B	0	L1
TTP	37	192	7	B	0	L1
TTP	38	0	0	B	0	L1
TTP	38	192	1	B	0	L1
TTP	39	0	2	B	0	L1
TTP	39	192	3	B	0	L1
TTP	40	0	4	E	0	L1
TTP	40	192	3	E	0	L1
TTP	41	0	2	E	0	L1
TTP	41	192	1	E	0	L1
TTP	42	0	0	E	0	L1
TTP	42	192	7	E	0	L1
TTP	43	0	0	C	1	L1
XTP	44	0	0
XTP	44	96	0
TAP	44	192	0
TAP	45	0	0
TAP	45	0	1
TAP	45	192	0
TAP	45	192	1
XTP	46	0	2
XTP	46	96	2
TAP	46	192	2
TAP	47	0	2
TAP	47	0	3
TAP	47	192	2
TAP	47	192	3
TAP	48	0	4
TAP	48	96	4
TAP	48	192	4
TAP	49	0	4
TAP	49	0	5
TAP	49	192	4
TAP	49	192	5
TAP	50	0	6
TAP	50	96	6
TAP	50	192	6
BRK	51	0	0
BRK	51	0	7
TTP	52	0	0	B	0	L1
TTP	52	0	7	B	0	L1
TTP	53	0	1	B	0	L1
TTP	53	0	6	B	0	L1
THO	54	0	0	384	C	1	L1
TTP	54	0	2	B	0	L1
TTP	54	0	5	B	0	L1
BRK	56	0	7
TAP	56	96	7
TAP	56	192	7
TAP	56	288	7
TAP	57	0	6
TAP	57	96	6
TAP	57	192	6
TAP	57	192	7
TAP	58	0	5
TAP	58	96	5
TAP	58	192	5
TAP	58	288	5
TAP	59	0	4
TAP	59	96	4
TAP	59	192	3
TAP	59	192	4
TAP	60	0	2
TAP	60	96	2
TAP	60	192	2
TAP	60	288	2
TAP	61	0	1
TAP	61	96	1
TAP	61	192	0
TAP	61	192	1
TAP	62	0	7
TAP	62	96	7
TAP	62	192	0
TAP	62	288	0
TAP	63	0	0
TAP	63	0	7
TAP	63	96	0
TAP	63	96	7
TAP	63	192	0
TAP	63	192	7
HLD	64	0	1	192
HLD	65	0	0	192
HLD	65	0	7	192
TAP	66	0	1
TAP	66	96	1
TAP	66	192	2
TAP	66	288	2
TAP	67	0	3
TAP	67	96	3
TAP	67	192	3
TAP	67	192	4
TAP	68	0	5
TAP	68	96	5
TAP	68	192	4
TAP	68	288	4
TAP	69	0	3
TAP	69	96	3
TAP	69	192	3
TAP	69	192	4
TAP	70	0	5
TAP	70	96	5
TAP	70	192	6
TAP	70	288	6
TAP	71	0	7
TAP	71	96	7
TAP	71	192	0
TAP	71	288	0
BRK	72	0	0
BRK	72	0	7
STR	74	0	0
SI_	74	0	0	96	288	3
STR	74	0	7
SI_	74	0	7	96	288	4
STR	76	0	3
SI_	76	0	3	96	288	0
STR	76	0	4
SI_	76	0	4	96	288	7
TAP	78	0	0
TAP	78	0	7
TAP	78	192	0
TAP	78	192	7
BRK	79	0	0
BRK	79	0	7
TAP	80	0	6
TAP	80	96	6
TAP	80	192	6
TAP	81	0	5
TAP	81	96	5
TAP	81	192	5
TAP	82	0	4
TAP	82	96	4
TAP	82	192	4
TAP	83	0	2
TAP	83	0	3
TAP	83	96	2
TAP	83	96	3
TAP	83	192	2
TAP	83	192	3
TAP	84	0	1
TAP	84	96	1
TAP	84	192	1
TAP	85	0	0
TAP	85	96	0
TAP	85	192	0
TAP	86	0	7
TAP	86	96	7
TAP	86	192	7
TAP	87	0	6
TAP	87	0	7
TAP	87	96	6
TAP	87	96	7
TAP	87	192	6
TAP	87	192	7
TAP	88	0	0
TAP	88	96	0
TAP	88	192	1
TAP	88	288	1
TAP	89	0	2
TAP	89	96	2
TAP	89	192	3
TAP	89	192	4
TAP	89	288	3
TAP	89	288	4
TAP	90	0	5
TAP	90	96	5
TAP	90	192	6
TAP	90	288	6
TAP	91	0	7
TAP	91	96	7
TAP	91	192	0
TAP	91	192	1
TAP	91	288	0
TAP	91	288	1
TAP	92	0	7
TAP	92	96	7
TAP	92	192	6
TAP	92	288	6
TAP	93	0	5
TAP	93	96	5
TAP	93	192	3
TAP	93	192	4
TAP	93	288	3
TAP	93	288	4
TAP	94	0	2
TAP	94	0	5
TAP	94	96	2
TAP	94	96	5
TAP	94	192	1
TAP	94	192	6
TAP	94	288	1
TAP	94	288	6
TAP	95	0	0
TAP	95	0	7
TAP	95	96	0
TAP	95	96	7
TAP	95	192	1
TAP	95	192	6
TAP	95	288	2
TAP	95	288	5
BRK	96	0	3
BRK	96	0	4

T_REC_TAP	197
T_REC_BRK	13
T_REC_XTP	8
T_REC_HLD	7
T_REC_XHO	1
T_REC_STR	8
T_REC_BST	0
T_REC_XST	0
T_REC_TTP	21
T_REC_THO	1
T_REC_SLD	8
T_REC_ALL	264
T_NUM_TAP	234
T_NUM_BRK	13
T_NUM_HLD	9
T_NUM_SLD	8
T_NUM_ALL	264
T_JUDGE_TAP	247
T_JUDGE_HLD	54
T_JUDGE_SLD	8
T_JUDGE_ALL	309
TTM_EACHPAIRS	51
TTM_SCR_TAP	117000
TTM_SCR_BRK	33800
TTM_SCR_HLD	9000
TTM_SCR_SLD	12000
TTM_SCR_ALL	171800
TTM_SCR_S	165400
TTM_SCR_SS	170500
TTM_RAT_ACV	10076

