VERSION	0.00.00	1.03.00
FES_MODE	0
BPM_DEF	107.000	107.000	107.000	107.000
MET_DEF	4	4
RESOLUTION	384
CLK_DEF	384
COMPATIBLE_CODE	MA2

BPM	0	0	107.000
MET	0	0	4	4

TAP	1	0	2
HLD	1	48	2	128
HLD	1	96	4	224
TTP	1	240	4	E	0	M1
TAP	1	320	3
TAP	2	0	5
HLD	2	48	5	128
HLD	2	96	3	224
TTP	2	240	4	E	0	M1
TAP	2	320	4
TAP	3	0	2
HLD	3	48	2	128
HLD	3	96	4	224
TTP	3	240	4	E	0	M1
TAP	3	320	3
TAP	4	0	5
HLD	4	48	5	128
HLD	4	96	3	224
TTP	4	240	4	E	0	M1
TAP	4	320	4
HLD	5	0	2	288
HLD	5	0	5	288
TAP	5	320	3
TAP	5	336	4
STR	6	0	0
SI_	6	0	0	96	48	3
TAP	6	48	5
TAP	6	96	0
TAP	6	96	4
TAP	6	144	6
TAP	6	176	6
STR	6	192	0
SI_	6	192	0	96	48	3
TAP	6	240	4
TAP	6	288	0
TAP	6	288	5
TAP	6	336	6
STR	7	0	7
SI_	7	0	7	96	48	4
TAP	7	48	2
TAP	7	96	3
TAP	7	96	7
TAP	7	144	1
TAP	7	176	1
STR	7	192	7
SI_	7	192	7	96	48	4
TAP	7	240	3
TAP	7	288	2
TAP	7	288	7
TAP	7	336	3
TAP	8	0	4
TAP	8	32	4
TAP	8	48	2
TAP	8	80	2
TAP	8	96	6
TAP	8	128	6
TAP	8	144	0
TAP	8	176	0
STR	8	192	7
SI_	8	192	7	96	48	3
STR	8	240	1
SI_	8	240	1	96	48	5
TAP	8	288	7
TAP	8	336	1
TAP	9	0	6
TAP	9	32	6
TAP	9	48	4
TAP	9	80	4
TAP	9	96	3
TAP	9	128	3
TAP	9	144	1
TAP	9	176	1
TAP	9	192	4
TAP	9	224	4
TAP	9	240	3
TAP	9	272	3
TAP	9	288	5
TAP	9	336	2
TAP	9	336	6
TAP	10	0	1
TAP	10	32	1
TAP	10	48	3
TAP	10	80	3
TAP	10	96	4
TAP	10	128	4
TAP	10	144	6
TAP	10	176	6
TAP	10	192	3
TAP	10	224	3
TAP	10	240	4
TAP	10	272	4
TAP	10	288	2
TAP	10	336	1
TAP	10	336	5
TAP	11	0	2
TAP	11	32	2
TAP	11	48	0
TAP	11	80	0
TAP	11	96	7
TAP	11	128	7
TAP	11	144	5
TAP	11	176	5
TAP	11	192	2
TAP	11	224	2
TAP	11	240	4
TAP	11	272	4
TAP	11	288	3
TAP	11	336	2
TAP	11	336	6
TAP	12	0	5
TAP	12	32	5
TAP	12	48	7
TAP	12	80	7
TAP	12	96	0
TAP	12	128	0
TAP	12	144	2
TAP	12	176	2
TAP	12	192	5
TAP	12	224	5
TAP	12	240	3
TAP	12	272	3
STR	12	288	4
SI_	12	288	4	96	48	1
SI_	12	288	4	96	48	7
TAP	12	336	3
TAP	12	336	5
TAP	13	96	7
TAP	13	144	6
TAP	13	192	3
TAP	13	192	5
TAP	13	240	2
TAP	13	288	1
HLD	13	336	1	96
TAP	14	0	3
HLD	14	48	5	96
TAP	14	96	4
HLD	14	144	2	96
TAP	14	192	0
TAP	14	240	7
STR	14	288	3
SI_	14	288	3	96	48	0
STR	14	288	6
SI_	14	288	6	96	48	2
TAP	14	336	7
TAP	15	0	3
TAP	15	0	6
STR	15	96	1
SI_	15	96	1	96	48	5
STR	15	96	4
SI_	15	96	4	96	48	7
TAP	15	144	0
TAP	15	192	1
TAP	15	192	4
TAP	15	288	2
TAP	15	288	6
TAP	15	336	1
XTP	16	0	0
XTP	16	0	7
XTP	16	48	0
XTP	16	48	7
XTP	16	96	1
XTP	16	96	6
XTP	16	144	2
XTP	16	144	5
XTP	16	192	3
XTP	16	192	4
STR	16	288	0
SI_	16	288	0	96	48	3
TAP	16	336	1
BST	17	0	7
SCL	17	0	7	96	48	4
TAP	17	48	6
STR	17	96	1
SXL	17	96	1	96	144	4
TAP	17	144	2
TAP	17	192	4
TAP	17	240	5
STR	17	288	6
SI_	17	288	6	96	48	0
TAP	17	336	7
STR	18	0	2
SI_	18	0	2	96	48	4
TAP	18	48	3
STR	18	96	5
SXL	18	96	5	96	144	3
TAP	18	144	6
TAP	18	192	3
TAP	18	240	2
STR	18	288	1
SI_	18	288	1	96	48	5
TAP	18	336	0
STR	19	0	4
SI_	19	0	4	96	48	7
TAP	19	48	3
STR	19	96	2
SCL	19	96	2	96	48	0
TAP	19	144	3
STR	19	192	7
SI_	19	192	7	96	48	3
TAP	19	240	6
STR	19	288	2
SLR	19	288	2	96	96	0
TAP	19	336	1
TAP	20	0	4
TAP	20	48	5
STR	20	96	6
SUL	20	96	6	96	48	1
SLL	20	96	6	96	48	1
TAP	20	144	7
TAP	20	288	0
STR	20	288	7
SI_	20	288	7	96	48	4
TAP	20	336	6
BST	21	0	0
SCR	21	0	0	96	48	3
TAP	21	48	1
STR	21	96	6
SXR	21	96	6	96	144	3
TAP	21	144	5
TAP	21	192	3
TAP	21	240	2
STR	21	288	1
SI_	21	288	1	96	48	7
TAP	21	336	0
STR	22	0	5
SI_	22	0	5	96	48	3
TAP	22	48	4
STR	22	96	2
SXR	22	96	2	96	144	4
TAP	22	144	1
TAP	22	192	4
TAP	22	240	5
STR	22	288	6
SI_	22	288	6	96	48	2
TAP	22	336	7
STR	23	0	3
SI_	23	0	3	96	48	0
TAP	23	48	4
STR	23	96	5
SCR	23	96	5	96	48	7
TAP	23	144	4
STR	23	192	0
SI_	23	192	0	96	48	4
TAP	23	240	1
STR	23	288	5
SLL	23	288	5	96	96	7
TAP	23	336	6
TAP	24	0	3
TAP	24	48	2
STR	24	96	1
SCR	24	96	1	96	48	3
TAP	24	144	0
STR	24	192	6
SCL	24	192	6	96	48	4
TAP	24	240	7
STR	24	288	0
SI_	24	288	0	96	48	3
TAP	24	336	7
HLD	25	0	4	96
TAP	25	96	3
TAP	25	192	2
TAP	25	192	5
TAP	25	240	3
TAP	25	256	2
TAP	25	272	4
TAP	25	288	5
TAP	25	336	3
TAP	26	0	4
TTP	26	192	3	B	0	M1
TTP	26	192	3	E	0	M1
TTP	26	192	4	B	0	M1
TTP	26	192	5	E	0	M1
HLD	27	0	5	96
TAP	27	48	4
HLD	27	96	7	96
TAP	27	144	6
HLD	27	192	5	96
TAP	27	240	4
HLD	27	288	7	96
TAP	27	336	6
HLD	28	0	5	96
TAP	28	48	3
STR	28	96	0
SI_	28	96	0	96	48	4
TAP	28	144	7
STR	28	192	6
SI_	28	192	6	96	48	3
TAP	28	240	7
TAP	28	288	1
TAP	28	336	1
HLD	29	0	2	96
TAP	29	48	3
HLD	29	96	0	96
TAP	29	144	1
HLD	29	192	2	96
TAP	29	240	3
HLD	29	288	0	96
TAP	29	336	1
HLD	30	0	2	96
TAP	30	48	4
STR	30	96	5
SI_	30	96	5	96	48	1
TAP	30	144	4
STR	30	192	3
SI_	30	192	3	96	48	7
TAP	30	240	4
TAP	30	288	5
TAP	30	336	6
STR	31	0	7
SXL	31	0	7	96	192	5
TAP	31	96	0
TTP	31	192	4	E	0	M1
TTP	31	240	2	B	0	M1
TTP	31	288	1	E	0	M1
TAP	31	336	0
STR	32	0	0
SXR	32	0	0	96	192	2
TAP	32	96	7
TTP	32	192	4	E	0	M1
TTP	32	240	5	B	0	M1
TTP	32	288	7	E	0	M1
TAP	32	336	7
STR	33	0	7
SXR	33	0	7	96	144	7
TAP	33	96	0
TTP	33	192	4	E	0	M1
TTP	33	240	2	B	0	M1
TTP	33	288	1	E	0	M1
TAP	33	336	0
XTP	34	0	0
XTP	34	0	7
XTP	34	32	1
XTP	34	32	3
XTP	34	64	4
XTP	34	64	6
XST	34	96	0
SI_	34	96	0	96	48	3
XST	34	96	7
SI_	34	96	7	96	48	4
XTP	34	128	1
XTP	34	128	3
XTP	34	160	4
XTP	34	160	6
HLD	35	0	2	96
STR	35	0	3
SCL	35	0	3	96	192	6
TAP	35	192	4
TAP	35	240	4
TAP	35	288	3
TAP	35	336	2
HLD	36	0	1	96
STR	36	0	3
SCL	36	0	3	96	192	5
TAP	36	192	3
TAP	36	240	3
TAP	36	288	2
TAP	36	336	1
HLD	37	0	0	96
STR	37	0	3
SCL	37	0	3	96	192	4
TAP	37	192	3
TAP	37	240	2
STR	37	288	1
SUR	37	288	1	96	144	3
HLD	38	0	5	368
HLD	38	192	4	144
STR	39	0	4
SCR	39	0	4	96	96	0
TAP	39	48	2
STR	39	96	0
SCR	39	96	0	96	96	4
TAP	39	192	4
TTP	39	288	0	E	0	M1
TTP	39	336	1	E	0	M1
TTP	40	0	2	E	0	M1
TAP	40	80	3
HLD	40	80	5	64
TAP	40	144	3
HLD	40	192	2	80
TAP	40	192	6
TAP	40	272	6
TAP	40	336	4
STR	41	0	3
SCL	41	0	3	96	96	7
TAP	41	48	5
STR	41	96	7
SCL	41	96	7	96	96	3
TAP	41	192	3
TTP	41	288	7	E	0	M1
TTP	41	336	6	E	0	M1
TTP	42	0	5	E	0	M1
HLD	42	80	2	64
TAP	42	80	4
TAP	42	144	4
TAP	42	192	1
HLD	42	192	5	80
TAP	42	272	1
TAP	42	320	0
TAP	42	320	6
TAP	42	336	0
TAP	42	336	6
STR	43	0	7
SCL	43	0	7	96	480	0
HLD	44	0	7	192
TAP	44	288	0
STR	45	0	0
SCR	45	0	0	96	480	7
HLD	46	0	0	192
TAP	47	0	3
STR	47	0	7
SI_	47	0	7	96	48	4
STR	47	96	0
SI_	47	96	0	96	48	3
STR	47	192	7
SI_	47	192	7	96	48	4
STR	47	288	0
SI_	47	288	0	96	48	3
STR	48	0	6
SI_	48	0	6	96	48	4
TAP	48	48	7
STR	48	96	1
SI_	48	96	1	96	48	3
TAP	48	144	0
STR	48	192	6
SI_	48	192	6	96	48	4
TAP	48	240	7
STR	48	288	1
SI_	48	288	1	96	48	3
TAP	48	336	0
TAP	49	0	5
TAP	49	48	5
TAP	49	96	6
TAP	49	144	6
TAP	49	192	0
TAP	49	192	7
TAP	49	240	0
TAP	49	240	7
TAP	49	288	0
TAP	49	288	7
TAP	49	336	6
TAP	50	0	1
TAP	50	0	5
TAP	50	48	2
TAP	50	48	6
STR	50	96	3
SCL	50	96	3	96	48	0
STR	50	96	7
SCL	50	96	7	96	48	4
TAP	50	144	0
TAP	50	144	4
STR	50	288	4
SI_	50	288	4	96	48	7
TAP	50	336	5
BST	51	0	1
SCR	51	0	1	96	48	4
TAP	51	48	2
STR	51	96	6
SXR	51	96	6	96	144	7
TAP	51	144	5
TAP	51	192	3
TAP	51	240	2
STR	51	288	1
SI_	51	288	1	96	48	4
TAP	51	336	0
STR	52	0	5
SI_	52	0	5	96	48	7
TAP	52	48	6
STR	52	96	2
SXL	52	96	2	96	144	0
TAP	52	144	1
TAP	52	192	4
TAP	52	240	5
STR	52	288	6
SV_	52	288	6	96	48	1
TAP	52	336	7
STR	53	0	3
SCL	53	0	3	96	48	0
TAP	53	48	4
STR	53	96	5
SI_	53	96	5	96	48	7
TAP	53	144	4
STR	53	192	0
SCR	53	192	0	96	48	3
TAP	53	240	1
STR	53	288	5
SLL	53	288	5	96	96	7
TAP	53	336	6
TAP	54	0	3
TAP	54	48	2
STR	54	96	1
SV_	54	96	1	96	48	6
SLR	54	96	1	96	48	6
TAP	54	144	0
STR	54	288	3
SI_	54	288	3	96	48	0
TAP	54	288	7
TAP	54	336	2
BST	55	0	7
SCL	55	0	7	96	48	4
TAP	55	48	6
STR	55	96	1
SXL	55	96	1	96	144	0
TAP	55	144	2
TAP	55	192	4
TAP	55	240	5
STR	55	288	6
SI_	55	288	6	96	48	3
TAP	55	336	7
STR	56	0	2
SI_	56	0	2	96	48	0
TAP	56	48	1
STR	56	96	5
SXR	56	96	5	96	144	7
TAP	56	144	6
TAP	56	192	3
TAP	56	240	2
STR	56	288	1
SV_	56	288	1	96	48	6
TAP	56	336	0
STR	57	0	4
SCR	57	0	4	96	48	7
TAP	57	48	3
STR	57	96	2
SI_	57	96	2	96	48	0
TAP	57	144	3
STR	57	192	7
SCL	57	192	7	96	48	4
TAP	57	240	6
STR	57	288	2
SLR	57	288	2	96	96	0
TAP	57	336	1
TAP	58	0	4
TAP	58	48	5
STR	58	96	6
SCL	58	96	6	96	48	4
TAP	58	144	7
STR	58	192	1
SCR	58	192	1	96	48	3
TAP	58	240	0
TAP	58	288	7
TAP	58	336	7
BRK	59	0	2
BRK	59	0	6
TAP	59	48	5
TAP	59	80	5
TAP	59	96	3
TAP	59	144	2
TAP	59	144	6
STR	59	192	0
SI_	59	192	0	96	48	4
TAP	59	224	0
STR	59	240	7
SI_	59	240	7	96	48	3
TAP	59	272	7
XTP	59	288	0
XTP	59	336	7
TAP	60	0	1
TAP	60	48	2
TAP	60	80	2
TAP	60	96	4
TAP	60	144	1
TAP	60	144	5
STR	60	192	6
SI_	60	192	6	96	48	2
TAP	60	224	6
STR	60	240	3
SI_	60	240	3	96	48	0
TAP	60	272	3
XTP	60	288	6
XTP	60	336	3
TAP	61	0	7
TAP	61	48	6
TAP	61	80	6
TAP	61	96	4
TAP	61	144	3
TAP	61	144	7
STR	61	192	2
SI_	61	192	2	96	48	7
TAP	61	224	2
STR	61	240	6
SI_	61	240	6	96	48	3
TAP	61	272	6
XTP	61	288	2
XTP	61	336	6
TAP	62	0	1
TAP	62	48	0
TAP	62	80	0
TAP	62	96	6
TAP	62	144	1
TAP	62	144	5
STR	62	192	4
SI_	62	192	4	96	48	7
TAP	62	224	4
STR	62	240	3
SI_	62	240	3	96	48	0
TAP	62	272	3
XTP	62	288	4
XTP	62	336	3
BRK	63	0	7
TAP	63	48	5
TAP	63	80	5
TAP	63	96	3
TAP	63	128	3
TAP	63	144	4
STR	63	192	0
SI_	63	192	0	96	48	4
TAP	63	224	1
STR	63	240	7
SI_	63	240	7	96	48	3
TAP	63	272	6
BRK	63	288	0
BRK	63	336	7
TAP	64	0	2
TAP	64	48	1
TAP	64	80	1
TAP	64	96	3
TAP	64	128	3
TAP	64	144	2
STR	64	192	4
SI_	64	192	4	96	48	0
TAP	64	224	5
STR	64	240	3
SI_	64	240	3	96	48	7
TAP	64	272	2
BRK	64	288	4
BRK	64	336	3
TAP	65	0	5
TAP	65	48	6
TAP	65	80	6
TAP	65	96	0
TAP	65	128	0
TAP	65	144	7
STR	65	192	1
SCR	65	192	1	96	48	4
TAP	65	224	2
STR	65	240	0
SCL	65	240	0	96	48	5
TAP	65	272	7
BRK	65	288	1
BRK	65	336	0
TAP	66	0	2
TAP	66	48	1
TAP	66	96	0
TAP	66	96	3
TAP	66	144	7
TAP	66	192	4
TAP	66	192	6
TAP	66	240	5
STR	66	288	3
SCL	66	288	3	96	48	1
STR	66	288	4
SCR	66	288	4	96	48	6
TAP	66	336	2
TAP	66	336	5
TAP	67	96	4
TAP	67	192	2
TAP	67	192	5
TAP	67	240	3
TAP	67	256	2
TAP	67	272	4
TAP	67	288	5
TAP	67	336	3
HLD	68	0	4	96
TAP	68	96	3
TAP	68	192	2
TAP	68	192	5

T_REC_TAP	353
T_REC_BRK	9
T_REC_XTP	28
T_REC_HLD	36
T_REC_XHO	0
T_REC_STR	101
T_REC_BST	4
T_REC_XST	2
T_REC_TTP	23
T_REC_THO	0
T_REC_SLD	110
T_REC_ALL	666
T_NUM_TAP	507
T_NUM_BRK	13
T_NUM_HLD	36
T_NUM_SLD	110
T_NUM_ALL	666
T_JUDGE_TAP	520
T_JUDGE_HLD	212
T_JUDGE_SLD	110
T_JUDGE_ALL	842
TTM_EACHPAIRS	57
TTM_SCR_TAP	253500
TTM_SCR_BRK	33800
TTM_SCR_HLD	36000
TTM_SCR_SLD	165000
TTM_SCR_ALL	488300
TTM_SCR_S	472400
TTM_SCR_SS	487000
TTM_RAT_ACV	10026

