VERSION	0.00.00	1.03.00
FES_MODE	0
BPM_DEF	107.000	107.000	107.000	107.000
MET_DEF	4	4
RESOLUTION	384
CLK_DEF	384
COMPATIBLE_CODE	MA2

BPM	0	0	107.000
MET	0	0	4	4

TAP	1	0	2
TAP	1	48	2
XHO	1	96	2	144
XHO	1	176	4	144
TAP	2	0	5
TAP	2	48	5
XHO	2	96	5	144
XHO	2	176	3	144
TAP	3	0	2
TAP	3	48	2
XHO	3	96	2	144
XHO	3	176	4	144
TAP	4	0	5
TAP	4	48	5
XHO	4	96	5	80
XTP	4	176	3
TAP	4	240	3
TAP	4	240	4
TAP	4	320	2
TAP	4	320	3
XHO	5	0	2	192
XHO	5	0	4	384
TAP	6	0	3
TAP	6	48	3
TAP	6	96	5
TAP	6	144	6
TAP	6	192	0
TAP	6	240	1
TAP	6	288	2
TAP	6	336	1
TAP	7	0	7
TAP	7	48	6
TAP	7	96	5
TAP	7	144	5
TAP	7	192	4
TAP	7	240	6
TAP	7	288	4
TAP	7	336	3
TAP	8	0	2
TAP	8	0	6
TAP	8	48	2
TAP	8	48	6
TAP	8	96	1
TAP	8	96	5
XTP	8	144	1
XTP	8	144	5
XTP	8	240	2
XTP	8	240	4
XTP	8	288	3
XTP	8	336	2
XTP	8	336	4
BRK	9	0	1
BRK	9	0	5
TAP	9	48	0
TAP	9	96	1
TAP	9	144	2
TAP	9	192	4
TAP	9	240	5
TAP	9	288	6
TAP	9	336	5
TAP	10	0	3
TAP	10	48	2
TAP	10	96	1
TAP	10	144	7
TAP	10	192	6
TAP	10	240	5
TAP	10	288	3
TAP	10	336	2
TAP	11	0	4
TAP	11	48	5
TAP	11	96	4
TAP	11	96	6
TAP	11	144	7
TAP	11	192	3
TAP	11	240	2
TAP	11	288	1
TAP	11	288	3
TAP	11	336	0
TAP	12	0	6
TAP	12	48	5
TAP	12	96	3
TAP	12	144	2
TAP	12	192	4
TAP	12	240	5
TAP	12	288	3
TAP	12	336	2
BST	13	0	2
SCL	13	0	2	96	96	7
BRK	13	0	3
STR	13	192	6
SCL	13	192	6	96	96	3
HLD	14	0	1	96
TAP	14	96	3
HLD	14	192	5	96
TAP	14	288	4
HLD	15	0	2	96
HLD	15	96	3	96
HLD	15	192	4	96
HLD	15	288	5	96
XTP	16	0	4
XTP	16	48	4
XTP	16	96	3
XTP	16	144	2
XTP	16	192	1
XTP	16	192	6
TAP	16	288	7
TAP	16	336	6
BRK	17	0	3
BRK	17	0	5
TAP	17	48	1
TAP	17	96	3
TAP	17	96	5
TAP	17	144	6
TAP	17	192	2
TAP	17	192	4
TAP	17	240	0
TAP	17	288	2
TAP	17	288	4
TAP	17	336	6
TAP	18	0	3
TAP	18	0	4
TAP	18	48	1
TAP	18	96	3
TAP	18	96	4
TAP	18	144	7
TAP	18	192	2
TAP	18	192	3
TAP	18	240	0
TAP	18	288	4
TAP	18	288	5
TAP	18	336	6
TAP	19	0	3
TAP	19	0	5
TAP	19	48	1
TAP	19	96	3
TAP	19	96	5
TAP	19	144	7
TAP	19	192	2
TAP	19	192	4
TAP	19	240	0
TAP	19	288	2
TAP	19	288	4
TAP	19	336	7
TAP	20	0	6
TAP	20	48	5
STR	20	96	4
SI_	20	96	4	96	48	0
TAP	20	144	3
TAP	20	192	2
XTP	20	288	1
XTP	20	336	2
BRK	21	0	3
BRK	21	0	5
TAP	21	48	7
TAP	21	96	3
TAP	21	96	5
TAP	21	144	1
TAP	21	192	2
TAP	21	192	4
TAP	21	240	7
TAP	21	288	2
TAP	21	288	4
TAP	21	336	0
TAP	22	0	4
TAP	22	0	5
TAP	22	48	6
TAP	22	96	4
TAP	22	96	5
TAP	22	144	0
TAP	22	192	2
TAP	22	192	3
TAP	22	240	7
TAP	22	288	2
TAP	22	288	3
TAP	22	336	1
TAP	23	0	4
TAP	23	0	5
TAP	23	48	7
TAP	23	96	3
TAP	23	96	4
TAP	23	144	1
TAP	23	192	2
TAP	23	192	3
TAP	23	240	6
TAP	23	288	2
TAP	23	288	4
TAP	23	336	0
TAP	24	0	1
TAP	24	0	3
TAP	24	48	2
TAP	24	96	4
TAP	24	96	6
TAP	24	144	5
TAP	24	192	3
TAP	24	192	4
TAP	24	240	2
TAP	24	288	1
TAP	24	288	3
TAP	24	336	0
TAP	24	336	4
HLD	25	0	5	384
TAP	25	0	7
TAP	26	0	3
TTP	26	192	3	B	0	M1
TTP	26	192	3	E	0	M1
TTP	26	192	4	B	0	M1
TTP	26	192	5	E	0	M1
HLD	27	0	5	96
HLD	27	96	4	96
HLD	27	192	6	96
HLD	27	288	5	96
TAP	28	0	4
STR	28	96	3
SI_	28	96	3	96	48	1
TAP	28	96	5
STR	28	192	6
SI_	28	192	6	96	48	0
HLD	29	0	1	96
HLD	29	96	3	96
HLD	29	192	2	96
HLD	29	288	1	96
TAP	30	0	0
TAP	30	96	7
TAP	30	144	7
TAP	30	192	1
TAP	30	240	1
TAP	30	288	2
TAP	30	288	5
TAP	30	336	2
TAP	30	336	5
BST	31	0	3
SCL	31	0	3	96	96	0
BRK	31	0	4
TTP	31	192	0	C	0	M1
TTP	31	288	0	E	0	M1
TAP	32	0	0
STR	32	0	7
SCL	32	0	7	96	96	4
TTP	32	192	0	C	0	M1
TTP	32	288	5	E	0	M1
STR	33	0	4
SCL	33	0	4	96	96	1
TAP	33	0	5
TTP	33	192	5	E	0	M1
TTP	33	288	0	C	0	M1
XTP	34	0	7
XTP	34	32	7
XTP	34	64	7
XTP	34	96	0
XTP	34	128	0
XTP	34	160	0
XTP	34	192	1
XTP	34	192	7
STR	35	0	2
SCL	35	0	2	96	192	5
TAP	35	192	3
TAP	35	288	2
STR	36	0	1
SCL	36	0	1	96	192	4
TAP	36	192	2
TAP	36	288	1
STR	37	0	0
SCR	37	0	0	96	192	5
TAP	37	192	6
STR	37	288	7
SUR	37	288	7	96	192	2
BRK	38	0	5
STR	39	0	3
SCL	39	0	3	96	192	6
TAP	39	192	4
TAP	39	288	3
STR	40	0	2
SCL	40	0	2	96	192	5
TAP	40	192	3
TAP	40	288	2
STR	41	0	1
SCL	41	0	1	96	192	4
TAP	41	192	4
TAP	41	288	3
TAP	42	0	3
XTP	42	80	2
XTP	42	80	4
XTP	42	144	2
XTP	42	144	4
XHO	42	192	1	80
XHO	42	192	5	80
XTP	42	336	0
XHO	43	0	0	384
HLD	44	0	7	384
THO	45	0	0	384	C	0	M1
HLD	46	0	0	192
STR	47	0	7
SI_	47	0	7	96	96	4
STR	47	192	0
SI_	47	192	0	96	96	3
STR	48	0	6
SI_	48	0	6	96	96	3
STR	48	192	1
SI_	48	192	1	96	96	4
TAP	49	0	5
TAP	49	96	4
TAP	49	192	3
TAP	49	240	3
TAP	49	288	2
TAP	49	336	2
TAP	50	0	1
TAP	50	0	7
TAP	50	48	1
TAP	50	48	7
TAP	50	96	2
TAP	50	96	6
TAP	50	144	2
TAP	50	144	6
TAP	50	192	3
HLD	50	192	5	96
TAP	50	288	4
TAP	50	336	4
BRK	51	0	3
BRK	51	0	5
TAP	51	48	6
TAP	51	96	3
TAP	51	96	5
TAP	51	144	0
TAP	51	192	2
TAP	51	192	4
TAP	51	240	7
TAP	51	288	2
TAP	51	288	4
TAP	51	336	1
TAP	52	0	4
TAP	52	0	5
TAP	52	48	6
TAP	52	96	4
TAP	52	96	5
TAP	52	144	0
TAP	52	192	2
TAP	52	192	3
TAP	52	240	7
TAP	52	288	2
TAP	52	288	3
TAP	52	336	1
TAP	53	0	3
TAP	53	0	4
TAP	53	48	7
TAP	53	96	3
TAP	53	96	4
TAP	53	144	1
TAP	53	192	3
TAP	53	192	5
TAP	53	240	6
TAP	53	288	2
TAP	53	288	4
TAP	53	336	0
TAP	54	0	1
TAP	54	48	2
STR	54	96	3
SI_	54	96	3	96	48	7
TAP	54	144	4
TAP	54	192	5
TAP	54	288	6
TAP	54	336	6
BRK	55	0	3
BRK	55	0	5
TAP	55	48	1
TAP	55	96	3
TAP	55	96	5
TAP	55	144	7
TAP	55	192	2
TAP	55	192	3
TAP	55	240	0
TAP	55	288	2
TAP	55	288	3
TAP	55	336	7
TAP	56	0	4
TAP	56	0	5
TAP	56	48	1
TAP	56	96	4
TAP	56	96	5
TAP	56	144	7
TAP	56	192	3
TAP	56	192	4
TAP	56	240	0
TAP	56	288	3
TAP	56	288	4
TAP	56	336	6
TAP	57	0	4
TAP	57	0	5
TAP	57	48	0
TAP	57	96	3
TAP	57	96	4
TAP	57	144	7
TAP	57	192	2
TAP	57	192	3
TAP	57	240	1
TAP	57	288	2
TAP	57	288	3
TAP	57	336	7
TAP	58	0	4
TAP	58	0	5
TAP	58	48	0
TAP	58	96	1
TAP	58	96	3
TAP	58	144	7
TAP	58	192	4
TAP	58	192	6
TAP	58	240	0
TAP	58	288	1
TAP	58	288	3
TAP	58	336	7
BRK	59	0	2
BRK	59	0	6
TAP	59	48	5
TAP	59	96	1
TAP	59	96	4
TAP	59	144	2
TAP	59	192	3
TAP	59	192	5
TAP	59	240	4
BRK	59	288	0
BRK	59	288	1
BRK	59	336	0
BRK	59	336	1
TAP	60	0	2
TAP	60	48	3
TAP	60	96	4
TAP	60	96	6
TAP	60	144	5
TAP	60	192	1
TAP	60	192	4
TAP	60	240	2
BRK	60	288	6
BRK	60	288	7
BRK	60	336	6
BRK	60	336	7
TAP	61	0	5
TAP	61	48	4
TAP	61	96	1
TAP	61	96	3
TAP	61	144	2
TAP	61	192	3
TAP	61	192	5
TAP	61	240	3
TAP	61	240	5
BRK	61	288	0
BRK	61	288	1
BRK	61	336	2
BRK	61	336	7
TAP	62	0	6
TAP	62	48	5
TAP	62	96	3
TAP	62	96	4
TAP	62	144	2
TAP	62	144	3
BRK	62	192	1
BRK	62	192	4
BRK	62	240	0
BRK	62	240	7
BRK	62	288	3
BRK	62	288	6
BRK	62	336	0
BRK	62	336	7
TAP	63	0	1
TAP	63	48	2
TAP	63	96	3
TAP	63	96	4
TAP	63	144	5
TAP	63	192	4
TAP	63	192	6
TAP	63	240	3
TAP	63	240	5
BRK	63	288	0
BRK	63	288	1
BRK	63	336	0
BRK	63	336	1
TAP	64	0	7
TAP	64	48	6
TAP	64	96	3
TAP	64	96	5
TAP	64	144	4
TAP	64	192	1
TAP	64	192	3
TAP	64	240	2
TAP	64	240	4
BRK	64	288	6
BRK	64	288	7
BRK	64	336	6
BRK	64	336	7
TAP	65	0	0
TAP	65	0	5
TAP	65	48	1
TAP	65	48	6
TAP	65	96	2
TAP	65	96	7
TAP	65	144	1
TAP	65	144	6
TAP	65	192	0
TAP	65	192	5
TAP	65	240	0
TAP	65	240	5
BRK	65	288	2
BRK	65	288	3
BRK	65	336	1
BRK	65	336	4
TAP	66	0	0
HLD	66	48	0	48
TAP	66	96	2
HLD	66	144	2	48
TAP	66	192	4
HLD	66	240	4	48
TAP	66	288	5
TAP	66	336	3
TAP	66	336	6
HLD	67	0	2	384
BRK	67	0	7
TTP	68	0	3	E	0	M1
TTP	68	96	4	E	0	M1
TTP	68	192	3	E	0	M1
TTP	68	192	5	E	0	M1

T_REC_TAP	352
T_REC_BRK	48
T_REC_XTP	29
T_REC_HLD	22
T_REC_XHO	12
T_REC_STR	18
T_REC_BST	2
T_REC_XST	0
T_REC_TTP	14
T_REC_THO	1
T_REC_SLD	20
T_REC_ALL	518
T_NUM_TAP	413
T_NUM_BRK	50
T_NUM_HLD	35
T_NUM_SLD	20
T_NUM_ALL	518
T_JUDGE_TAP	463
T_JUDGE_HLD	226
T_JUDGE_SLD	20
T_JUDGE_ALL	709
TTM_EACHPAIRS	127
TTM_SCR_TAP	206500
TTM_SCR_BRK	130000
TTM_SCR_HLD	35000
TTM_SCR_SLD	30000
TTM_SCR_ALL	401500
TTM_SCR_S	384650
TTM_SCR_SS	396500
TTM_RAT_ACV	10126

