VERSION	0.00.00	1.03.00
FES_MODE	0
BPM_DEF	107.000	107.000	107.000	107.000
MET_DEF	4	4
RESOLUTION	384
CLK_DEF	384
COMPATIBLE_CODE	MA2

BPM	0	0	107.000
MET	0	0	4	4

STR	1	0	0
SCR	1	0	0	96	192	5
STR	2	0	7
SCL	2	0	7	96	192	2
STR	3	0	0
SCR	3	0	0	96	192	5
TAP	4	0	7
TAP	4	96	7
TAP	4	192	0
TAP	4	288	0
TTP	5	0	0	C	0	L1
HLD	6	0	5	96
TAP	6	96	4
TAP	6	192	4
HLD	7	0	2	96
TAP	7	96	3
TAP	7	192	3
HLD	8	0	4	96
TAP	8	96	3
TAP	8	192	3
TAP	8	192	4
TAP	9	0	5
TAP	9	96	5
TAP	9	192	4
TAP	9	288	4
TAP	10	0	3
TAP	10	96	3
TAP	10	192	2
TAP	10	192	4
TAP	11	0	1
TAP	11	96	1
TAP	11	192	0
TAP	11	288	0
TAP	12	0	7
TAP	12	96	7
TAP	12	192	0
TAP	12	192	7
TTP	13	0	6	E	0	L1
TTP	13	96	5	B	0	L1
TTP	13	192	4	B	0	L1
TTP	14	0	2	E	0	L1
TTP	14	96	2	B	0	L1
TTP	14	192	3	B	0	L1
TTP	15	0	6	E	0	L1
TTP	15	96	5	B	0	L1
TTP	15	192	4	B	0	L1
TAP	16	0	3
TAP	16	48	3
TAP	16	96	3
TAP	16	192	2
TAP	16	192	5
BRK	17	0	6
TAP	17	48	6
TAP	17	96	6
TAP	17	96	7
TAP	17	192	1
TAP	17	240	1
TAP	17	288	0
TAP	17	288	1
TAP	18	0	2
TAP	18	48	2
TAP	18	96	3
TAP	18	144	3
TAP	18	192	4
TAP	18	288	3
TAP	18	288	5
TAP	19	0	2
TAP	19	48	2
TAP	19	96	2
TAP	19	96	3
TAP	19	192	5
TAP	19	240	5
TAP	19	288	4
TAP	19	288	5
TAP	20	0	6
TAP	20	48	6
TAP	20	96	7
TAP	20	144	7
TAP	20	192	0
TAP	20	288	1
TAP	20	288	7
BRK	21	0	1
TAP	21	48	1
TAP	21	96	0
TAP	21	96	1
TAP	21	192	6
TAP	21	240	6
TAP	21	288	6
TAP	21	288	7
TAP	22	0	5
TAP	22	48	5
TAP	22	96	4
TAP	22	144	4
TAP	22	192	3
TAP	22	288	2
TAP	22	288	4
TAP	23	0	5
TAP	23	48	5
TAP	23	96	4
TAP	23	96	5
TAP	23	192	2
TAP	23	240	2
TAP	23	288	2
TAP	23	288	3
TAP	24	0	1
TAP	24	48	1
TAP	24	96	0
TAP	24	144	0
TAP	24	192	0
TAP	24	192	7
TAP	24	288	1
TAP	24	288	6
TAP	24	336	1
TAP	24	336	6
STR	25	0	0
SCR	25	0	0	96	144	3
STR	25	0	7
SCL	25	0	7	96	144	4
TTP	26	0	4	E	0	L1
TTP	26	192	0	C	1	L1
HLD	27	0	7	96
TAP	27	96	0
HLD	27	192	1	96
TAP	27	288	0
HLD	28	0	6	96
TAP	28	96	7
HLD	28	192	0	48
HLD	28	192	1	48
TAP	28	288	0
TAP	28	288	1
HLD	29	0	2	96
TAP	29	96	3
HLD	29	192	5	96
TAP	29	288	4
HLD	30	0	2	96
TAP	30	96	3
HLD	30	192	3	48
HLD	30	192	4	48
TAP	30	288	3
TAP	30	288	4
STR	31	0	5
SLR	31	0	5	96	192	3
STR	32	0	2
SLL	32	0	2	96	192	4
STR	33	0	5
SLL	33	0	5	96	192	7
STR	34	0	0
SSL	34	0	0	96	192	4
HLD	35	0	5	192
HLD	35	192	4	192
HLD	36	0	3	192
TAP	36	192	2
HLD	37	0	1	192
HLD	37	192	0	192
HLD	38	0	7	192
TAP	38	192	6
TTP	39	0	6	E	0	L1
TTP	39	96	5	B	0	L1
TTP	39	192	4	B	0	L1
TTP	40	0	2	E	0	L1
TTP	40	96	2	B	0	L1
TTP	40	192	3	B	0	L1
TTP	41	0	6	B	0	L1
TTP	41	96	5	B	0	L1
TTP	41	192	4	B	0	L1
TTP	41	288	3	B	0	L1
TTP	42	0	2	B	0	L1
TTP	42	96	1	B	0	L1
TTP	42	192	1	E	0	L1
STR	43	0	0
SCR	43	0	0	96	192	3
STR	44	0	4
SCR	44	0	4	96	192	7
STR	45	0	0
SCR	45	0	0	96	192	3
STR	46	0	4
SCR	46	0	4	96	192	7
TTP	47	0	1	E	0	L1
TTP	47	96	1	B	0	L1
TTP	47	192	2	B	0	L1
TTP	48	0	7	E	0	L1
TTP	48	96	6	B	0	L1
TTP	48	192	5	B	0	L1
TTP	49	0	2	E	0	L1
TTP	49	96	2	B	0	L1
TTP	49	192	3	B	0	L1
TAP	50	0	4
TAP	50	48	4
TAP	50	96	4
TAP	50	192	2
TAP	50	192	5
BRK	51	0	1
TAP	51	48	1
TAP	51	96	0
TAP	51	96	1
TAP	51	192	6
TAP	51	240	6
TAP	51	288	6
TAP	51	288	7
TAP	52	0	5
TAP	52	48	5
TAP	52	96	4
TAP	52	144	4
TAP	52	192	3
TAP	52	288	2
TAP	52	288	4
TAP	53	0	5
TAP	53	48	5
TAP	53	96	4
TAP	53	96	5
TAP	53	192	2
TAP	53	240	2
TAP	53	288	2
TAP	53	288	3
TAP	54	0	1
TAP	54	48	1
TAP	54	96	0
TAP	54	144	0
TAP	54	192	7
TAP	54	288	0
TAP	54	288	6
BRK	55	0	6
TAP	55	48	6
TAP	55	96	6
TAP	55	96	7
TAP	55	192	1
TAP	55	240	1
TAP	55	288	0
TAP	55	288	1
TAP	56	0	2
TAP	56	48	2
TAP	56	96	3
TAP	56	144	3
TAP	56	192	4
TAP	56	288	3
TAP	56	288	5
TAP	57	0	2
TAP	57	48	2
TAP	57	96	2
TAP	57	96	3
TAP	57	192	5
TAP	57	240	5
TAP	57	288	4
TAP	57	288	5
TAP	58	0	6
TAP	58	48	6
TAP	58	96	7
TAP	58	144	7
TAP	58	192	0
TAP	58	288	1
TAP	58	288	6
BRK	59	0	2
TAP	59	48	2
TAP	59	96	2
TAP	59	96	3
TAP	59	144	2
TAP	59	144	3
TAP	59	192	1
TAP	59	240	0
TAP	59	288	1
TAP	59	288	7
TAP	60	0	6
TAP	60	48	6
TAP	60	96	6
TAP	60	96	7
TAP	60	144	6
TAP	60	144	7
TAP	60	192	5
TAP	60	240	4
TAP	60	288	3
TAP	60	288	5
TAP	61	0	2
TAP	61	48	2
TAP	61	96	2
TAP	61	96	3
TAP	61	144	2
TAP	61	144	3
TAP	61	192	1
TAP	61	240	0
TAP	61	288	1
TAP	61	288	7
TAP	62	0	6
TAP	62	48	6
TAP	62	96	6
TAP	62	96	7
TAP	62	144	6
TAP	62	144	7
TAP	62	192	5
TAP	62	240	4
TAP	62	288	3
TAP	62	288	5
BRK	63	0	5
TAP	63	48	5
TAP	63	96	4
TAP	63	96	5
TAP	63	144	4
TAP	63	144	5
TAP	63	192	6
TAP	63	240	7
TAP	63	288	0
TAP	63	288	6
TAP	64	0	1
TAP	64	48	1
TAP	64	96	0
TAP	64	96	1
TAP	64	144	0
TAP	64	144	1
TAP	64	192	2
TAP	64	240	3
TAP	64	288	2
TAP	64	288	4
TAP	65	0	5
TAP	65	48	5
TAP	65	96	4
TAP	65	96	5
TAP	65	144	4
TAP	65	144	5
TAP	65	192	6
TAP	65	240	7
TAP	65	288	0
TAP	65	288	6
TAP	66	0	1
TAP	66	48	1
TAP	66	96	0
TAP	66	96	1
TAP	66	144	0
TAP	66	144	1
TAP	66	192	2
TAP	66	240	2
TAP	66	288	3
TAP	66	336	4
BRK	67	0	2
BRK	67	0	5
TTP	67	192	4	E	0	L1
TTP	68	0	0	E	0	L1
TTP	68	192	0	C	0	L1

T_REC_TAP	246
T_REC_BRK	8
T_REC_XTP	0
T_REC_HLD	19
T_REC_XHO	0
T_REC_STR	13
T_REC_BST	0
T_REC_XST	0
T_REC_TTP	37
T_REC_THO	0
T_REC_SLD	13
T_REC_ALL	336
T_NUM_TAP	296
T_NUM_BRK	8
T_NUM_HLD	19
T_NUM_SLD	13
T_NUM_ALL	336
T_JUDGE_TAP	304
T_JUDGE_HLD	92
T_JUDGE_SLD	13
T_JUDGE_ALL	409
TTM_EACHPAIRS	60
TTM_SCR_TAP	148000
TTM_SCR_BRK	20800
TTM_SCR_HLD	19000
TTM_SCR_SLD	19500
TTM_SCR_ALL	207300
TTM_SCR_S	200350
TTM_SCR_SS	206500
TTM_RAT_ACV	10038

