VERSION	0.00.00	1.03.00
FES_MODE	0
BPM_DEF	107.000	107.000	107.000	107.000
MET_DEF	4	4
RESOLUTION	384
CLK_DEF	384
COMPATIBLE_CODE	MA2

BPM	0	0	107.000
MET	0	0	4	4

HLD	1	0	3	384
HLD	3	0	4	384
BRK	5	0	4
TAP	6	0	3
TAP	6	192	3
TAP	7	0	2
TAP	7	192	2
XTP	8	0	0
XTP	8	0	1
TAP	9	0	7
TAP	9	192	7
TAP	10	0	6
TAP	10	192	6
TAP	11	0	5
TAP	11	192	5
TAP	12	0	3
TAP	12	0	4
TTP	13	0	4	B	0	L1
TTP	13	192	3	B	0	L1
TTP	14	0	5	B	0	L1
TTP	14	192	2	B	0	L1
TTP	15	0	6	B	0	L1
TTP	15	192	1	B	0	L1
TTP	16	0	0	C	1	L1
BRK	17	0	0
TAP	17	96	0
TAP	17	192	0
TAP	18	0	1
TAP	18	192	1
TAP	19	0	2
TAP	19	96	2
TAP	19	192	2
TAP	20	0	3
TAP	20	192	3
TAP	20	192	4
TAP	21	0	4
TAP	21	96	4
TAP	21	192	4
TAP	22	0	5
TAP	22	192	5
TAP	23	0	6
TAP	23	96	6
TAP	23	192	6
TAP	24	0	7
TAP	24	192	0
TAP	24	192	7
HLD	25	0	1	384
HLD	25	0	6	384
XTP	26	192	1
XTP	26	192	6
TAP	27	0	2
TAP	27	192	2
TAP	27	192	3
TAP	28	0	5
TAP	28	192	4
TAP	28	192	5
TAP	29	0	6
TAP	29	192	6
TAP	29	192	7
TAP	30	0	1
TAP	30	192	0
TAP	30	192	1
HLD	31	0	0	192
HLD	31	0	1	192
TAP	32	0	0
TAP	32	0	1
TAP	32	192	7
HLD	33	0	6	192
HLD	33	0	7	192
TAP	34	0	6
TAP	34	0	7
TAP	34	192	6
TAP	34	192	7
STR	35	0	0
SI_	35	0	0	96	288	3
STR	37	0	4
SI_	37	0	4	96	288	7
STR	39	0	0
SI_	39	0	0	96	288	4
STR	41	0	5
SI_	41	0	5	96	288	0
TTP	43	0	1	E	0	L1
TTP	44	0	0	C	0	L1
TTP	45	0	5	E	0	L1
TTP	46	0	4	E	0	L1
TTP	47	0	3	E	0	L1
TTP	47	0	5	E	0	L1
TTP	48	0	2	E	0	L1
TTP	48	0	6	E	0	L1
TTP	49	0	1	E	0	L1
TTP	49	0	7	E	0	L1
TTP	50	0	0	C	0	L1
BRK	51	0	7
TAP	51	96	7
TAP	51	192	7
TAP	52	0	6
TAP	52	192	6
TAP	52	192	7
TAP	53	0	5
TAP	53	96	5
TAP	53	192	5
TAP	54	0	4
TAP	54	192	3
TAP	54	192	4
TAP	55	0	3
TAP	55	96	3
TAP	55	192	3
TAP	56	0	2
TAP	56	192	2
TAP	56	192	3
TAP	57	0	1
TAP	57	96	1
TAP	57	192	1
TAP	58	0	0
TAP	58	192	0
TAP	58	192	7
TAP	59	0	1
TAP	59	96	1
TAP	59	192	1
TAP	60	0	2
TAP	60	96	2
TAP	60	192	2
TAP	60	192	3
TAP	61	0	4
TAP	61	96	4
TAP	61	192	4
TAP	62	0	5
TAP	62	96	5
TAP	62	192	4
TAP	62	192	5
TAP	63	0	6
TAP	63	96	6
TAP	63	192	6
TAP	64	0	7
TAP	64	96	7
TAP	64	192	0
TAP	64	192	7
TAP	65	0	1
TAP	65	96	1
TAP	65	192	0
TAP	65	192	1
TAP	66	0	2
TAP	66	96	2
TAP	66	192	2
TAP	66	192	3
HLD	67	0	3	384
HLD	67	0	4	384
TAP	68	192	3
TAP	68	192	4

T_REC_TAP	106
T_REC_BRK	3
T_REC_XTP	4
T_REC_HLD	10
T_REC_XHO	0
T_REC_STR	4
T_REC_BST	0
T_REC_XST	0
T_REC_TTP	18
T_REC_THO	0
T_REC_SLD	4
T_REC_ALL	149
T_NUM_TAP	132
T_NUM_BRK	3
T_NUM_HLD	10
T_NUM_SLD	4
T_NUM_ALL	149
T_JUDGE_TAP	135
T_JUDGE_HLD	128
T_JUDGE_SLD	4
T_JUDGE_ALL	267
TTM_EACHPAIRS	26
TTM_SCR_TAP	66000
TTM_SCR_BRK	7800
TTM_SCR_HLD	10000
TTM_SCR_SLD	6000
TTM_SCR_ALL	89800
TTM_SCR_S	86850
TTM_SCR_SS	89500
TTM_RAT_ACV	10033

