VERSION	0.00.00	1.03.00
FES_MODE	0
BPM_DEF	190.000	190.000	190.000	190.000
MET_DEF	4	4
RESOLUTION	384
CLK_DEF	384
COMPATIBLE_CODE	MA2

BPM	0	0	190.000
BPM	2	0	190.000
BPM	10	0	190.000
BPM	18	0	190.000
BPM	26	0	190.000
BPM	34	0	190.000
BPM	40	0	190.000
BPM	42	0	190.000
BPM	58	0	190.000
BPM	67	0	190.000
BPM	75	0	190.000
BPM	83	0	190.000
BPM	91	0	190.000
BPM	99	0	190.000
BPM	115	0	190.000
MET	0	0	4	4

HLD	1	192	3	96
TAP	1	192	4
TTP	1	288	5	E	0	M1
TTP	1	312	4	B	0	M1
TTP	1	336	3	B	0	M1
TTP	1	360	3	E	0	M1
BRK	2	0	0
TAP	2	144	5
HLD	2	192	5	72
HLD	2	264	6	72
TAP	2	336	7
TAP	3	48	0
TAP	3	48	7
TTP	3	96	2	E	0	M1
TTP	3	120	3	E	0	M1
TTP	3	144	4	E	0	M1
TAP	3	192	5
TAP	3	240	5
TAP	3	288	4
STR	3	288	6
SCR	3	288	6	96	48	1
TAP	4	0	1
TAP	4	144	3
HLD	4	192	3	72
HLD	4	264	2	72
TAP	4	336	1
TAP	5	48	0
TAP	5	48	7
TTP	5	96	6	E	0	M1
TTP	5	120	5	E	0	M1
TTP	5	144	4	E	0	M1
TAP	5	192	2
TAP	5	240	2
TAP	5	288	1
TAP	5	288	3
TAP	5	336	1
TAP	5	336	3
TAP	6	0	0
TAP	6	0	4
TAP	6	144	7
HLD	6	192	7	72
HLD	6	264	6	72
TAP	6	336	5
TAP	7	48	3
TAP	7	48	4
TTP	7	96	2	E	0	M1
TTP	7	120	1	E	0	M1
TTP	7	144	0	E	0	M1
TAP	7	192	6
TAP	7	240	6
STR	7	288	5
SCL	7	288	5	96	48	2
TAP	7	288	7
TAP	8	0	2
TAP	8	144	0
HLD	8	192	0	72
HLD	8	264	1	72
TAP	8	336	2
TAP	9	48	3
TAP	9	48	4
TTP	9	96	6	E	0	M1
TTP	9	120	7	E	0	M1
TTP	9	144	0	E	0	M1
TAP	9	192	1
TAP	9	240	1
BRK	9	288	2
BRK	9	288	7
HLD	10	0	6	96
XTP	10	96	4
TAP	10	192	5
TAP	10	240	4
XTP	10	288	3
TAP	10	288	5
TAP	10	336	6
TAP	11	48	7
XTP	11	96	4
TAP	11	96	6
TAP	11	192	5
TAP	11	240	4
XTP	11	288	3
TAP	11	288	5
HLD	12	0	1	96
XTP	12	96	3
TAP	12	192	2
TAP	12	240	3
TAP	12	288	2
XTP	12	288	4
TAP	12	336	1
TAP	13	48	0
TAP	13	96	1
XTP	13	96	3
TAP	13	192	2
TAP	13	240	3
TAP	13	288	2
XTP	13	288	4
HLD	14	0	6	96
XTP	14	96	4
TAP	14	192	5
TAP	14	240	4
XTP	14	288	3
TAP	14	288	5
TAP	14	336	6
TAP	15	48	7
XTP	15	96	4
TAP	15	96	6
TAP	15	192	5
TAP	15	240	4
XTP	15	288	3
TAP	15	288	5
HLD	16	0	1	96
XTP	16	96	3
TAP	16	192	2
TAP	16	240	3
TAP	16	288	2
XTP	16	288	4
TAP	16	336	1
TTP	17	48	5	B	0	M1
TTP	17	48	5	E	0	M1
TTP	17	96	2	B	0	M1
TTP	17	96	3	E	0	M1
TTP	17	144	6	B	0	M1
TTP	17	144	6	E	0	M1
TTP	17	192	1	B	0	M1
TTP	17	192	2	E	0	M1
TTP	17	240	7	B	0	M1
TTP	17	240	7	E	0	M1
TTP	17	288	0	B	0	M1
TTP	17	288	1	E	0	M1
TTP	17	336	3	B	0	M1
TTP	17	336	4	E	0	M1
TTP	18	0	0	C	1	M1
STR	18	192	0
SCL	18	192	0	96	96	6
STR	18	288	6
SCL	18	288	6	96	96	4
STR	19	0	4
SCL	19	0	4	96	96	2
STR	19	96	2
SCL	19	96	2	96	96	0
TAP	19	192	0
TAP	19	336	6
TAP	20	0	4
TAP	20	48	4
TAP	20	96	5
TAP	20	144	2
TAP	20	192	3
TAP	20	240	3
TAP	20	288	1
STR	20	336	5
SI_	20	336	5	96	48	3
STR	21	48	2
SI_	21	48	2	96	48	0
STR	21	144	5
SV_	21	144	5	96	48	2
TAP	21	240	1
TAP	21	288	1
STR	22	0	0
SI_	22	0	0	96	96	2
STR	22	96	2
SI_	22	96	2	96	96	4
STR	22	192	4
SI_	22	192	4	96	96	6
STR	22	288	6
SI_	22	288	6	96	96	0
TAP	23	0	0
TAP	23	192	1
TAP	23	192	3
TAP	23	288	4
TAP	23	288	6
STR	24	0	5
SCL	24	0	5	96	48	2
TAP	24	96	1
STR	24	192	1
SCL	24	192	1	96	48	6
TAP	24	288	5
TAP	24	336	5
TAP	25	48	3
TAP	25	48	4
TAP	25	96	3
TAP	25	96	4
TAP	25	192	0
TAP	25	192	7
STR	25	288	2
SV_	25	288	2	96	48	7
TAP	25	288	5
BRK	26	0	3
TAP	26	144	0
TAP	26	144	6
TAP	26	192	0
TAP	26	192	6
TAP	26	288	1
TAP	26	288	5
TAP	26	336	1
TAP	26	336	5
TAP	27	48	2
TAP	27	72	3
TAP	27	96	1
TAP	27	144	1
TAP	27	192	0
TAP	27	192	4
TAP	27	288	1
STR	27	288	5
SV_	27	288	5	96	48	0
TAP	28	0	4
TAP	28	144	1
TAP	28	144	7
TAP	28	192	1
TAP	28	192	7
TAP	28	288	2
TAP	28	288	6
TAP	28	336	2
TAP	28	336	6
TAP	29	48	5
TAP	29	72	4
TAP	29	96	6
TAP	29	144	6
TAP	29	192	1
TAP	29	240	1
STR	29	288	2
SV_	29	288	2	96	48	7
TAP	29	288	4
BRK	30	0	3
TAP	30	144	0
TAP	30	144	6
TAP	30	192	0
TAP	30	192	6
TAP	30	288	1
TAP	30	288	5
TAP	30	336	1
TAP	30	336	5
TAP	31	48	5
TAP	31	72	4
TAP	31	96	6
TAP	31	144	6
TAP	31	192	3
TAP	31	192	7
TAP	31	288	2
STR	31	288	6
SI_	31	288	6	96	48	3
STR	32	0	2
SI_	32	0	2	96	48	7
STR	32	96	4
SI_	32	96	4	96	48	1
STR	32	192	0
SSL	32	192	0	96	96	4
TAP	32	288	7
HLD	33	96	3	48
HLD	33	96	5	48
HLD	33	192	2	48
HLD	33	192	4	48
HLD	33	288	3	48
HLD	33	288	6	48
BST	34	0	4
SUL	34	0	4	96	72	0
BRK	34	0	5
HLD	34	96	6	144
TAP	34	192	7
TAP	34	240	7
TAP	34	288	6
TAP	34	336	0
HLD	34	336	5	96
TAP	35	48	4
TAP	35	96	3
HLD	35	96	6	96
TAP	35	192	7
TAP	35	240	6
TAP	35	288	0
TAP	35	288	5
TAP	36	0	2
STR	36	0	3
SUR	36	0	3	96	72	7
HLD	36	96	1	144
TAP	36	192	0
TAP	36	240	0
TAP	36	288	1
HLD	36	336	2	96
TAP	36	336	7
TAP	37	48	3
TAP	37	96	2
TAP	37	96	4
TAP	37	192	1
TAP	37	224	3
TAP	37	256	2
TAP	37	288	6
TAP	37	320	4
TAP	37	352	5
BST	38	0	0
SI_	38	0	0	96	576	4
TAP	39	288	5
TAP	40	0	4
TAP	40	0	6
TAP	40	48	5
TAP	40	96	4
TAP	40	144	1
TAP	40	144	3
TAP	40	192	2
TAP	40	240	3
TAP	40	288	4
TAP	40	288	6
STR	40	336	4
SI_	40	336	4	96	48	2
STR	40	336	6
SI_	40	336	6	96	48	4
TAP	41	192	0
TAP	41	216	7
TAP	41	240	0
STR	41	288	1
SI_	41	288	1	96	48	4
STR	41	288	5
SI_	41	288	5	96	48	0
BRK	42	0	1
BRK	42	0	5
TAP	42	96	2
TAP	42	96	6
STR	42	144	2
SLR	42	144	2	96	96	0
TAP	42	144	6
STR	42	240	7
SI_	42	240	7	96	48	5
STR	42	336	7
SXR	42	336	7	96	144	4
TAP	43	48	0
TAP	43	96	1
TAP	43	144	2
TAP	43	192	3
STR	43	288	1
SI_	43	288	1	96	48	5
TAP	43	288	5
TAP	44	0	1
STR	44	0	3
SI_	44	0	3	96	48	7
STR	44	96	0
SCL	44	96	0	96	48	5
SCR	44	96	0	96	48	3
TAP	44	96	3
STR	44	192	0
SF_	44	192	0	96	48	4
BRK	44	288	0
STR	45	96	2
SUL	45	96	2	96	96	6
TAP	45	96	7
STR	45	192	6
SCR	45	192	6	96	96	2
STR	45	288	4
SI_	45	288	4	96	48	7
BRK	46	0	4
TAP	46	96	3
TAP	46	96	6
TAP	46	144	3
STR	46	144	6
SLL	46	144	6	96	96	0
STR	46	240	0
SI_	46	240	0	96	48	6
TAP	46	336	2
STR	47	48	3
SI_	47	48	3	96	48	1
SLR	47	48	3	96	96	7
TAP	47	96	2
TAP	47	96	4
STR	47	288	2
SI_	47	288	2	96	48	6
TAP	47	288	6
STR	48	0	0
SCL	48	0	0	96	96	5
STR	48	96	5
SCL	48	96	5	96	96	2
STR	48	192	2
SCL	48	192	2	96	96	7
BRK	48	288	7
HLD	49	96	4	48
HLD	49	96	6	48
HLD	49	192	1	48
HLD	49	192	3	48
STR	49	288	0
SI_	49	288	0	96	48	4
STR	49	288	7
SI_	49	288	7	96	48	3
BRK	50	0	0
BRK	50	0	7
TAP	50	144	6
STR	50	192	6
SLL	50	192	6	96	96	0
STR	50	240	3
SI_	50	240	3	96	48	1
TAP	50	288	2
TAP	50	336	3
TAP	51	144	7
STR	51	192	7
SLL	51	192	7	96	96	1
STR	51	240	4
SI_	51	240	4	96	48	2
TAP	51	288	3
TAP	51	336	4
XTP	52	48	0
XTP	52	96	0
STR	52	192	2
SCL	52	192	2	96	120	4
TAP	52	192	5
TAP	52	288	3
HLD	52	336	3	144
TAP	53	96	2
STR	53	192	3
SI_	53	192	3	96	48	0
STR	53	192	4
SI_	53	192	4	96	48	7
TAP	53	288	3
TAP	53	288	4
BRK	54	0	1
BRK	54	0	6
STR	54	96	6
SI_	54	96	6	96	48	2
TAP	54	144	3
STR	54	192	6
SI_	54	192	6	96	48	4
STR	54	240	4
SI_	54	240	4	96	48	0
XTP	54	288	6
XTP	54	336	2
STR	55	96	1
SI_	55	96	1	96	48	5
TAP	55	144	4
STR	55	192	1
SI_	55	192	1	96	48	3
STR	55	240	3
SI_	55	240	3	96	48	7
XTP	55	288	1
XTP	55	336	5
TAP	56	96	4
TAP	56	96	6
TAP	56	144	5
TAP	56	192	1
TAP	56	192	3
TAP	56	240	2
TAP	56	288	4
TAP	56	288	6
TAP	56	336	5
XTP	57	0	3
XTP	57	0	4
XTP	57	48	2
XTP	57	48	5
XST	57	96	1
SUR	57	96	1	96	144	2
XST	57	96	6
SUL	57	96	6	96	144	5
XTP	57	144	0
XTP	57	144	7
TTP	58	0	0	C	1	M1
TAP	58	144	2
HLD	58	192	2	72
HLD	58	264	1	72
TAP	58	336	0
TAP	59	48	0
TAP	59	48	7
TTP	59	96	6	E	0	M1
TTP	59	120	5	E	0	M1
TTP	59	144	4	E	0	M1
TAP	59	192	2
TAP	59	240	2
STR	59	288	1
SCL	59	288	1	96	48	6
TAP	59	288	3
TAP	60	0	6
TAP	60	144	4
HLD	60	192	4	72
HLD	60	264	5	72
TAP	60	336	6
TAP	61	48	0
TAP	61	48	7
TTP	61	96	2	E	0	M1
TTP	61	120	3	E	0	M1
TTP	61	144	4	E	0	M1
TAP	61	192	5
TAP	61	240	5
TAP	61	288	4
TAP	61	288	6
TAP	61	336	4
TAP	61	336	6
TAP	62	0	3
TAP	62	0	7
TAP	62	144	0
HLD	62	192	0	72
HLD	62	264	1	72
TAP	62	336	2
TAP	63	48	3
TAP	63	48	4
TTP	63	96	6	E	0	M1
TTP	63	120	7	E	0	M1
TTP	63	144	0	E	0	M1
TAP	63	192	1
TAP	63	240	1
TAP	63	288	0
STR	63	288	2
SCR	63	288	2	96	48	5
TAP	64	0	5
TAP	64	144	7
HLD	64	192	7	72
HLD	64	264	6	72
TAP	64	336	5
TAP	65	48	3
TAP	65	48	4
TTP	65	96	2	E	0	M1
TTP	65	120	1	E	0	M1
TTP	65	144	0	E	0	M1
TAP	65	192	5
TAP	65	240	4
STR	65	288	3
SUR	65	288	3	96	288	4
TAP	65	336	2
STR	67	0	3
SXR	67	0	3	96	480	0
TAP	67	0	4
TAP	67	96	4
TAP	67	192	4
TAP	67	288	4
TAP	68	0	4
TAP	68	96	4
TAP	68	192	4
TAP	68	288	0
TAP	68	288	4
STR	69	0	1
SXR	69	0	1	96	480	3
TAP	69	0	4
TAP	69	96	4
TAP	69	192	4
TAP	69	288	4
TAP	70	0	4
TAP	70	96	4
TAP	70	192	4
TAP	70	288	3
TAP	70	288	4
TAP	71	0	3
STR	71	0	4
SUR	71	0	4	96	192	1
TAP	71	96	3
TAP	71	192	3
TAP	71	288	3
STR	72	0	0
SLL	72	0	0	96	192	4
TAP	72	0	3
TAP	72	96	3
TAP	72	192	3
TAP	72	288	3
TAP	73	0	3
XTP	73	48	5
TAP	73	96	3
TAP	73	192	2
TAP	73	240	3
TAP	73	288	4
XTP	73	336	2
XTP	73	336	5
TAP	74	48	5
TAP	74	72	4
TAP	74	96	5
TAP	74	144	3
TAP	74	144	6
TAP	74	192	2
TAP	74	216	3
TAP	74	240	2
TAP	74	264	3
TAP	74	288	2
TAP	75	0	2
STR	75	0	3
SUR	75	0	3	96	72	7
HLD	75	96	1	144
TAP	75	192	0
TAP	75	240	0
TAP	75	288	1
HLD	75	336	2	96
TAP	75	336	7
TAP	76	48	3
HLD	76	96	1	96
TAP	76	96	4
TAP	76	192	0
TAP	76	240	1
TAP	76	288	2
TAP	76	288	7
STR	77	0	4
SUL	77	0	4	96	72	0
TAP	77	0	5
HLD	77	96	6	144
TAP	77	192	7
TAP	77	240	7
TAP	77	288	6
TAP	77	336	0
HLD	77	336	5	96
TAP	78	48	4
TAP	78	96	3
TAP	78	96	5
TAP	78	192	6
TAP	78	224	4
TAP	78	256	5
TAP	78	288	1
TAP	78	320	3
TAP	78	352	2
BST	79	0	7
SSR	79	0	7	96	480	3
TAP	80	288	2
TAP	81	0	1
TAP	81	0	4
TAP	81	48	2
TAP	81	72	3
TAP	81	96	2
TAP	81	144	3
TAP	81	144	6
TAP	81	192	5
TAP	81	216	4
TAP	81	240	5
TAP	81	288	3
TAP	81	288	4
TAP	81	312	2
TAP	81	312	5
TAP	81	336	1
TAP	81	336	6
STR	81	360	0
SI_	81	360	0	96	48	4
STR	81	360	7
SI_	81	360	7	96	48	3
TAP	82	192	3
TAP	82	216	4
TAP	82	240	3
TAP	82	288	2
TAP	82	288	5
BRK	83	0	0
TTP	83	0	0	C	1	M1
TAP	90	288	3
TAP	90	288	4
TTP	91	0	0	C	0	M1
TTP	91	96	0	C	0	M1
TTP	91	192	0	C	0	M1
TTP	91	288	0	C	0	M1
TTP	92	0	0	C	0	M1
TTP	92	96	0	C	0	M1
TTP	92	192	0	C	0	M1
TTP	92	288	0	C	0	M1
TTP	93	0	0	C	0	M1
TTP	93	96	0	C	0	M1
TTP	93	192	0	C	0	M1
TTP	93	288	0	C	0	M1
TTP	94	0	0	C	0	M1
TTP	94	96	0	C	0	M1
TTP	94	192	0	C	0	M1
TTP	94	288	0	C	0	M1
TTP	95	0	0	C	0	M1
TTP	95	96	0	C	0	M1
TTP	95	192	0	C	0	M1
TTP	95	288	0	C	0	M1
TTP	96	0	0	C	0	M1
TTP	96	96	0	C	0	M1
TTP	96	192	0	C	0	M1
XHO	96	288	0	288
XHO	96	288	7	288
TAP	97	288	2
TAP	97	288	5
TAP	97	336	2
TAP	97	336	5
TAP	98	48	4
TAP	98	72	3
TAP	98	96	4
TAP	98	144	1
TAP	98	144	6
TAP	98	192	7
TAP	98	216	0
TAP	98	240	7
TAP	98	264	0
TAP	98	288	7
TAP	98	312	0
TAP	98	336	7
TAP	98	360	0
STR	99	0	5
SCR	99	0	5	96	48	0
BRK	99	96	0
BRK	99	96	5
TAP	99	108	1
TAP	99	120	2
TAP	99	132	3
XTP	99	192	2
XTP	99	192	6
XTP	99	240	2
XST	99	240	6
SI_	99	240	6	96	48	3
TAP	99	336	0
STR	100	48	2
SI_	100	48	2	96	48	7
STR	100	96	5
SI_	100	96	5	96	48	1
TAP	100	144	2
TAP	100	192	5
XST	100	288	0
SI_	100	288	0	96	48	5
XST	100	288	7
SCL	100	288	7	96	48	5
STR	101	0	0
SCR	101	0	0	96	48	2
STR	101	0	7
SI_	101	0	7	96	48	2
STR	101	96	0
SI_	101	96	0	96	48	5
STR	101	96	7
SCL	101	96	7	96	48	5
STR	101	192	0
SI_	101	192	0	96	48	2
STR	101	192	7
SI_	101	192	7	96	48	3
BRK	101	288	0
BRK	101	288	7
TAP	102	96	0
STR	102	96	5
SUR	102	96	5	96	96	1
STR	102	192	1
SCL	102	192	1	96	96	5
STR	102	288	3
SI_	102	288	3	96	48	0
BRK	103	0	3
TAP	103	96	1
TAP	103	96	4
STR	103	144	1
SLR	103	144	1	96	96	5
TAP	103	144	4
STR	103	240	5
SI_	103	240	5	96	48	1
TAP	103	336	7
STR	104	48	0
SI_	104	48	0	96	48	6
SLR	104	48	0	96	96	4
TAP	104	96	1
TAP	104	96	7
TAP	104	288	3
STR	104	288	6
SI_	104	288	6	96	48	2
STR	105	0	4
SCL	105	0	4	96	96	0
STR	105	96	0
SCL	105	96	0	96	96	4
STR	105	192	4
SLL	105	192	4	96	96	0
BRK	105	288	0
HLD	106	96	5	48
HLD	106	96	7	48
HLD	106	192	0	48
HLD	106	192	2	48
STR	106	288	3
SI_	106	288	3	96	48	7
STR	106	288	4
SI_	106	288	4	96	48	0
BRK	107	0	3
BRK	107	0	4
TAP	107	144	1
STR	107	192	1
SLR	107	192	1	96	96	7
STR	107	240	4
SV_	107	240	4	96	48	6
TAP	107	288	5
TAP	107	336	4
TAP	108	144	0
STR	108	192	0
SLR	108	192	0	96	96	6
STR	108	240	3
SV_	108	240	3	96	48	5
TAP	108	288	4
TAP	108	336	3
XTP	109	48	7
XTP	109	96	7
TAP	109	192	2
STR	109	192	5
SCR	109	192	5	96	120	3
TAP	109	288	4
HLD	109	336	4	144
TAP	110	96	5
STR	110	192	3
SI_	110	192	3	96	48	0
STR	110	192	4
SI_	110	192	4	96	48	7
TAP	110	288	3
TAP	110	288	4
BRK	111	0	1
BRK	111	0	6
STR	111	96	1
SI_	111	96	1	96	48	5
TAP	111	144	4
STR	111	192	1
SI_	111	192	1	96	48	3
STR	111	240	3
SLR	111	240	3	96	72	7
XTP	111	288	1
XTP	111	336	5
STR	112	96	6
SI_	112	96	6	96	48	2
TAP	112	144	3
STR	112	192	6
SI_	112	192	6	96	48	4
STR	112	240	4
SLL	112	240	4	96	72	0
XTP	112	288	6
XTP	112	336	2
TAP	113	96	3
TAP	113	96	6
TAP	113	144	5
TAP	113	192	1
TAP	113	192	4
TAP	113	240	2
TAP	113	288	3
TAP	113	288	6
TAP	113	336	5
TAP	114	0	2
TAP	114	0	4
TAP	114	48	1
TAP	114	96	0
TAP	114	96	7
TAP	114	144	6
TAP	114	192	3
TAP	114	192	5
TAP	114	240	2
STR	114	288	1
SI_	114	288	1	96	48	5
TAP	114	288	3
BRK	115	0	1
BRK	115	0	7
TTP	115	8	0	C	1	M1
HLD	117	0	2	96
HLD	117	0	4	96
HLD	117	144	2	96
HLD	117	144	4	96
TAP	117	288	2
TAP	117	288	4
HLD	118	0	3	96
HLD	118	0	5	96
HLD	118	144	3	96
HLD	118	144	5	96
TAP	118	288	3
TAP	118	288	5
STR	119	0	6
SCL	119	0	6	96	192	3
TAP	119	288	2
STR	120	0	1
SUR	120	0	1	96	192	5
THO	120	288	0	288	C	0	M1

T_REC_TAP	410
T_REC_BRK	28
T_REC_XTP	38
T_REC_HLD	55
T_REC_XHO	2
T_REC_STR	107
T_REC_BST	3
T_REC_XST	5
T_REC_TTP	69
T_REC_THO	1
T_REC_SLD	118
T_REC_ALL	836
T_NUM_TAP	629
T_NUM_BRK	31
T_NUM_HLD	58
T_NUM_SLD	118
T_NUM_ALL	836
T_JUDGE_TAP	660
T_JUDGE_HLD	120
T_JUDGE_SLD	118
T_JUDGE_ALL	898
TTM_EACHPAIRS	156
TTM_SCR_TAP	314500
TTM_SCR_BRK	80600
TTM_SCR_HLD	58000
TTM_SCR_SLD	177000
TTM_SCR_ALL	630100
TTM_SCR_S	608200
TTM_SCR_SS	627000
TTM_RAT_ACV	10049

