VERSION	0.00.00	1.03.00
FES_MODE	0
BPM_DEF	190.000	190.000	190.000	190.000
MET_DEF	4	4
RESOLUTION	384
CLK_DEF	384
COMPATIBLE_CODE	MA2

BPM	0	0	190.000
MET	0	0	4	4

HLD	1	192	0	192
BRK	2	0	7
TAP	2	96	1
TAP	2	96	6
TAP	2	192	2
TAP	2	288	1
TAP	2	288	3
TAP	3	0	4
TAP	3	96	3
TAP	3	96	5
TAP	3	192	2
TAP	3	240	2
TAP	3	288	3
TAP	4	0	1
HLD	4	0	4	96
TAP	4	96	3
TAP	4	192	5
TAP	4	288	4
TAP	4	288	6
TAP	5	0	3
TAP	5	96	2
TAP	5	96	4
TAP	5	192	5
TAP	5	240	5
TAP	5	288	4
TAP	6	0	3
TAP	6	0	6
TAP	6	96	0
TAP	6	96	7
TAP	6	192	5
TAP	6	288	4
TAP	6	288	6
TAP	7	0	3
TAP	7	96	2
TAP	7	96	4
TAP	7	192	5
TAP	7	240	5
TAP	7	288	4
HLD	8	0	3	96
TAP	8	0	6
TAP	8	96	4
TAP	8	192	2
TAP	8	288	1
TAP	8	288	3
TAP	9	0	5
TAP	9	96	4
TAP	9	96	6
TAP	9	192	3
TAP	9	240	3
TAP	9	288	4
TAP	9	336	4
XTP	10	0	3
TAP	10	96	3
TAP	10	192	3
TAP	10	288	2
TAP	10	288	4
TAP	10	336	2
TAP	10	336	4
TAP	11	48	3
TAP	11	48	5
TAP	11	144	4
TAP	11	144	6
TAP	11	240	7
TAP	11	288	7
HLD	12	0	6	96
TAP	12	96	4
HLD	12	192	1	96
TAP	12	288	3
HLD	13	0	6	96
HLD	13	96	4	96
HLD	13	192	3	96
STR	13	288	1
SCL	13	288	1	96	96	6
TAP	14	192	3
TAP	14	192	4
STR	14	288	0
SI_	14	288	0	96	96	3
STR	14	288	7
SI_	14	288	7	96	96	4
TAP	15	192	3
TAP	15	192	4
TAP	15	288	1
TAP	15	288	6
TAP	16	0	3
TAP	16	0	5
TAP	16	96	2
TAP	16	96	4
TAP	16	192	1
TAP	16	192	3
TAP	16	288	0
TAP	16	336	0
TAP	17	48	1
TAP	17	48	7
TAP	17	144	2
TAP	17	144	6
TAP	17	192	2
TAP	17	192	6
TAP	17	288	1
STR	17	288	5
SCL	17	288	5	96	96	2
HLD	18	192	1	96
HLD	18	288	3	96
HLD	19	0	4	96
HLD	19	96	6	96
TAP	19	192	1
TAP	19	288	3
TAP	19	288	4
TAP	20	0	2
TAP	20	48	2
TAP	20	96	3
TAP	20	192	5
TAP	20	240	5
TAP	20	288	4
TAP	21	0	3
TAP	21	48	3
TAP	21	96	4
STR	21	192	3
SCL	21	192	3	96	96	0
STR	21	192	4
SCR	21	192	4	96	96	7
HLD	22	96	2	96
HLD	22	192	3	96
HLD	22	288	4	96
TAP	23	0	5
TAP	23	96	3
TAP	23	96	6
HLD	23	192	5	96
HLD	23	288	4	96
HLD	24	0	3	96
TAP	24	96	2
TAP	24	192	1
STR	24	192	4
SCR	24	192	4	96	240	3
TAP	25	192	7
TAP	25	288	0
TAP	25	288	6
BRK	26	0	1
BRK	26	0	5
HLD	26	192	2	96
HLD	26	192	4	96
TAP	27	0	1
TAP	27	0	3
TAP	27	96	2
TAP	27	192	1
TAP	27	192	3
XTP	27	288	7
HLD	28	0	1	96
HLD	28	0	3	96
HLD	28	192	2	96
HLD	28	192	4	96
TAP	29	0	1
TAP	29	0	3
TAP	29	96	2
TAP	29	192	1
TAP	29	192	3
XTP	29	288	7
HLD	30	0	4	96
HLD	30	0	6	96
HLD	30	192	3	96
HLD	30	192	5	96
TAP	31	0	4
TAP	31	0	6
TAP	31	96	5
TAP	31	192	4
TAP	31	192	6
XTP	31	288	0
HLD	32	0	4	96
HLD	32	0	6	96
HLD	32	192	3	96
HLD	32	192	5	96
TAP	33	0	4
TAP	33	0	6
TAP	33	96	5
TAP	33	192	6
TAP	33	288	0
TAP	33	288	7
TAP	34	0	1
HLD	34	0	5	384
TAP	34	96	2
TAP	34	192	3
TAP	34	288	4
TAP	35	0	3
TAP	35	96	2
TAP	35	96	4
TAP	35	192	1
TAP	35	288	0
TAP	35	288	7
HLD	36	0	2	384
TAP	36	0	6
TAP	36	96	5
TAP	36	192	4
TAP	36	288	3
TAP	37	0	3
TAP	37	96	4
TAP	37	96	5
TAP	37	192	1
TAP	37	192	3
TAP	37	288	4
STR	37	288	6
SI_	37	288	6	96	96	2
HLD	38	0	0	768
XTP	40	0	4
XTP	40	96	2
XTP	40	96	6
XTP	40	144	2
XTP	40	144	6
XTP	40	240	1
XTP	40	240	5
XTP	40	288	1
XTP	40	288	5
XTP	40	336	1
XTP	40	336	5
BRK	41	288	0
BRK	41	288	7
TAP	42	0	1
TAP	42	0	6
TAP	42	96	2
TAP	42	96	4
TAP	42	144	2
TAP	42	144	4
TAP	42	240	6
TAP	42	240	7
TAP	42	336	0
TAP	42	336	5
TAP	43	48	1
TAP	43	96	1
TAP	43	144	0
STR	43	192	1
SI_	43	192	1	96	96	5
TAP	43	288	6
HLD	44	0	6	96
HLD	44	96	7	96
HLD	44	192	0	96
HLD	44	288	1	96
TAP	45	0	3
TAP	45	96	2
TAP	45	96	4
TAP	45	192	1
TAP	45	192	5
TAP	45	288	0
TAP	45	288	6
HLD	46	0	7	96
TAP	46	96	0
TAP	46	144	0
TAP	46	240	4
TAP	46	240	5
TAP	46	336	3
TAP	46	336	6
TAP	47	48	7
TAP	47	96	7
TAP	47	192	0
TAP	47	192	6
TAP	47	288	1
TAP	47	288	5
HLD	48	0	2	96
TAP	48	0	4
HLD	48	96	1	96
HLD	48	192	0	96
TAP	48	288	7
TAP	49	0	1
TAP	49	0	6
HLD	49	96	7	96
HLD	49	192	6	96
HLD	49	288	5	96
BRK	50	0	3
TAP	50	192	0
TAP	50	192	1
TAP	50	288	2
STR	50	288	7
SCL	50	288	7	96	96	4
TAP	51	0	3
TAP	51	192	0
TAP	51	192	1
TAP	51	288	2
TAP	51	288	7
STR	52	0	3
SCL	52	0	3	96	96	0
TAP	52	0	6
TAP	52	96	5
TAP	52	288	6
TAP	52	288	7
TAP	53	0	4
TAP	53	0	5
TAP	53	96	2
TAP	53	96	3
TAP	53	192	0
TAP	53	192	1
TAP	53	288	6
TAP	53	288	7
TAP	54	0	0
HLD	54	0	5	192
TAP	54	96	2
TAP	54	192	4
TAP	54	288	0
TAP	54	288	1
HLD	55	0	2	192
TAP	55	0	7
TAP	55	96	5
TAP	55	192	3
TAP	55	288	6
TAP	55	288	7
HLD	56	0	0	192
TAP	56	0	5
TAP	56	96	3
TAP	56	192	7
TAP	56	288	1
TAP	56	288	6
TTP	57	0	0	B	0	M1
TTP	57	0	0	C	1	M1
TTP	57	0	3	B	0	M1
TTP	57	0	4	B	0	M1
TTP	57	0	7	B	0	M1
BRK	58	0	0
BRK	58	0	7
TAP	58	96	1
TAP	58	96	6
TAP	58	192	5
TAP	58	288	4
TAP	58	288	6
TAP	59	0	3
TAP	59	96	2
TAP	59	96	4
TAP	59	192	5
TAP	59	240	5
TAP	59	288	4
HLD	60	0	3	96
TAP	60	0	6
TAP	60	96	4
TAP	60	192	2
TAP	60	288	1
TAP	60	288	3
TAP	61	0	4
TAP	61	96	3
TAP	61	96	5
TAP	61	192	2
TAP	61	240	2
TAP	61	288	3
TAP	62	0	1
TAP	62	0	4
TAP	62	96	0
TAP	62	96	7
TAP	62	192	2
TAP	62	288	1
TAP	62	288	3
TAP	63	0	4
TAP	63	96	3
TAP	63	96	5
TAP	63	192	2
TAP	63	240	2
TAP	63	288	3
TAP	64	0	1
HLD	64	0	4	96
TAP	64	96	3
TAP	64	192	5
TAP	64	288	4
TAP	64	288	6
TAP	65	0	2
TAP	65	96	1
TAP	65	96	3
TAP	65	192	4
TAP	65	240	4
TAP	65	288	3
TAP	65	336	3
TAP	67	0	4
TAP	67	96	4
TAP	67	192	4
TAP	67	288	3
TAP	67	288	5
TAP	67	336	3
TAP	67	336	5
TAP	68	48	2
TAP	68	48	4
TAP	68	144	3
TAP	68	144	5
TAP	68	240	4
TAP	68	288	4
TAP	69	0	3
TAP	69	0	5
TAP	69	96	2
HLD	69	96	6	96
HLD	69	192	5	96
HLD	69	288	4	96
HLD	70	0	3	288
TAP	70	96	4
TAP	70	192	4
STR	70	288	4
SI_	70	288	4	96	96	0
TAP	71	192	2
TAP	71	192	6
STR	71	288	0
SF_	71	288	0	96	96	4
TAP	72	192	4
TAP	72	288	3
TAP	73	0	2
TAP	73	0	4
TAP	73	96	1
TAP	73	96	5
TAP	73	192	0
TAP	73	240	0
TAP	73	288	7
TAP	73	336	7
TAP	74	192	3
TAP	74	192	4
STR	74	288	0
SXR	74	288	0	96	384	5
STR	74	288	1
SXL	74	288	1	96	384	4
TAP	76	96	3
TAP	76	96	6
TAP	76	192	1
TAP	76	192	4
STR	76	288	6
SXR	76	288	6	96	384	3
STR	76	288	7
SXL	76	288	7	96	384	2
TAP	78	96	1
TAP	78	96	4
TAP	78	192	3
TAP	78	192	6
TAP	78	288	0
STR	78	288	7
SSR	78	288	7	96	240	3
HLD	80	0	1	96
TAP	80	0	5
HLD	80	96	2	96
HLD	80	192	3	96
HLD	80	288	4	96
XTP	81	0	3
XTP	81	96	2
XTP	81	96	5
XTP	81	144	2
XTP	81	144	5
XTP	81	240	1
XTP	81	240	6
XTP	81	288	1
XTP	81	288	6
XTP	81	336	1
XTP	81	336	6
STR	82	192	0
SI_	82	192	0	96	48	4
BRK	82	192	7
TTP	83	0	0	C	1	M1
TTP	83	0	3	E	0	M1
TTP	83	0	7	E	0	M1
HLD	84	0	5	384
HLD	85	0	4	384
HLD	86	0	3	192
HLD	86	192	2	192
STR	87	0	3
SCL	87	0	3	96	192	0
STR	88	0	7
SCL	88	0	7	96	192	4
HLD	89	0	2	192
HLD	89	192	3	192
HLD	90	0	4	192
HLD	90	192	5	192
TAP	91	0	4
TAP	91	96	4
TAP	91	192	4
TAP	91	288	3
STR	91	288	6
SI_	91	288	6	96	96	4
TAP	92	0	3
TAP	92	96	3
TAP	92	192	3
STR	92	288	1
SI_	92	288	1	96	96	3
TAP	92	288	4
TAP	93	0	4
TAP	93	96	4
TAP	93	192	4
TAP	93	288	3
TAP	93	288	5
TAP	94	0	4
TAP	94	96	3
TAP	94	192	2
STR	94	288	1
SI_	94	288	1	96	96	3
TAP	94	288	4
TAP	95	0	4
TAP	95	96	4
TAP	95	192	4
TAP	95	288	3
STR	95	288	6
SI_	95	288	6	96	96	4
TAP	96	0	3
TAP	96	96	3
TAP	96	192	3
STR	96	288	1
SXR	96	288	1	96	480	6
TAP	96	288	4
STR	98	288	1
SI_	98	288	1	96	48	3
STR	98	288	6
SI_	98	288	6	96	48	4
BRK	99	96	0
BRK	99	96	7
XTP	99	144	0
XTP	99	144	7
TAP	99	240	1
TAP	99	240	6
TAP	99	336	3
TAP	99	336	4
TAP	100	48	6
TAP	100	96	6
TAP	100	144	7
STR	100	192	6
SI_	100	192	6	96	96	2
TAP	100	288	1
HLD	101	0	1	96
HLD	101	96	0	96
HLD	101	192	7	96
HLD	101	288	6	96
TAP	102	0	4
TAP	102	96	3
TAP	102	96	5
TAP	102	192	2
TAP	102	192	6
TAP	102	288	1
TAP	102	288	7
HLD	103	0	0	96
TAP	103	96	7
TAP	103	144	7
TAP	103	240	2
TAP	103	240	3
TAP	103	336	1
TAP	103	336	4
TAP	104	48	0
TAP	104	96	0
TAP	104	192	1
TAP	104	192	7
TAP	104	288	2
TAP	104	288	6
TAP	105	0	3
HLD	105	0	5	96
HLD	105	96	6	96
HLD	105	192	7	96
TAP	105	288	0
TAP	106	0	1
TAP	106	0	6
HLD	106	96	0	96
HLD	106	192	1	96
HLD	106	288	2	96
BRK	107	0	4
TAP	107	96	4
TAP	107	96	6
XTP	107	144	4
XTP	107	144	6
XTP	107	192	7
XTP	107	240	0
XTP	107	288	1
XTP	107	336	2
XTP	107	336	4
TAP	108	0	2
TAP	108	0	4
TAP	108	96	1
TAP	108	96	3
XTP	108	144	1
XTP	108	144	3
XTP	108	192	0
XTP	108	240	7
XTP	108	288	6
XTP	108	336	4
XTP	108	336	5
STR	109	0	4
SI_	109	0	4	96	96	1
STR	109	0	5
SI_	109	0	5	96	96	0
TAP	109	288	2
TAP	109	288	7
TAP	110	0	4
TAP	110	0	5
TAP	110	96	2
TAP	110	96	3
TAP	110	192	6
TAP	110	192	7
STR	110	288	0
SCR	110	288	0	96	96	3
TAP	110	288	5
TAP	111	0	4
TAP	111	96	5
TAP	111	192	3
TAP	111	192	6
TAP	111	288	2
STR	111	288	7
SCL	111	288	7	96	96	4
TAP	112	0	3
TAP	112	96	2
TAP	112	192	1
TAP	112	192	4
STR	112	288	0
SUL	112	288	0	96	192	7
TAP	112	288	5
TAP	113	0	4
TAP	113	96	5
TAP	113	192	6
TAP	113	288	6
TAP	113	288	7
TAP	114	0	0
TAP	114	0	1
TTP	114	96	4	E	0	M1
TTP	114	192	3	E	0	M1
TTP	114	192	5	E	0	M1
TTP	114	288	2	E	0	M1
TTP	114	288	6	E	0	M1
TTP	115	0	0	B	0	M1
TTP	115	0	0	C	1	M1
TTP	115	0	0	E	0	M1
TTP	115	0	7	B	0	M1
HLD	116	0	1	144
HLD	116	144	2	144
TAP	116	288	3
HLD	117	0	6	144
HLD	117	144	5	144
TAP	117	288	4
TAP	118	0	3
TAP	118	0	4
TAP	118	96	2
TAP	118	96	5
TAP	118	192	1
TAP	118	192	6
TAP	118	288	0
TAP	118	288	7
HLD	119	0	6	384
HLD	120	0	2	288
STR	120	288	4
SI_	120	288	4	96	384	0
TAP	120	336	4

T_REC_TAP	403
T_REC_BRK	12
T_REC_XTP	42
T_REC_HLD	84
T_REC_XHO	0
T_REC_STR	35
T_REC_BST	0
T_REC_XST	0
T_REC_TTP	17
T_REC_THO	0
T_REC_SLD	35
T_REC_ALL	628
T_NUM_TAP	497
T_NUM_BRK	12
T_NUM_HLD	84
T_NUM_SLD	35
T_NUM_ALL	628
T_JUDGE_TAP	509
T_JUDGE_HLD	244
T_JUDGE_SLD	35
T_JUDGE_ALL	788
TTM_EACHPAIRS	173
TTM_SCR_TAP	248500
TTM_SCR_BRK	31200
TTM_SCR_HLD	84000
TTM_SCR_SLD	52500
TTM_SCR_ALL	416200
TTM_SCR_S	402550
TTM_SCR_SS	415000
TTM_RAT_ACV	10028

