VERSION	0.00.00	1.03.00
FES_MODE	0
BPM_DEF	190.000	190.000	190.000	190.000
MET_DEF	4	4
RESOLUTION	384
CLK_DEF	384
COMPATIBLE_CODE	MA2

BPM	0	0	190.000
MET	0	0	4	4

TAP	2	0	2
TAP	2	96	2
TAP	2	192	3
TAP	2	288	3
TAP	3	0	4
TAP	3	96	4
TAP	3	192	3
TAP	3	192	5
TAP	4	0	6
TAP	4	96	6
TAP	4	192	7
TAP	4	288	7
TAP	5	0	0
TAP	5	96	0
TAP	5	192	0
TAP	5	192	7
TAP	6	0	1
TAP	6	96	1
TAP	6	192	0
TAP	6	288	0
TAP	7	0	7
TAP	7	96	7
TAP	7	192	0
TAP	7	192	6
TAP	8	0	5
TAP	8	96	5
TAP	8	192	4
TAP	8	288	4
TAP	9	0	3
TAP	9	96	3
TAP	9	96	4
TAP	9	192	2
TAP	9	192	5
HLD	10	0	2	192
TAP	10	192	3
HLD	11	0	5	192
TAP	11	192	4
HLD	12	0	2	192
TAP	12	192	3
TAP	13	0	4
TAP	13	96	4
TAP	13	192	3
TAP	13	192	5
HLD	14	0	6	192
TAP	14	192	7
HLD	15	0	1	192
TAP	15	192	0
HLD	16	0	6	192
TAP	16	192	7
TAP	17	0	0
TAP	17	96	0
TAP	17	96	7
TAP	17	192	1
TAP	17	192	6
TAP	18	0	5
TAP	18	96	5
TAP	18	192	4
TAP	19	0	2
TAP	19	96	2
TAP	19	192	3
TAP	20	0	5
TAP	20	96	5
TAP	20	192	4
TAP	20	288	4
TAP	21	0	3
TAP	21	96	3
TAP	21	192	2
TAP	21	192	4
TAP	22	0	1
TAP	22	96	1
TAP	22	192	0
TAP	23	0	6
TAP	23	96	6
TAP	23	192	7
TAP	24	0	1
TAP	24	96	1
TAP	24	192	0
TAP	24	288	0
TAP	25	0	7
TAP	25	96	7
TAP	25	192	0
TAP	25	192	7
BST	26	0	6
SI_	26	0	6	96	192	3
STR	27	0	2
SI_	27	0	2	96	192	7
STR	28	0	6
SI_	28	0	6	96	192	2
TAP	29	0	1
TAP	29	96	1
TAP	29	192	0
TAP	29	192	1
STR	30	0	1
SI_	30	0	1	96	192	4
STR	31	0	5
SI_	31	0	5	96	192	0
STR	32	0	1
SI_	32	0	1	96	192	5
TAP	33	0	6
TAP	33	96	6
TAP	33	192	0
TAP	33	192	7
TTP	34	0	6	E	0	L1
TTP	34	96	5	B	0	L1
TTP	34	192	4	B	0	L1
TTP	35	0	2	E	0	L1
TTP	35	96	2	B	0	L1
TTP	35	192	3	B	0	L1
TTP	36	0	6	E	0	L1
TTP	36	96	5	B	0	L1
TTP	36	192	4	B	0	L1
TTP	37	0	2	E	0	L1
TTP	37	96	2	B	0	L1
TTP	37	192	3	B	0	L1
TTP	38	0	0	C	1	L1
TTP	38	0	2	B	0	L1
TTP	38	0	5	B	0	L1
TAP	40	0	7
TAP	40	96	7
TAP	40	192	0
TAP	40	192	7
XTP	40	288	1
XTP	40	288	6
XTP	40	336	1
XTP	40	336	6
TAP	41	288	0
TAP	41	288	7
BRK	42	0	6
TAP	42	96	6
TAP	42	192	6
TAP	42	192	7
TAP	42	288	6
TAP	42	288	7
TAP	43	0	1
TAP	43	96	1
TAP	43	192	0
TAP	43	192	1
TAP	43	288	0
TAP	43	288	1
XTP	44	0	2
XTP	44	96	3
XTP	44	192	4
XTP	44	288	2
XTP	44	288	5
TAP	45	96	3
TAP	45	96	4
TAP	45	192	3
TAP	45	192	4
TAP	45	288	3
TAP	45	288	4
TAP	46	0	5
TAP	46	96	5
TAP	46	192	4
TAP	46	192	5
TAP	46	288	4
TAP	46	288	5
TAP	47	0	2
TAP	47	96	2
TAP	47	192	2
TAP	47	192	3
TAP	47	288	2
TAP	47	288	3
XTP	48	0	1
XTP	48	96	0
XTP	48	192	7
XTP	48	288	1
XTP	48	288	6
TAP	49	96	0
TAP	49	96	7
TAP	49	192	1
TAP	49	192	6
BST	50	0	5
SI_	50	0	5	96	192	0
STR	51	0	1
SI_	51	0	1	96	192	4
TAP	52	0	5
TAP	52	96	5
TAP	52	192	4
TAP	52	192	5
TAP	53	0	6
TAP	53	96	6
TAP	53	192	7
TAP	53	288	0
TAP	54	0	1
TAP	54	96	1
TAP	54	192	0
TAP	54	192	1
TAP	55	0	6
TAP	55	96	6
TAP	55	192	6
TAP	55	192	7
TAP	56	0	5
TAP	56	96	5
TAP	56	192	4
TAP	56	288	4
TAP	57	0	3
TAP	57	0	4
TAP	57	96	3
TAP	57	96	4
TAP	57	192	2
TAP	57	192	5
BST	58	0	6
SUL	58	0	6	96	192	2
TAP	59	0	1
TAP	59	96	1
TAP	59	192	0
TAP	59	192	1
STR	60	0	1
SUR	60	0	1	96	192	5
TAP	61	0	6
TAP	61	96	6
TAP	61	192	6
TAP	61	192	7
STR	62	0	5
SCR	62	0	5	96	192	0
TAP	63	0	1
TAP	63	96	1
TAP	63	192	0
TAP	63	192	1
STR	64	0	2
SCL	64	0	2	96	192	7
TAP	65	0	6
TAP	65	96	6
TAP	65	192	7
STR	65	288	0
SI_	65	288	0	96	192	4
TAP	65	288	7
HLD	67	0	5	384
HLD	68	0	4	384
HLD	69	0	3	384
TAP	70	0	2
HLD	71	0	1	384
HLD	72	0	0	384
HLD	73	0	7	384
TAP	74	0	6
TAP	74	192	0
TAP	74	192	7
TTP	75	0	6	E	0	L1
TTP	75	96	5	B	0	L1
TTP	75	192	4	B	0	L1
TTP	76	0	2	E	0	L1
TTP	76	96	2	B	0	L1
TTP	76	192	3	B	0	L1
TTP	77	0	6	E	0	L1
TTP	77	96	5	B	0	L1
TTP	77	192	4	B	0	L1
TTP	78	0	2	E	0	L1
TTP	78	96	2	B	0	L1
TTP	78	192	3	B	0	L1
TTP	79	0	0	C	1	L1
TTP	79	0	2	B	0	L1
TTP	79	0	5	B	0	L1
TAP	81	0	0
TAP	81	96	0
TAP	81	192	0
TAP	81	192	7
XTP	81	288	1
XTP	81	288	6
XTP	81	336	1
XTP	81	336	6
STR	83	0	7
SCL	83	0	7	96	480	1
STR	85	0	0
SCR	85	0	0	96	480	6
STR	87	0	7
SCL	87	0	7	96	480	1
STR	89	0	0
SCR	89	0	0	96	192	3
TAP	90	96	3
TAP	90	96	4
TAP	90	192	3
TAP	90	192	4
TAP	91	0	4
TAP	91	96	4
TAP	91	192	4
TAP	92	0	3
TAP	92	96	3
TAP	92	192	3
TAP	93	0	4
TAP	93	96	4
TAP	93	192	4
TAP	94	0	3
TAP	94	96	3
TAP	94	192	3
TAP	95	0	4
TAP	95	96	4
TAP	95	192	4
TAP	96	0	3
TAP	96	0	4
TAP	96	96	3
TAP	96	96	4
TAP	96	192	3
TAP	96	192	4
STR	97	0	3
SCL	97	0	3	96	192	0
STR	97	0	4
SCR	97	0	4	96	192	7
XTP	98	96	0
XTP	98	96	7
XTP	98	192	0
XTP	98	192	7
TAP	98	288	0
TAP	98	288	7
TAP	99	0	1
BRK	99	96	0
BRK	99	96	1
TAP	99	192	1
TAP	99	288	0
TAP	99	288	1
TAP	100	0	6
TAP	100	96	6
TAP	100	96	7
TAP	100	192	6
TAP	100	288	6
TAP	100	288	7
XTP	101	0	5
XTP	101	96	4
XTP	101	192	3
XTP	101	288	2
XTP	101	288	5
TAP	102	96	3
TAP	102	96	4
TAP	102	192	3
TAP	102	192	4
TAP	102	288	3
TAP	102	288	4
TAP	103	0	2
TAP	103	96	2
TAP	103	96	3
TAP	103	192	2
TAP	103	288	2
TAP	103	288	3
TAP	104	0	5
TAP	104	96	4
TAP	104	96	5
TAP	104	192	5
TAP	104	288	4
TAP	104	288	5
XTP	105	0	6
XTP	105	96	7
XTP	105	192	0
XTP	105	288	1
XTP	105	288	6
TAP	106	96	0
TAP	106	96	7
TAP	106	192	1
TAP	106	192	6
BST	107	0	2
SCL	107	0	2	96	192	7
STR	108	0	6
SCL	108	0	6	96	192	3
TAP	109	0	2
TAP	109	96	2
TAP	109	192	2
TAP	109	192	3
TAP	110	0	1
TAP	110	96	1
TAP	110	192	0
TAP	110	288	7
TAP	111	0	6
TAP	111	96	6
TAP	111	192	6
TAP	111	192	7
TAP	112	0	1
TAP	112	96	1
TAP	112	192	0
TAP	112	192	1
TAP	113	0	2
TAP	113	96	3
TAP	113	192	4
TAP	113	288	5
TAP	114	0	6
TAP	114	96	7
TAP	114	192	0
TAP	114	288	1
BRK	115	0	0
BRK	115	0	7
TTP	116	0	0	E	0	L1
TTP	117	0	0	C	0	L1
TTP	118	0	4	E	0	L1
TTP	119	0	3	E	0	L1
TTP	119	0	5	E	0	L1
TTP	120	0	2	E	0	L1
TTP	120	0	6	E	0	L1
TTP	121	0	1	E	0	L1
TTP	121	0	7	E	0	L1

T_REC_TAP	256
T_REC_BRK	5
T_REC_XTP	32
T_REC_HLD	12
T_REC_XHO	0
T_REC_STR	17
T_REC_BST	4
T_REC_XST	0
T_REC_TTP	39
T_REC_THO	0
T_REC_SLD	21
T_REC_ALL	386
T_NUM_TAP	344
T_NUM_BRK	9
T_NUM_HLD	12
T_NUM_SLD	21
T_NUM_ALL	386
T_JUDGE_TAP	353
T_JUDGE_HLD	72
T_JUDGE_SLD	21
T_JUDGE_ALL	446
TTM_EACHPAIRS	73
TTM_SCR_TAP	172000
TTM_SCR_BRK	23400
TTM_SCR_HLD	12000
TTM_SCR_SLD	31500
TTM_SCR_ALL	238900
TTM_SCR_S	230900
TTM_SCR_SS	238000
TTM_RAT_ACV	10037

