VERSION	0.00.00	1.03.00
FES_MODE	0
BPM_DEF	190.000	190.000	190.000	190.000
MET_DEF	4	4
RESOLUTION	384
CLK_DEF	384
COMPATIBLE_CODE	MA2

BPM	0	0	190.000
MET	0	0	4	4

XTP	2	0	0
TAP	3	0	0
TAP	4	0	0
XTP	6	0	7
TAP	7	0	7
TAP	8	0	7
TAP	10	0	0
TAP	11	0	0
TAP	12	0	1
TAP	13	0	1
TAP	14	0	2
TAP	15	0	2
TAP	16	0	3
TAP	16	0	4
TAP	17	0	3
TAP	17	0	4
TAP	18	0	4
TAP	19	0	4
TAP	20	0	5
TAP	21	0	5
TAP	22	0	6
TAP	23	0	6
HLD	24	0	0	336
HLD	24	0	7	336
TTP	26	0	7	B	0	L1
TTP	27	0	0	B	0	L1
TTP	28	0	6	B	0	L1
TTP	29	0	1	B	0	L1
TTP	30	0	5	B	0	L1
TTP	31	0	2	B	0	L1
TTP	32	0	4	B	0	L1
TTP	33	0	0	C	0	L1
TAP	34	0	7
TAP	35	0	7
HLD	36	0	6	384
HLD	36	0	7	384
HLD	38	0	0	384
HLD	38	0	1	384
HLD	40	0	0	288
HLD	40	0	7	288
XTP	42	0	7
TAP	42	192	7
TAP	43	0	7
TAP	44	0	6
TAP	44	192	6
TAP	45	0	6
TAP	46	0	5
TAP	46	192	5
TAP	47	0	5
TAP	48	0	4
TAP	48	192	4
TAP	49	0	3
TAP	49	0	4
TAP	50	0	3
TAP	50	192	3
TAP	51	0	3
TAP	52	0	2
TAP	52	192	2
TAP	53	0	2
TAP	54	0	1
TAP	54	192	1
TAP	55	0	1
TAP	56	0	0
TAP	56	192	0
TAP	57	0	0
TAP	57	0	7
STR	58	0	0
SI_	58	0	0	96	288	3
STR	60	0	4
SI_	60	0	4	96	288	7
STR	62	0	0
SI_	62	0	0	96	288	4
TAP	64	0	6
HLD	65	0	7	384
HLD	67	0	0	384
HLD	67	0	1	384
HLD	69	0	2	384
HLD	69	0	3	384
HLD	71	0	4	384
HLD	71	0	5	384
HLD	73	0	6	384
HLD	73	0	7	384
TAP	75	0	6
TAP	76	0	6
TAP	76	0	7
TAP	77	0	1
TAP	78	0	0
TAP	78	0	1
HLD	79	0	7	384
HLD	81	0	0	288
HLD	81	0	7	288
TTP	83	0	0	B	0	L1
TTP	83	0	7	B	0	L1
TTP	85	0	1	B	0	L1
TTP	85	0	6	B	0	L1
TTP	87	0	2	B	0	L1
TTP	87	0	5	B	0	L1
TTP	89	0	3	B	0	L1
TTP	89	0	4	B	0	L1
TTP	91	0	3	E	0	L1
TTP	92	0	2	E	0	L1
TTP	93	0	1	E	0	L1
TTP	94	0	0	E	0	L1
TTP	95	0	7	E	0	L1
TTP	96	0	6	E	0	L1
THO	97	0	0	384	C	0	L1
XTP	99	0	7
TAP	99	192	7
TAP	100	0	6
TAP	101	0	5
TAP	101	192	5
TAP	102	0	4
TAP	102	0	5
TAP	103	0	3
TAP	103	192	3
TAP	104	0	2
TAP	105	0	1
TAP	105	192	1
TAP	106	0	0
TAP	106	0	1
TAP	107	0	2
TAP	107	192	2
TAP	108	0	3
TAP	108	192	3
TAP	109	0	4
TAP	110	0	4
TAP	110	0	5
TAP	111	0	5
TAP	111	192	5
TAP	112	0	4
TAP	112	192	4
TAP	113	0	3
TAP	114	0	2
TAP	114	0	3
BRK	115	0	3
BRK	115	0	4
TTP	117	0	3	B	0	L1
TTP	117	0	4	B	0	L1
TTP	118	0	2	B	0	L1
TTP	118	0	5	B	0	L1
TTP	119	0	1	B	0	L1
TTP	119	0	6	B	0	L1
THO	120	0	0	288	C	0	L1

T_REC_TAP	81
T_REC_BRK	2
T_REC_XTP	4
T_REC_HLD	20
T_REC_XHO	0
T_REC_STR	3
T_REC_BST	0
T_REC_XST	0
T_REC_TTP	28
T_REC_THO	2
T_REC_SLD	3
T_REC_ALL	143
T_NUM_TAP	116
T_NUM_BRK	2
T_NUM_HLD	22
T_NUM_SLD	3
T_NUM_ALL	143
T_JUDGE_TAP	118
T_JUDGE_HLD	164
T_JUDGE_SLD	3
T_JUDGE_ALL	285
TTM_EACHPAIRS	20
TTM_SCR_TAP	58000
TTM_SCR_BRK	5200
TTM_SCR_HLD	22000
TTM_SCR_SLD	4500
TTM_SCR_ALL	89700
TTM_SCR_S	86850
TTM_SCR_SS	89500
TTM_RAT_ACV	10022

