VERSION	0.00.00	1.03.00
FES_MODE	0
BPM_DEF	199.000	199.000	199.000	 49.750
MET_DEF	4	4
RESOLUTION	384
CLK_DEF	384
COMPATIBLE_CODE	MA2

BPM	0	0	199.000
BPM	17	192	 99.500
BPM	21	192	132.667
BPM	25	192	199.000
BPM	109	0	 49.750
MET	0	0	4	4
MET	13	0	4	3
MET	15	96	4	4
MET	16	96	4	5
MET	17	192	4	4
MET	108	192	4	2
MET	109	0	4	4

STR	5	0	1
SUR	5	0	1	96	480	4
BRK	5	0	6
STR	7	0	1
SUR	7	0	1	96	480	4
STR	7	0	6
SUL	7	0	6	96	480	3
TAP	9	0	1
STR	9	0	6
SUL	9	0	6	96	480	3
STR	11	0	1
SUR	11	0	1	96	480	4
STR	11	0	6
SUL	11	0	6	96	480	3
TAP	12	288	2
TAP	12	288	5
TAP	13	0	1
TAP	13	48	3
TAP	13	96	1
TAP	13	144	2
TAP	13	192	4
TAP	13	240	3
TAP	13	288	5
TAP	13	336	6
TAP	14	0	3
TAP	14	48	5
TAP	14	96	2
TAP	14	144	4
TAP	14	192	3
TAP	14	240	6
TAP	14	264	5
TAP	14	288	4
TAP	14	336	1
TAP	14	360	2
TAP	15	0	3
TAP	15	0	4
HLD	15	96	5	72
HLD	15	168	4	72
HLD	15	240	3	72
HLD	15	312	2	72
TAP	16	0	4
TAP	16	48	4
TAP	16	96	1
TAP	16	128	3
TAP	16	160	2
TAP	16	192	6
TAP	16	224	4
TAP	16	256	5
STR	16	288	0
SSL	16	288	0	96	48	4
SV_	16	288	0	96	48	2
BRK	17	0	0
STR	17	192	3
SCL	17	192	3	96	96	7
STR	17	288	7
SI_	17	288	7	96	48	3
SCL	17	288	7	96	192	7
STR	18	96	7
SCL	18	96	7	96	96	3
STR	18	192	3
SI_	18	192	3	96	48	7
SCL	18	192	3	96	48	1
TAP	19	0	0
TAP	19	24	0
TAP	19	48	7
TAP	19	72	0
TAP	19	96	0
TAP	19	96	7
TAP	19	120	0
TAP	19	120	7
TAP	19	168	3
TAP	19	168	4
TAP	19	192	3
STR	19	192	4
SCR	19	192	4	96	96	0
STR	19	288	0
SI_	19	288	0	96	48	4
SCR	19	288	0	96	192	0
STR	20	96	0
SCR	20	96	0	96	96	4
TAP	20	120	0
TAP	20	168	4
STR	20	192	4
SI_	20	192	4	96	48	0
SCR	20	192	4	96	48	6
TAP	21	0	7
TAP	21	24	7
TAP	21	48	0
TAP	21	72	7
TAP	21	96	0
TAP	21	96	7
TAP	21	120	0
TAP	21	120	7
TAP	21	144	0
TAP	21	144	7
TAP	21	168	0
TAP	21	168	7
HLD	21	192	0	96
HLD	21	192	6	96
TAP	21	320	1
TAP	21	336	5
TAP	21	352	2
TAP	21	368	4
STR	22	0	3
SI_	22	0	3	96	24	7
BRK	22	96	0
STR	22	192	1
SI_	22	192	1	96	24	3
STR	22	288	7
SI_	22	288	7	96	24	1
STR	23	0	7
SI_	23	0	7	96	24	5
STR	23	96	3
SI_	23	96	3	96	24	5
TAP	23	128	3
STR	23	192	1
SI_	23	192	1	96	48	3
STR	23	288	4
SI_	23	288	4	96	48	0
STR	24	0	4
SCR	24	0	4	96	24	6
TAP	24	32	2
TAP	24	64	3
STR	24	96	4
SI_	24	96	4	96	48	0
STR	24	192	4
SCL	24	192	4	96	24	2
TAP	24	224	6
TAP	24	256	5
TAP	24	288	4
TAP	24	320	6
TAP	24	352	5
STR	25	0	4
SI_	25	0	4	96	24	2
STR	25	32	4
SI_	25	32	4	96	24	6
STR	25	64	4
SI_	25	64	4	96	24	1
STR	25	96	4
SI_	25	96	4	96	24	7
STR	25	128	4
SI_	25	128	4	96	24	0
STR	25	160	4
SV_	25	160	4	96	144	2
SV_	25	160	4	96	144	5
HLD	26	96	3	48
HLD	26	96	4	48
TAP	26	192	1
STR	26	192	6
SV_	26	192	6	96	48	7
TTP	26	288	4	B	0	M1
TTP	26	288	4	E	0	M1
STR	27	0	1
SV_	27	0	1	96	48	0
TAP	27	48	1
TTP	27	96	3	B	0	M1
TTP	27	96	4	E	0	M1
TTP	27	192	6	E	0	M1
TTP	27	240	5	E	0	M1
TTP	27	288	4	E	0	M1
TAP	27	288	7
TTP	27	336	3	E	0	M1
TTP	28	0	2	E	0	M1
HLD	28	0	6	96
TTP	28	48	1	E	0	M1
THO	28	96	0	576	C	0	M1
TAP	28	192	7
STR	28	240	7
SI_	28	240	7	96	48	5
STR	28	336	7
SI_	28	336	7	96	48	1
TAP	29	48	7
TAP	29	144	2
STR	29	192	2
SI_	29	192	2	96	48	7
TAP	30	0	0
TAP	30	48	0
TAP	30	96	0
TAP	30	96	7
STR	30	192	1
SV_	30	192	1	96	48	0
TAP	30	192	6
TTP	30	288	3	B	0	M1
TTP	30	288	4	E	0	M1
STR	31	0	6
SV_	31	0	6	96	48	7
TAP	31	48	6
TTP	31	96	4	B	0	M1
TTP	31	96	4	E	0	M1
TTP	31	192	2	E	0	M1
TTP	31	240	3	E	0	M1
TAP	31	288	0
TTP	31	288	4	E	0	M1
TTP	31	336	5	E	0	M1
HLD	32	0	1	96
TTP	32	0	6	E	0	M1
TTP	32	48	7	E	0	M1
THO	32	96	0	576	C	0	M1
TAP	32	192	0
STR	32	240	0
SI_	32	240	0	96	48	2
STR	32	336	0
SI_	32	336	0	96	48	6
TAP	33	48	0
TAP	33	144	5
STR	33	192	5
SI_	33	192	5	96	48	0
TAP	34	0	7
TAP	34	48	0
TAP	34	96	1
TAP	34	144	2
THO	34	192	0	96	C	0	M1
STR	34	192	7
SCL	34	192	7	96	864	0
THO	35	192	0	96	C	0	M1
THO	36	192	0	96	C	0	M1
TAP	37	96	0
TAP	37	96	7
TTP	37	192	0	C	0	M1
HLD	37	192	2	32
TTP	37	256	0	C	0	M1
HLD	37	256	7	32
TTP	37	320	0	C	0	M1
HLD	37	320	1	32
TTP	38	0	0	C	0	M1
HLD	38	0	6	32
TTP	38	64	0	C	0	M1
HLD	38	64	0	32
TTP	38	128	0	C	0	M1
HLD	38	128	5	32
STR	38	192	0
TTP	38	192	0	C	0	M1
SI_	38	192	0	96	48	4
TAP	38	288	0
TAP	38	288	7
STR	39	0	6
SI_	39	0	6	96	48	2
TTP	39	48	4	B	0	M1
TTP	39	48	5	B	0	M1
TAP	39	96	6
TAP	39	96	7
STR	39	192	1
SI_	39	192	1	96	48	5
TTP	39	240	2	B	0	M1
TTP	39	240	3	B	0	M1
TAP	39	288	0
TAP	39	288	1
STR	40	0	7
SV_	40	0	7	96	48	4
TTP	40	48	5	B	0	M1
TTP	40	48	6	B	0	M1
TAP	40	96	4
TAP	40	96	7
STR	40	192	0
SV_	40	192	0	96	48	3
TTP	40	240	1	B	0	M1
TTP	40	240	2	B	0	M1
TAP	40	288	0
TAP	40	288	3
STR	41	0	7
SI_	41	0	7	96	48	3
TTP	41	48	5	B	0	M1
TTP	41	48	6	B	0	M1
TAP	41	96	3
TAP	41	96	7
STR	41	192	0
SCL	41	192	0	96	48	5
SCR	41	192	0	96	48	3
TAP	41	288	0
TAP	42	0	2
TAP	42	0	6
TAP	42	96	0
TAP	42	120	7
TAP	42	144	0
TAP	42	168	7
BRK	42	192	0
TAP	42	204	1
TAP	42	216	2
TAP	42	228	3
BRK	42	264	0
TAP	42	276	1
TAP	42	288	2
TAP	42	300	3
BRK	42	336	0
TAP	42	348	1
TAP	42	360	2
TAP	42	372	3
TAP	43	0	7
TAP	43	48	7
TAP	43	96	0
BRK	43	96	7
TAP	43	108	6
TAP	43	120	5
TAP	43	132	4
BRK	43	168	7
TAP	43	180	6
TAP	43	192	5
TAP	43	204	4
BRK	43	240	7
TAP	43	252	6
TAP	43	264	5
TAP	43	276	4
TAP	43	288	0
TAP	43	336	0
TAP	44	0	0
TAP	44	24	7
TAP	44	48	0
TAP	44	72	7
TAP	44	96	0
TAP	44	120	7
TAP	44	144	0
TAP	44	168	7
BRK	44	192	0
TAP	44	204	1
TAP	44	216	2
TAP	44	228	3
BRK	44	264	1
TAP	44	276	2
TAP	44	288	3
TAP	44	300	4
BRK	44	336	2
TAP	44	348	3
TAP	44	360	4
TAP	44	372	5
TAP	45	0	7
TAP	45	48	7
TAP	45	96	0
BRK	45	96	7
TAP	45	108	6
TAP	45	120	5
TAP	45	132	4
BRK	45	168	6
TAP	45	180	5
TAP	45	192	4
TAP	45	204	3
BRK	45	240	5
TAP	45	252	4
TAP	45	264	3
TAP	45	276	2
TAP	45	288	0
TAP	45	336	0
TAP	46	0	5
TAP	46	32	4
TAP	46	64	6
TAP	46	96	2
TAP	46	128	3
TAP	46	160	1
TAP	46	192	0
BRK	46	192	5
TAP	46	204	4
TAP	46	216	3
TAP	46	264	0
BRK	46	264	5
TAP	46	276	4
TAP	46	288	3
TAP	46	336	0
BRK	46	336	5
TAP	46	348	4
TAP	46	360	3
TAP	47	0	1
TAP	47	48	1
BRK	47	96	2
TAP	47	96	7
TAP	47	108	3
TAP	47	120	4
BRK	47	168	2
TAP	47	168	7
TAP	47	180	3
TAP	47	192	4
BRK	47	240	2
TAP	47	240	7
TAP	47	252	3
TAP	47	264	4
TAP	47	288	6
TAP	47	336	6
TAP	48	0	0
TAP	48	24	7
TAP	48	48	0
TAP	48	72	7
TAP	48	96	0
TAP	48	120	7
TAP	48	144	0
TAP	48	168	7
HLD	48	192	0	0
HLD	48	216	1	0
HLD	48	240	7	0
HLD	48	264	6	0
HLD	48	288	1	0
HLD	48	312	2	0
HLD	48	336	6	0
HLD	48	360	5	0
HLD	49	0	2	0
HLD	49	24	3	0
STR	49	48	5
SUL	49	48	5	96	144	2
SUL	49	48	5	96	144	4
HLD	49	72	4	0
HLD	49	96	2	0
HLD	49	120	3	0
HLD	49	144	5	0
STR	50	0	0
SI_	50	0	0	96	48	4
STR	50	0	7
SI_	50	0	7	96	48	3
TAP	50	24	1
TAP	50	24	6
TAP	50	48	2
TAP	50	48	5
BRK	50	96	0
BRK	50	96	7
TAP	50	192	2
STR	50	192	5
SCR	50	192	5	96	2784	2
TTP	51	288	4	B	0	M1
TTP	52	0	3	B	0	M1
TTP	53	288	7	B	0	M1
TTP	54	0	0	B	0	M1
TTP	55	288	4	B	0	M1
TTP	56	0	3	B	0	M1
TTP	57	288	7	B	0	M1
TTP	58	0	0	B	0	M1
HLD	58	192	5	96
HLD	58	240	3	96
HLD	58	336	4	288
HLD	59	0	2	384
TAP	59	288	3
TAP	60	0	3
TAP	60	48	2
HLD	60	48	4	144
HLD	60	192	3	96
HLD	60	240	5	96
HLD	60	336	2	96
HLD	61	0	4	96
HLD	61	96	3	96
TAP	61	144	4
HLD	61	192	5	144
HLD	61	336	4	144
HLD	62	96	3	96
HLD	62	192	2	96
HLD	62	240	4	96
HLD	62	336	3	288
HLD	63	0	5	384
TAP	63	288	4
TAP	64	0	4
HLD	64	48	3	144
TAP	64	48	5
HLD	64	192	4	96
HLD	64	240	2	96
HLD	64	336	5	96
HLD	65	0	3	96
TAP	65	96	5
TAP	65	144	3
TAP	65	144	4
TAP	65	192	2
TAP	65	240	5
TAP	65	288	3
TAP	65	288	4
TAP	65	336	2
TAP	66	0	5
TAP	66	48	3
TAP	66	48	4
TAP	66	96	2
TAP	66	144	5
STR	66	192	1
SUR	66	192	1	96	480	4
BRK	66	192	6
TAP	66	336	5
TAP	67	48	6
HLD	67	192	7	192
STR	68	192	1
SUR	68	192	1	96	480	4
STR	68	192	6
SUL	68	192	6	96	480	3
TAP	70	192	1
STR	70	192	6
SUL	70	192	6	96	480	3
TAP	70	336	2
TAP	71	48	1
HLD	71	192	0	192
HLD	72	192	1	48
HLD	72	192	3	48
TAP	72	288	2
TAP	72	312	2
TAP	72	336	2
HLD	73	0	4	48
HLD	73	0	6	48
TAP	73	96	5
TAP	73	120	5
TAP	73	144	5
HLD	73	192	0	48
HLD	73	192	2	48
TAP	73	288	1
TAP	73	312	1
TAP	73	336	1
HLD	74	0	5	48
HLD	74	0	7	48
TAP	74	96	6
TAP	74	120	6
TAP	74	144	6
TAP	74	192	0
TAP	74	216	1
TAP	74	240	2
TAP	74	264	3
TAP	74	288	4
TAP	74	312	5
TAP	74	336	6
TAP	74	360	7
BRK	75	0	0
BRK	75	24	0
BRK	75	48	0
BRK	75	72	0
BST	75	96	0
SSL	75	96	0	96	48	4
BRK	75	120	0
BRK	75	144	0
BRK	75	168	0
BRK	75	192	0
TAP	76	0	3
STR	76	0	4
SSL	76	0	4	96	48	0
SSL	76	0	4	96	48	0
STR	76	192	6
SCL	76	192	6	96	48	3
TAP	76	288	6
TAP	76	288	7
STR	77	0	0
SLR	77	0	0	96	48	4
STR	77	48	4
SV_	77	48	4	96	48	1
TAP	77	96	0
STR	77	144	6
SI_	77	144	6	96	48	2
TAP	77	240	6
TAP	77	288	7
TAP	77	336	6
STR	78	0	4
SI_	78	0	4	96	48	0
TAP	78	48	5
STR	78	96	2
SI_	78	96	2	96	48	7
TAP	78	96	4
TAP	78	144	3
STR	78	192	5
SI_	78	192	5	96	48	1
TAP	78	240	4
TAP	78	288	2
TAP	78	336	3
STR	79	0	0
SLL	79	0	0	96	48	3
STR	79	48	3
SV_	79	48	3	96	48	6
TAP	79	96	0
STR	79	144	1
SI_	79	144	1	96	48	5
TAP	79	240	1
TAP	79	240	4
TAP	79	336	6
TAP	80	0	6
TAP	80	0	7
TAP	80	48	0
TAP	80	48	7
TAP	80	60	1
TAP	80	72	2
TAP	80	84	3
TAP	80	144	0
TAP	80	144	7
TAP	80	156	6
TAP	80	168	5
TAP	80	180	4
TAP	80	192	1
TAP	80	216	2
TAP	80	240	1
TAP	80	264	2
TAP	80	288	1
TAP	80	336	6
TAP	80	360	5
TAP	81	0	6
TAP	81	24	5
TAP	81	48	6
TAP	81	96	4
TAP	81	96	5
TAP	81	144	3
TAP	81	144	4
TAP	81	192	2
TAP	81	192	3
STR	81	240	1
SI_	81	240	1	96	48	4
TAP	81	288	3
TAP	81	336	1
STR	82	0	6
SI_	82	0	6	96	48	3
STR	82	48	3
SI_	82	48	3	96	48	7
TAP	82	96	6
TAP	82	144	0
STR	82	192	1
SI_	82	192	1	96	48	5
TAP	82	288	0
TAP	82	288	1
STR	83	0	6
SI_	83	0	6	96	48	1
STR	83	48	2
SI_	83	48	2	96	48	5
TAP	83	96	6
TAP	83	144	2
STR	83	240	3
SV_	83	240	3	96	48	0
STR	83	240	7
SI_	83	240	7	96	48	4
TAP	83	336	3
TAP	83	336	7
TAP	84	48	1
TAP	84	48	5
TAP	84	96	1
TAP	84	96	5
STR	84	192	0
SI_	84	192	0	96	48	4
TAP	84	288	0
TAP	84	288	6
STR	85	0	7
SLL	85	0	7	96	48	3
STR	85	48	3
SV_	85	48	3	96	48	6
TAP	85	96	7
STR	85	144	1
SI_	85	144	1	96	48	5
TAP	85	240	1
TAP	85	288	0
TAP	85	336	1
STR	86	0	3
SI_	86	0	3	96	48	7
TAP	86	48	2
TAP	86	96	3
STR	86	96	5
SI_	86	96	5	96	48	0
TAP	86	144	4
STR	86	192	2
SI_	86	192	2	96	48	6
TAP	86	240	3
TAP	86	288	5
TAP	86	336	4
STR	87	0	3
SCR	87	0	3	96	48	6
STR	87	0	7
SCR	87	0	7	96	48	2
TAP	87	48	3
TAP	87	48	7
TAP	87	96	3
TAP	87	96	7
BRK	87	192	3
HLD	87	192	7	32
HLD	87	256	2	32
BRK	87	256	6
BRK	87	320	1
HLD	87	320	5	32
HLD	88	0	0	32
BRK	88	0	4
HLD	88	64	3	32
BRK	88	64	7
BRK	88	128	2
BRK	88	128	6
STR	88	192	1
SCL	88	192	1	96	48	6
TAP	88	240	5
TAP	88	288	1
STR	88	336	4
SI_	88	336	4	96	48	1
TAP	89	0	5
TAP	89	48	4
TAP	89	96	0
STR	89	144	0
SI_	89	144	0	96	48	4
TAP	89	240	0
TAP	89	240	7
STR	89	336	6
SI_	89	336	6	96	48	2
TAP	90	0	3
TAP	90	48	6
STR	90	96	4
SI_	90	96	4	96	48	0
TAP	90	144	1
TAP	90	192	4
STR	90	192	7
SCL	90	192	7	96	48	4
TAP	90	288	3
STR	90	336	2
SCL	90	336	2	96	48	7
TAP	91	48	6
STR	91	96	5
SCL	91	96	5	96	48	2
TAP	91	192	1
STR	91	240	0
SCL	91	240	0	96	48	5
TAP	91	336	5
TAP	91	360	4
TAP	92	0	3
TAP	92	24	2
TAP	92	48	1
TAP	92	72	0
BRK	92	96	3
BRK	92	96	7
HLD	92	192	1	48
TTP	92	192	5	E	0	M1
TTP	92	264	3	B	0	M1
HLD	92	264	6	48
TAP	92	336	0
TTP	92	336	0	C	0	M1
TTP	93	96	3	E	0	M1
HLD	93	96	6	48
HLD	93	168	1	48
TTP	93	168	4	B	0	M1
TTP	93	240	0	C	0	M1
TAP	93	240	7
TAP	94	0	0
TAP	94	0	7
TAP	94	48	1
TAP	94	72	2
TAP	94	96	3
TAP	94	144	6
TAP	94	168	5
TTP	94	192	1	B	0	M1
HLD	94	192	4	48
HLD	94	264	3	48
TTP	94	264	7	E	0	M1
TTP	94	336	0	E	0	M1
TAP	94	336	5
HLD	95	96	3	48
TTP	95	96	6	B	0	M1
TTP	95	168	1	E	0	M1
HLD	95	168	4	48
TTP	95	240	0	E	0	M1
TAP	95	240	2
TAP	96	0	3
TAP	96	0	6
TAP	96	48	3
TAP	96	48	6
TAP	96	96	5
TAP	96	120	4
TAP	96	144	2
TAP	96	168	1
HLD	96	192	0	48
TTP	96	192	5	B	0	M1
TTP	96	192	5	E	0	M1
TTP	96	264	3	B	0	M1
TTP	96	264	3	E	0	M1
HLD	96	264	6	48
TAP	96	336	0
TTP	96	336	0	C	0	M1
TAP	97	0	0
TTP	97	96	2	B	0	M1
TTP	97	96	3	E	0	M1
HLD	97	96	6	48
HLD	97	168	1	48
TTP	97	168	4	B	0	M1
TTP	97	168	5	E	0	M1
TTP	97	240	0	C	0	M1
TAP	97	240	7
TAP	97	288	7
TTP	98	0	3	E	0	M1
HLD	98	0	6	48
TTP	98	72	2	E	0	M1
HLD	98	72	5	48
TAP	98	144	0
TAP	98	168	1
HLD	98	192	2	48
TTP	98	192	7	E	0	M1
HLD	98	264	1	48
TTP	98	264	6	E	0	M1
TAP	98	336	0
TTP	98	336	4	B	0	M1
TAP	99	0	0
TTP	99	0	4	E	0	M1
TAP	99	48	0
TTP	99	48	3	B	0	M1
TTP	99	96	1	E	0	M1
HLD	99	96	5	48
TTP	99	168	2	E	0	M1
HLD	99	168	6	48
TTP	99	240	3	B	0	M1
TAP	99	240	7
TTP	99	288	4	E	0	M1
TAP	99	288	7
TTP	99	336	4	B	0	M1
TAP	99	336	7
TAP	100	0	1
TAP	100	0	6
TAP	100	48	2
TAP	100	48	5
TAP	100	96	0
TTP	100	96	0	C	1	M1
BST	100	192	1
SI_	100	192	1	96	48	6
TAP	100	240	1
BST	100	288	2
SI_	100	288	2	96	48	5
TAP	100	336	2
BST	101	0	3
SI_	101	0	3	96	48	0
TAP	101	48	3
BST	101	96	4
SI_	101	96	4	96	48	7
TAP	101	144	4
BST	101	192	5
SI_	101	192	5	96	48	2
TAP	101	240	5
BST	101	288	6
SI_	101	288	6	96	48	1
TAP	101	336	6
BST	102	0	0
SI_	102	0	0	96	48	4
TAP	102	48	0
BST	102	96	7
SI_	102	96	7	96	48	3
TAP	102	144	7
BST	102	192	2
SI_	102	192	2	96	48	7
TAP	102	240	2
BST	102	288	1
SI_	102	288	1	96	48	4
TAP	102	336	1
BST	103	0	3
SI_	103	0	3	96	48	6
TAP	103	48	3
BST	103	96	4
SI_	103	96	4	96	48	1
TAP	103	144	4
BST	103	192	5
SI_	103	192	5	96	48	0
TAP	103	240	5
BST	103	288	6
SI_	103	288	6	96	48	3
TAP	103	336	6
BRK	104	0	7
TAP	104	48	7
BRK	104	96	0
BRK	104	96	6
TAP	104	144	0
TAP	104	144	6
TAP	104	192	1
TAP	104	216	2
TAP	104	240	3
TAP	104	264	4
TAP	104	288	2
TAP	104	312	3
TAP	104	336	4
TAP	104	360	5
BRK	105	0	3
TAP	105	0	6
TAP	105	24	7
TAP	105	48	0
TAP	105	72	1
TAP	105	96	2
TAP	105	96	6
TAP	105	120	5
TAP	105	144	4
TAP	105	168	3
TAP	105	192	5
TAP	105	216	4
TAP	105	240	3
TAP	105	264	2
TAP	105	288	1
BRK	105	288	4
TAP	105	312	0
TAP	105	336	7
TAP	105	360	6
TAP	106	0	1
TAP	106	0	5
TAP	106	24	2
TAP	106	48	3
TAP	106	72	4
TAP	106	96	2
TAP	106	120	3
TAP	106	144	4
HLD	106	168	5	104
TAP	106	192	0
TAP	106	208	1
TAP	106	224	2
TAP	106	240	3
TAP	106	256	4
TAP	106	288	6
TAP	106	304	7
TAP	106	320	0
TAP	106	336	1
TAP	106	352	2
TAP	106	368	3
TAP	107	0	6
TAP	107	16	5
TAP	107	32	4
TAP	107	48	3
TAP	107	64	2
TAP	107	80	1
TAP	107	96	0
TAP	107	112	7
TAP	107	128	6
TAP	107	144	5
TAP	107	160	4
TAP	107	176	3
TAP	107	192	0
TAP	107	216	2
TAP	107	240	0
TAP	107	264	2
TAP	107	288	0
TAP	107	312	2
TAP	107	336	0
TAP	107	360	2
BRK	108	0	1
TAP	108	0	3
BRK	108	16	2
TAP	108	16	4
BRK	108	32	3
TAP	108	32	5
BRK	108	48	4
TAP	108	48	6
BRK	108	64	5
TAP	108	64	7
BRK	108	80	6
BRK	108	96	7
BRK	108	112	0
BRK	108	128	1
BRK	108	144	2
BRK	108	160	3
TAP	108	176	6
TAP	108	192	5
TAP	108	208	6
TAP	108	224	5
TAP	108	240	6
TAP	108	256	5
TAP	108	272	6
STR	108	288	5
SI_	108	288	5	96	6	0
TAP	108	304	6
TAP	108	320	5
TAP	108	336	6
TAP	108	352	5
TAP	108	368	6
BST	109	0	5
SSR	109	0	5	384	12	1
TAP	109	174	5
TAP	109	180	4
TAP	109	186	3
TAP	109	192	2
TAP	109	198	2
TAP	109	204	2
TAP	109	210	2
TAP	109	216	2
TAP	109	222	2
TAP	109	228	2
TAP	109	234	2
TAP	109	240	0
TAP	109	246	0
TAP	109	252	0
TAP	109	258	0
TAP	109	264	0
TAP	109	270	0
TAP	109	276	0
TAP	109	282	0
TAP	109	288	6
TAP	109	294	6
TAP	109	300	6
TAP	109	306	6
TAP	109	312	6
TAP	109	318	6
TAP	109	324	6
TAP	109	330	6
HLD	109	336	4	3
HLD	109	342	4	3
HLD	109	348	4	3
HLD	109	354	4	3
HLD	109	360	4	3
HLD	109	366	4	3
HLD	109	372	4	3
HLD	109	378	4	3
HLD	110	0	5	6

T_REC_TAP	505
T_REC_BRK	57
T_REC_XTP	0
T_REC_HLD	95
T_REC_XHO	0
T_REC_STR	95
T_REC_BST	16
T_REC_XST	0
T_REC_TTP	80
T_REC_THO	5
T_REC_SLD	120
T_REC_ALL	973
T_NUM_TAP	680
T_NUM_BRK	73
T_NUM_HLD	100
T_NUM_SLD	120
T_NUM_ALL	973
T_JUDGE_TAP	753
T_JUDGE_HLD	187
T_JUDGE_SLD	120
T_JUDGE_ALL	1060
TTM_EACHPAIRS	97
TTM_SCR_TAP	340000
TTM_SCR_BRK	189800
TTM_SCR_HLD	100000
TTM_SCR_SLD	180000
TTM_SCR_ALL	809800
TTM_SCR_S	778450
TTM_SCR_SS	802500
TTM_RAT_ACV	10090

