VERSION	0.00.00	1.03.00
FES_MODE	0
BPM_DEF	199.000	199.000	199.000	 99.500
MET_DEF	4	4
RESOLUTION	384
CLK_DEF	384
COMPATIBLE_CODE	MA2

BPM	0	0	199.000
BPM	17	192	 99.500
BPM	21	192	132.667
BPM	25	192	199.000
MET	0	0	4	4
MET	13	0	4	3
MET	15	96	4	4
MET	16	96	4	5
MET	17	192	4	4
MET	108	192	4	2
MET	109	0	4	4

STR	5	0	0
SCR	5	0	0	96	288	3
STR	7	0	0
SCR	7	0	0	96	384	4
STR	9	0	0
SCR	9	0	0	96	480	5
STR	11	0	0
SCR	11	0	0	96	576	6
STR	13	0	0
SCR	13	0	0	96	672	7
STR	15	96	0
SCR	15	96	0	96	288	3
STR	16	288	7
SI_	16	288	7	96	48	3
HLD	17	0	2	288
HLD	17	192	4	288
TAP	17	336	2
TAP	17	360	2
HLD	18	0	1	288
TAP	18	144	5
TAP	18	168	5
HLD	18	192	6	192
TAP	18	336	2
TAP	18	360	2
HLD	19	0	3	24
HLD	19	24	5	24
HLD	19	48	2	24
HLD	19	72	4	24
HLD	19	96	1	24
HLD	19	120	3	168
HLD	19	192	0	288
TAP	19	336	3
TAP	19	360	3
HLD	20	0	2	288
TAP	20	144	0
TAP	20	168	0
HLD	20	192	7	288
TAP	20	336	2
TAP	20	360	2
HLD	21	0	1	384
TAP	21	144	7
TAP	21	168	7
HLD	21	192	6	288
BRK	22	96	0
TAP	22	160	5
HLD	22	192	3	96
TAP	22	224	4
TAP	22	288	0
TAP	22	352	2
HLD	23	0	4	96
TAP	23	32	3
TAP	23	96	0
TAP	23	128	1
TAP	23	160	2
HLD	23	192	3	96
TAP	23	224	4
TAP	23	288	0
TAP	23	352	2
HLD	24	0	4	96
TAP	24	32	3
TAP	24	96	7
TAP	24	160	5
HLD	24	192	3	96
TAP	24	224	4
TAP	24	288	0
TAP	24	352	2
HLD	25	0	4	96
TAP	25	96	0
TAP	25	128	0
TAP	25	160	0
STR	25	192	7
SI_	25	192	7	96	48	3
TAP	25	240	7
HLD	25	288	2	192
BRK	26	96	4
STR	26	192	5
SCL	26	192	5	96	48	2
TAP	26	288	1
HLD	26	336	1	96
TAP	27	48	3
STR	27	96	3
SI_	27	96	3	96	48	7
STR	27	192	2
SI_	27	192	2	96	48	5
STR	27	288	6
SI_	27	288	6	96	48	1
STR	28	0	0
SI_	28	0	0	96	48	4
TAP	28	96	5
HLD	28	192	6	96
TAP	28	288	4
TAP	28	336	4
HLD	29	48	1	96
TAP	29	144	3
STR	29	192	3
SI_	29	192	3	96	48	6
STR	29	288	0
SI_	29	288	0	96	48	4
HLD	30	0	7	96
TAP	30	96	3
STR	30	192	2
SCR	30	192	2	96	48	5
TAP	30	288	6
HLD	30	336	6	96
TAP	31	48	4
STR	31	96	4
SI_	31	96	4	96	48	0
STR	31	192	5
SI_	31	192	5	96	48	2
STR	31	288	1
SI_	31	288	1	96	48	6
STR	32	0	7
SI_	32	0	7	96	48	3
TAP	32	96	2
HLD	32	192	1	96
TAP	32	288	3
TAP	32	336	3
HLD	33	48	6	96
TAP	33	144	4
STR	33	192	4
SI_	33	192	4	96	48	1
STR	33	288	7
SI_	33	288	7	96	48	3
TAP	34	0	0
HLD	34	96	0	96
THO	34	192	0	768	C	0	M1
TAP	37	192	0
TAP	37	192	7
TAP	37	256	1
TAP	37	256	3
TAP	37	320	4
TAP	37	320	6
TAP	38	0	0
TAP	38	0	7
TAP	38	64	1
TAP	38	64	3
TAP	38	128	4
TAP	38	128	6
STR	38	192	0
SI_	38	192	0	96	48	4
TAP	38	192	7
STR	38	288	5
SCR	38	288	5	96	48	0
TAP	39	0	3
TAP	39	96	4
TAP	39	144	4
STR	39	192	7
SI_	39	192	7	96	48	3
STR	39	288	2
SCL	39	288	2	96	48	7
TAP	40	0	4
TAP	40	96	3
TAP	40	144	3
STR	40	192	0
SI_	40	192	0	96	48	4
STR	40	288	5
SCR	40	288	5	96	48	0
TAP	41	0	3
TAP	41	96	4
TAP	41	144	4
TAP	41	192	3
TAP	41	192	5
TAP	41	240	3
TAP	41	240	5
TAP	41	288	2
TAP	41	288	6
TAP	41	336	2
TAP	41	336	6
BRK	42	0	2
BRK	42	0	6
TAP	42	192	5
TAP	42	264	4
TAP	42	264	6
TAP	42	336	4
TAP	42	336	6
TTP	43	0	4	E	0	M1
TTP	43	24	3	B	0	M1
TTP	43	48	2	B	0	M1
TTP	43	72	1	B	0	M1
TTP	43	96	1	E	0	M1
TAP	43	96	5
TAP	43	168	4
TAP	43	168	6
TAP	43	240	4
TAP	43	240	6
TTP	43	288	4	E	0	M1
TTP	43	312	3	B	0	M1
TTP	43	336	2	B	0	M1
TTP	43	360	1	B	0	M1
TTP	44	0	1	E	0	M1
STR	44	0	5
SLR	44	0	5	96	96	1
TAP	44	48	5
TAP	44	192	2
TAP	44	264	1
TAP	44	264	3
TAP	44	336	1
TAP	44	336	3
TTP	45	0	4	E	0	M1
TTP	45	24	4	B	0	M1
TTP	45	48	5	B	0	M1
TTP	45	72	6	B	0	M1
TAP	45	96	2
TTP	45	96	7	E	0	M1
TAP	45	168	1
TAP	45	168	3
TAP	45	240	1
TAP	45	240	3
TTP	45	288	4	E	0	M1
TTP	45	312	4	B	0	M1
TTP	45	336	5	B	0	M1
TTP	45	360	6	B	0	M1
XTP	46	0	0
TTP	46	0	7	E	0	M1
XTP	46	32	1
XTP	46	64	2
XTP	46	96	3
XTP	46	128	4
XTP	46	160	5
XTP	46	192	5
TAP	46	264	4
TAP	46	264	6
TAP	46	336	4
TAP	46	336	6
TTP	47	0	4	E	0	M1
TTP	47	24	3	B	0	M1
TTP	47	48	2	B	0	M1
TTP	47	72	1	B	0	M1
TTP	47	96	1	E	0	M1
TAP	47	96	5
TAP	47	168	4
TAP	47	168	6
TAP	47	240	4
TAP	47	240	6
TTP	47	288	4	E	0	M1
TTP	47	312	3	B	0	M1
TTP	47	336	2	B	0	M1
TTP	47	360	1	B	0	M1
TTP	48	0	1	E	0	M1
TAP	48	0	5
TAP	48	48	5
TAP	48	96	6
TAP	48	144	6
TAP	48	192	7
TAP	48	240	7
TAP	48	288	0
TAP	48	336	0
TAP	49	0	1
TAP	49	48	1
TAP	49	96	2
TAP	49	144	2
TAP	49	192	3
TAP	49	240	3
TAP	49	288	4
TAP	49	336	4
STR	50	0	5
SLR	50	0	5	96	96	1
STR	50	96	1
SCL	50	96	1	96	2496	1
TTP	52	192	0	E	0	M1
TTP	54	192	0	E	0	M1
TTP	56	192	0	E	0	M1
TAP	58	0	3
TAP	58	0	4
TAP	58	192	5
TAP	58	240	4
TAP	58	288	3
TAP	58	336	2
HLD	59	0	2	96
TAP	59	96	3
TAP	59	144	3
TAP	59	240	4
TAP	59	288	4
HLD	60	0	5	96
TAP	60	96	3
TAP	60	192	5
TAP	60	240	4
TAP	60	288	3
TAP	60	336	2
HLD	61	0	2	96
TAP	61	0	4
TAP	61	96	3
TAP	61	144	3
TAP	61	240	4
TAP	61	288	4
HLD	62	0	5	96
TAP	62	96	3
TAP	62	192	5
TAP	62	240	4
TAP	62	288	3
TAP	62	336	2
HLD	63	0	2	96
TAP	63	0	4
TAP	63	96	3
TAP	63	144	3
TAP	63	240	4
TAP	63	288	3
TAP	63	288	4
HLD	64	0	5	96
TAP	64	96	3
TAP	64	192	5
TAP	64	240	4
TAP	64	288	3
TAP	64	336	2
HLD	65	0	2	96
TAP	65	0	4
TAP	65	96	3
TAP	65	144	3
TAP	65	240	4
TAP	65	288	3
TAP	65	288	5
TAP	65	336	2
TAP	66	0	1
TAP	66	0	4
TAP	66	96	3
TAP	66	96	6
STR	66	192	7
SCL	66	192	7	96	384	3
TTP	67	192	0	E	0	M1
STR	68	192	7
SCL	68	192	7	96	480	2
TTP	69	192	0	C	0	M1
STR	70	192	7
SCL	70	192	7	96	576	1
TTP	71	192	4	E	0	M1
STR	72	192	0
SLR	72	192	0	96	48	4
STR	72	192	1
SV_	72	192	1	96	48	4
TAP	72	240	0
TAP	72	240	1
STR	73	0	6
SV_	73	0	6	96	48	3
STR	73	0	7
SLL	73	0	7	96	48	3
TAP	73	48	6
TAP	73	48	7
STR	73	192	0
SLR	73	192	0	96	48	4
STR	73	192	1
SV_	73	192	1	96	48	4
TAP	73	240	0
TAP	73	240	1
STR	74	0	6
SV_	74	0	6	96	48	3
STR	74	0	7
SLL	74	0	7	96	48	3
TAP	74	48	6
TAP	74	48	7
TAP	74	192	0
TAP	74	216	1
TAP	74	240	2
TAP	74	264	3
TAP	74	288	4
TAP	74	312	5
TAP	74	336	6
TAP	74	360	7
TAP	75	0	0
TAP	75	24	1
TAP	75	48	2
TAP	75	72	3
TAP	75	96	4
TAP	75	120	5
TAP	75	144	6
TAP	75	168	7
BRK	75	192	0
TAP	76	0	3
TAP	76	0	4
STR	76	96	2
SI_	76	96	2	96	48	5
TAP	76	96	5
STR	76	192	6
SI_	76	192	6	96	48	1
TAP	76	288	3
TAP	77	0	2
TAP	77	48	2
TAP	77	72	3
TAP	77	96	4
TAP	77	144	4
TAP	77	192	3
TAP	77	192	5
TAP	77	240	6
TAP	77	288	0
TAP	77	288	7
TAP	77	336	1
TAP	78	0	2
TAP	78	0	3
TAP	78	48	4
STR	78	96	5
SI_	78	96	5	96	48	2
TAP	78	144	2
STR	78	192	1
SI_	78	192	1	96	48	6
TAP	78	288	4
TAP	79	0	5
TAP	79	48	5
TAP	79	72	4
TAP	79	96	3
TAP	79	144	3
TAP	79	192	2
TAP	79	192	4
TAP	79	240	1
TAP	79	288	0
TAP	79	288	7
TAP	79	336	6
TAP	80	0	4
TAP	80	0	5
TAP	80	48	3
HLD	80	96	2	96
TAP	80	192	3
TAP	80	216	2
TAP	80	240	3
TAP	80	264	2
TAP	80	288	3
TAP	80	336	5
TAP	80	360	4
TAP	81	0	5
TAP	81	24	4
TAP	81	48	5
STR	81	96	2
SCL	81	96	2	96	48	7
TAP	81	144	2
STR	81	192	4
SI_	81	192	4	96	48	6
TAP	81	240	4
STR	81	288	1
SI_	81	288	1	96	48	3
TAP	81	336	1
TAP	82	0	7
TAP	82	48	7
TAP	82	96	0
TAP	82	144	6
TAP	82	192	1
TAP	82	192	5
TAP	82	240	2
TAP	82	288	3
TAP	82	336	4
TAP	83	0	3
TAP	83	0	5
TAP	83	48	2
TAP	83	96	1
TAP	83	96	3
TAP	83	144	4
TAP	83	192	3
TAP	83	192	5
TAP	83	240	6
STR	83	288	7
SI_	83	288	7	96	48	4
TAP	83	336	0
HLD	84	0	1	96
STR	84	96	3
SI_	84	96	3	96	48	6
STR	84	192	0
SI_	84	192	0	96	48	3
TAP	84	288	4
TAP	85	0	5
TAP	85	48	5
TAP	85	72	4
TAP	85	96	3
TAP	85	144	3
TAP	85	192	2
TAP	85	192	4
TAP	85	240	1
TAP	85	288	0
TAP	85	288	7
TAP	85	336	6
TAP	86	0	4
TAP	86	0	5
TAP	86	48	3
STR	86	96	2
SI_	86	96	2	96	48	5
TAP	86	144	5
STR	86	192	6
SI_	86	192	6	96	48	1
TAP	86	288	3
TAP	87	0	2
TAP	87	48	2
TAP	87	72	3
TAP	87	96	4
TAP	87	144	4
BRK	87	192	4
BRK	87	192	5
BRK	87	256	1
BRK	87	256	3
BRK	87	320	0
BRK	87	320	6
BRK	88	0	2
BRK	88	0	3
BRK	88	64	4
BRK	88	64	6
BRK	88	128	1
BRK	88	128	7
TAP	88	192	6
TAP	88	240	6
TAP	88	288	4
TAP	88	336	3
TAP	89	0	3
TAP	89	24	4
TAP	89	48	5
TAP	89	72	6
TAP	89	96	7
TAP	89	144	7
TAP	89	192	1
TAP	89	240	1
TAP	89	288	3
TAP	89	336	4
TAP	90	0	4
TAP	90	48	2
TAP	90	96	0
TAP	90	144	0
STR	90	192	7
SI_	90	192	7	96	48	3
TAP	90	240	7
TAP	90	288	1
STR	90	336	0
SI_	90	336	0	96	48	4
TAP	91	0	0
TAP	91	48	6
STR	91	96	7
SI_	91	96	7	96	48	3
TAP	91	144	7
TAP	91	192	1
STR	91	240	0
SI_	91	240	0	96	48	4
TAP	91	288	0
TAP	91	336	6
TAP	92	0	7
TAP	92	48	7
TAP	92	96	0
HLD	92	144	0	240
TTP	92	192	4	B	0	M1
TTP	92	192	4	E	0	M1
TTP	92	264	2	B	0	M1
TTP	92	264	3	B	0	M1
TTP	92	336	5	B	0	M1
TTP	92	336	6	E	0	M1
HLD	93	0	7	288
TTP	93	96	3	B	0	M1
TTP	93	96	4	E	0	M1
TTP	93	168	4	B	0	M1
TTP	93	168	5	B	0	M1
TTP	93	240	2	B	0	M1
TTP	93	240	2	E	0	M1
HLD	93	288	0	96
XTP	94	0	3
XTP	94	72	5
HLD	94	144	6	240
TTP	94	192	3	B	0	M1
TTP	94	192	4	E	0	M1
TTP	94	264	4	B	0	M1
TTP	94	264	5	B	0	M1
TTP	94	336	2	B	0	M1
TTP	94	336	2	E	0	M1
HLD	95	0	0	288
TTP	95	96	4	B	0	M1
TTP	95	96	4	E	0	M1
TTP	95	168	2	B	0	M1
TTP	95	168	3	B	0	M1
TTP	95	240	5	B	0	M1
TTP	95	240	6	E	0	M1
HLD	95	288	7	96
XTP	96	0	4
XTP	96	72	2
HLD	96	144	1	240
TTP	96	192	4	B	0	M1
TTP	96	192	4	E	0	M1
TTP	96	264	2	B	0	M1
TTP	96	264	3	B	0	M1
TTP	96	336	5	B	0	M1
TTP	96	336	6	E	0	M1
HLD	97	0	7	288
TTP	97	96	3	B	0	M1
TTP	97	96	4	E	0	M1
TTP	97	168	4	B	0	M1
TTP	97	168	5	B	0	M1
TTP	97	240	2	B	0	M1
TTP	97	240	2	E	0	M1
HLD	97	288	0	96
XTP	98	0	3
XTP	98	72	5
HLD	98	144	7	240
TTP	98	192	3	B	0	M1
TTP	98	192	4	E	0	M1
TTP	98	264	4	B	0	M1
TTP	98	264	5	B	0	M1
TTP	98	336	2	B	0	M1
TTP	98	336	2	E	0	M1
HLD	99	0	0	288
TTP	99	96	4	B	0	M1
TTP	99	96	4	E	0	M1
TTP	99	168	2	B	0	M1
TTP	99	168	3	B	0	M1
TTP	99	240	5	B	0	M1
TTP	99	240	6	E	0	M1
HLD	99	288	7	96
XTP	100	0	4
XTP	100	48	4
XTP	100	96	3
XTP	100	96	5
STR	100	192	6
SI_	100	192	6	96	48	2
TAP	100	240	6
STR	100	288	7
SI_	100	288	7	96	48	4
TAP	100	336	7
STR	101	0	0
SI_	101	0	0	96	48	3
TAP	101	48	0
STR	101	96	1
SI_	101	96	1	96	48	5
TAP	101	144	1
STR	101	192	4
SI_	101	192	4	96	48	7
TAP	101	240	4
TAP	101	288	3
TAP	101	336	3
TAP	102	0	2
TAP	102	48	2
TAP	102	72	3
TAP	102	96	4
TAP	102	144	4
STR	102	192	1
SI_	102	192	1	96	48	5
TAP	102	240	1
STR	102	288	0
SI_	102	288	0	96	48	3
TAP	102	336	0
STR	103	0	7
SI_	103	0	7	96	48	4
TAP	103	48	7
STR	103	96	6
SI_	103	96	6	96	48	2
TAP	103	144	6
STR	103	192	3
SI_	103	192	3	96	48	0
TAP	103	240	3
TAP	103	288	5
TAP	103	336	5
TAP	104	0	4
TAP	104	48	4
TAP	104	96	1
TAP	104	96	3
TAP	104	192	1
TAP	104	216	2
TAP	104	240	3
TAP	104	264	1
TAP	104	288	2
TAP	104	312	3
TAP	104	336	1
TAP	104	360	2
TAP	105	0	3
XTP	105	48	0
TAP	105	96	6
TAP	105	120	5
TAP	105	144	4
TAP	105	168	6
TAP	105	192	5
TAP	105	216	4
TAP	105	240	6
TAP	105	264	5
TAP	105	288	4
XTP	105	336	7
TAP	106	0	1
TAP	106	24	2
TAP	106	48	3
TAP	106	72	1
TAP	106	96	2
TAP	106	120	3
TAP	106	144	1
TAP	106	168	2
TAP	106	192	3
TAP	106	216	4
TAP	106	240	5
TAP	106	264	6
TAP	106	288	7
TAP	106	312	0
TAP	106	336	1
TAP	106	360	2
TAP	107	0	3
TAP	107	24	4
TAP	107	48	5
TAP	107	72	6
STR	107	96	7
SCL	107	96	7	96	192	7
SCR	107	96	7	96	192	7
TAP	108	192	0
TAP	108	208	7
TAP	108	224	0
TAP	108	240	7
TAP	108	256	0
TAP	108	272	7
STR	108	288	0
SI_	108	288	0	96	48	4
TAP	108	304	7
TAP	108	320	0
TAP	108	336	7
TAP	108	352	0
TAP	108	368	7
TAP	109	0	0
TAP	111	0	2
TAP	111	24	4
TAP	111	48	2
TAP	111	72	4
TAP	111	96	2
TAP	111	120	4
TAP	111	144	2
TAP	111	168	4
TAP	111	192	3
TAP	111	216	5
TAP	111	240	3
TAP	111	264	5
TAP	111	288	3
TAP	111	312	5
TAP	111	336	3
TAP	111	360	5
TAP	112	0	2
TAP	112	24	4
TAP	112	48	2
TAP	112	72	4
TAP	112	96	2
TAP	112	120	4
TAP	112	144	2
TAP	112	168	4
TAP	112	192	3
TAP	112	216	5
TAP	112	240	3
TAP	112	264	5
STR	112	288	4
SI_	112	288	4	96	48	7
TAP	112	312	5
TAP	112	336	3
TAP	112	360	5
TAP	113	0	4

T_REC_TAP	418
T_REC_BRK	17
T_REC_XTP	19
T_REC_HLD	51
T_REC_XHO	0
T_REC_STR	71
T_REC_BST	0
T_REC_XST	0
T_REC_TTP	84
T_REC_THO	1
T_REC_SLD	72
T_REC_ALL	733
T_NUM_TAP	592
T_NUM_BRK	17
T_NUM_HLD	52
T_NUM_SLD	72
T_NUM_ALL	733
T_JUDGE_TAP	609
T_JUDGE_HLD	224
T_JUDGE_SLD	72
T_JUDGE_ALL	905
TTM_EACHPAIRS	63
TTM_SCR_TAP	296000
TTM_SCR_BRK	44200
TTM_SCR_HLD	52000
TTM_SCR_SLD	108000
TTM_SCR_ALL	500200
TTM_SCR_S	483550
TTM_SCR_SS	498500
TTM_RAT_ACV	10034

