VERSION	0.00.00	1.03.00
FES_MODE	0
BPM_DEF	199.000	199.000	199.000	 99.500
MET_DEF	4	4
RESOLUTION	384
CLK_DEF	384
COMPATIBLE_CODE	MA2

BPM	0	0	199.000
BPM	17	192	 99.500
BPM	21	192	132.667
BPM	25	192	199.000
MET	0	0	4	4
MET	13	0	4	3
MET	15	96	4	4
MET	16	96	4	5
MET	17	192	4	4
MET	108	192	4	2
MET	109	0	4	4

STR	5	0	0
SCR	5	0	0	96	384	5
STR	7	0	7
SCL	7	0	7	96	384	2
STR	9	0	0
SCR	9	0	0	96	384	5
STR	11	0	6
SCL	11	0	6	96	192	3
HLD	12	0	2	384
THO	13	0	0	1248	C	0	L1
XHO	17	192	1	192
HLD	18	0	0	192
HLD	18	192	7	192
TAP	19	0	6
HLD	19	192	5	192
HLD	20	0	4	192
HLD	20	192	3	192
TAP	21	0	2
STR	21	192	1
SLR	21	192	1	96	192	5
TTP	22	192	7	E	0	L1
TTP	23	0	6	E	0	L1
TTP	23	192	5	E	0	L1
TTP	24	0	4	E	0	L1
TTP	24	192	3	E	0	L1
TTP	25	0	2	E	0	L1
TTP	25	192	0	C	1	L1
TAP	26	192	6
TAP	26	288	6
TAP	27	0	6
TAP	27	0	7
TAP	27	192	1
TAP	27	288	1
TAP	28	0	0
TAP	28	0	1
TAP	28	192	6
TAP	28	288	6
TAP	29	0	7
TAP	29	96	7
TAP	29	192	0
TAP	29	288	0
TAP	30	0	1
TAP	30	0	7
TAP	30	192	2
TAP	30	288	2
TAP	31	0	2
TAP	31	0	3
TAP	31	192	5
TAP	31	288	5
TAP	32	0	4
TAP	32	0	5
TAP	32	192	2
TAP	32	288	2
TAP	33	0	3
TAP	33	96	3
TAP	33	192	4
TAP	33	288	4
TAP	34	0	3
TAP	34	0	5
STR	34	192	6
SXL	34	192	6	96	480	3
STR	36	192	2
SCL	36	192	2	96	192	7
XTP	37	192	6
XTP	37	288	6
XTP	38	0	0
XTP	38	0	7
TAP	38	192	1
TAP	38	288	1
TAP	39	0	0
TAP	39	0	1
TAP	39	192	6
TAP	39	288	6
TAP	40	0	6
TAP	40	0	7
TAP	40	192	5
TAP	40	288	5
TAP	41	0	4
TAP	41	96	4
TAP	41	192	3
TAP	41	288	3
TAP	41	288	4
TAP	42	0	2
TAP	42	0	5
STR	42	192	1
SI_	42	192	1	96	96	3
STR	43	96	4
SI_	43	96	4	96	96	6
TAP	44	0	0
TAP	44	0	7
STR	44	192	6
SI_	44	192	6	96	96	4
STR	45	96	3
SI_	45	96	3	96	96	1
TAP	46	0	0
TAP	46	0	7
TAP	46	96	0
TAP	46	96	7
STR	46	192	1
SI_	46	192	1	96	96	3
STR	47	96	4
SI_	47	96	4	96	96	6
TAP	48	0	0
TAP	48	0	7
TAP	48	96	0
TAP	48	96	7
TAP	48	192	1
TAP	48	192	6
TAP	48	288	1
TAP	48	288	6
TAP	49	0	2
TAP	49	0	5
TAP	49	96	3
TAP	49	96	4
BST	49	144	3
SCL	49	144	3	96	192	0
BST	49	144	4
SCR	49	144	4	96	192	7
TTP	50	192	0	C	1	L1
STR	52	192	6
SXL	52	192	6	96	480	3
STR	54	192	2
SXL	54	192	2	96	480	7
STR	56	192	6
SXL	56	192	6	96	480	3
HLD	58	192	2	192
TAP	59	0	3
HLD	59	192	5	192
TAP	60	0	4
HLD	60	192	2	192
TAP	61	0	3
HLD	61	192	4	96
HLD	61	192	5	96
TAP	62	0	4
TAP	62	0	5
TAP	62	192	6
TAP	62	288	6
TAP	63	0	7
TAP	63	192	1
TAP	63	288	1
TAP	64	0	0
TAP	64	192	6
TAP	64	288	6
TAP	65	0	7
TAP	65	96	7
TAP	65	192	0
TAP	65	288	0
TAP	66	0	1
TAP	66	0	7
STR	66	192	6
SXR	66	192	6	96	480	3
STR	68	192	2
SXR	68	192	2	96	480	7
STR	70	192	6
SCL	70	192	6	96	192	3
TAP	71	192	2
TAP	72	0	3
TAP	72	0	4
TAP	72	192	3
TAP	72	240	3
TAP	73	0	4
TAP	73	48	4
TAP	73	192	2
TAP	73	192	3
TAP	73	240	2
TAP	73	240	3
TAP	74	0	4
TAP	74	0	5
TAP	74	48	4
TAP	74	48	5
TAP	74	192	6
TAP	74	240	6
TAP	74	288	6
TAP	75	0	0
TAP	75	48	0
TAP	75	96	0
BRK	75	192	1
BRK	75	192	6
TAP	76	192	5
TAP	76	288	4
TAP	76	288	5
TAP	77	0	6
TAP	77	48	6
TAP	77	96	6
TAP	77	192	7
TAP	77	288	0
TAP	77	288	7
TAP	78	0	1
TAP	78	48	1
TAP	78	96	1
TAP	78	192	2
TAP	78	288	2
TAP	78	288	3
TAP	79	0	4
TAP	79	48	4
TAP	79	96	4
TAP	79	192	5
TAP	79	288	4
TAP	79	288	5
TAP	80	0	3
TAP	80	0	6
TAP	80	192	2
TAP	80	240	2
TAP	80	288	2
TAP	81	0	1
TAP	81	0	3
TAP	81	96	2
TAP	81	96	4
TAP	81	192	5
TAP	81	240	5
TAP	81	288	5
TAP	82	0	4
TAP	82	0	6
TAP	82	96	3
TAP	82	96	5
TAP	82	192	2
TAP	82	240	2
TAP	82	288	2
TAP	83	0	4
TAP	83	48	4
TAP	83	96	4
TAP	83	192	3
TAP	83	288	2
TAP	83	288	4
BRK	84	0	1
BRK	84	0	5
TAP	84	192	2
TAP	84	288	2
TAP	84	288	3
TAP	85	0	1
TAP	85	48	1
TAP	85	96	1
TAP	85	192	0
TAP	85	288	0
TAP	85	288	7
TAP	86	0	6
TAP	86	48	6
TAP	86	96	6
TAP	86	192	5
TAP	86	288	4
TAP	86	288	5
TAP	87	0	3
TAP	87	0	6
TAP	87	96	2
TAP	87	96	7
XST	87	192	0
SI_	87	192	0	96	192	4
XST	87	192	1
SI_	87	192	1	96	192	4
TAP	88	192	5
TAP	88	240	5
TAP	88	288	5
TAP	89	0	4
TAP	89	0	6
TAP	89	96	3
TAP	89	96	5
TAP	89	192	2
TAP	89	240	2
TAP	89	288	2
TAP	90	0	1
TAP	90	0	3
TAP	90	96	2
TAP	90	96	4
TAP	90	192	3
TAP	90	240	3
TAP	90	288	3
TAP	91	0	5
TAP	91	48	5
TAP	91	96	5
TAP	91	192	4
TAP	91	288	3
TAP	91	288	4
BRK	92	0	2
BRK	92	0	5
XHO	92	192	3	72
XHO	92	192	5	72
XTP	92	336	3
XTP	92	336	5
XHO	93	96	2	72
XHO	93	96	4	72
XTP	93	240	2
XTP	93	240	4
TAP	94	0	3
TAP	94	0	5
TAP	94	96	3
TAP	94	96	5
HLD	94	192	4	72
HLD	94	192	6	72
TAP	94	336	4
TAP	94	336	6
HLD	95	96	1	72
HLD	95	96	3	72
TAP	95	240	1
TAP	95	240	3
TAP	96	0	0
TAP	96	96	7
HLD	96	192	0	72
HLD	96	192	6	72
TAP	96	336	0
TAP	96	336	6
HLD	97	96	1	72
HLD	97	96	7	72
TAP	97	240	1
TAP	97	240	7
TAP	98	0	0
TAP	98	0	6
TAP	98	96	0
TAP	98	96	6
HLD	98	192	1	72
HLD	98	192	5	72
TAP	98	336	1
TAP	98	336	5
HLD	99	96	2	72
HLD	99	96	6	72
TAP	99	240	2
TAP	99	240	6
TAP	100	0	7
TAP	100	96	0
TAP	100	192	1
TAP	100	288	1
TAP	101	0	0
TAP	101	0	1
TAP	101	96	0
TAP	101	96	1
TAP	101	192	2
TAP	101	288	3
TAP	102	0	4
TAP	102	96	5
TAP	102	192	6
TAP	102	288	6
TAP	103	0	6
TAP	103	0	7
TAP	103	96	6
TAP	103	96	7
TAP	103	192	5
TAP	103	288	4
TAP	104	0	3
TAP	104	96	2
TAP	104	192	0
TAP	104	192	1
TAP	104	240	0
TAP	104	240	1
TAP	104	288	0
TAP	104	288	1
TAP	105	0	2
TAP	105	0	3
TAP	105	96	4
TAP	105	96	5
TAP	105	144	4
TAP	105	144	5
TAP	105	192	4
TAP	105	192	5
TAP	105	288	6
TAP	105	288	7
TAP	106	0	0
TAP	106	0	1
TAP	106	48	0
TAP	106	48	1
TAP	106	96	0
TAP	106	96	1
TAP	106	192	6
TAP	106	192	7
TAP	106	240	6
TAP	106	240	7
TAP	106	288	6
TAP	106	288	7
TAP	107	0	4
TAP	107	0	5
TAP	107	96	2
TAP	107	96	3
TAP	107	192	1
TAP	107	240	0
TAP	107	288	7
TAP	107	336	6
TAP	108	0	5
TAP	108	48	4
TAP	108	96	3
TAP	108	144	2
XHO	108	192	1	192
BRK	109	0	0
THO	111	0	0	768	C	0	L1

T_REC_TAP	281
T_REC_BRK	7
T_REC_XTP	8
T_REC_HLD	23
T_REC_XHO	6
T_REC_STR	19
T_REC_BST	2
T_REC_XST	2
T_REC_TTP	8
T_REC_THO	2
T_REC_SLD	23
T_REC_ALL	381
T_NUM_TAP	318
T_NUM_BRK	9
T_NUM_HLD	31
T_NUM_SLD	23
T_NUM_ALL	381
T_JUDGE_TAP	327
T_JUDGE_HLD	150
T_JUDGE_SLD	23
T_JUDGE_ALL	500
TTM_EACHPAIRS	93
TTM_SCR_TAP	159000
TTM_SCR_BRK	23400
TTM_SCR_HLD	31000
TTM_SCR_SLD	34500
TTM_SCR_ALL	247900
TTM_SCR_S	239600
TTM_SCR_SS	247000
TTM_RAT_ACV	10036

