VERSION	0.00.00	1.03.00
FES_MODE	0
BPM_DEF	199.000	199.000	199.000	 99.500
MET_DEF	4	4
RESOLUTION	384
CLK_DEF	384
COMPATIBLE_CODE	MA2

BPM	0	0	199.000
BPM	17	192	 99.500
BPM	21	192	132.667
BPM	25	192	199.000
MET	0	0	4	4
MET	13	0	4	3
MET	15	96	4	4
MET	16	96	4	5
MET	17	192	4	4
MET	108	192	4	2
MET	109	0	4	4

XHO	5	0	0	384
XHO	5	0	7	384
TAP	7	0	0
TAP	7	0	7
TAP	8	0	0
TAP	8	0	7
XHO	9	0	1	384
XHO	9	0	6	384
TAP	11	0	1
TAP	11	0	6
TAP	12	0	1
TAP	12	0	6
TTP	13	0	0	E	0	L1
TTP	14	0	0	C	0	L1
TTP	15	0	4	E	0	L1
TTP	16	0	0	C	0	L1
HLD	17	192	0	96
HLD	17	192	1	96
TAP	18	0	0
TAP	18	0	1
TAP	18	96	2
HLD	18	192	2	96
HLD	18	192	3	96
TAP	19	0	2
TAP	19	0	3
HLD	19	192	4	96
HLD	19	192	5	96
TAP	20	0	4
TAP	20	0	5
TAP	20	96	6
HLD	20	192	6	96
HLD	20	192	7	96
TAP	21	0	6
TAP	21	0	7
STR	21	192	0
SI_	21	192	0	96	336	4
STR	23	192	4
SI_	23	192	4	96	336	0
XTP	25	192	1
XTP	25	192	7
TAP	26	192	0
TAP	27	0	0
TAP	27	192	0
TAP	28	0	0
TAP	28	192	1
TAP	29	0	1
TAP	29	192	0
TAP	29	192	1
TAP	30	192	2
TAP	31	0	2
TAP	31	192	2
TAP	32	0	2
TAP	32	192	3
TAP	33	0	3
TAP	33	192	3
TAP	33	192	4
TTP	34	192	4	B	0	L1
TTP	35	192	0	C	0	L1
TTP	36	192	0	B	0	L1
XTP	37	192	7
TAP	38	192	7
TAP	39	0	7
TAP	39	192	0
TAP	39	192	6
TAP	40	0	0
TAP	40	0	6
TAP	40	192	5
TAP	41	0	5
TAP	41	192	4
TAP	41	192	6
STR	42	192	3
SI_	42	192	3	96	288	0
STR	44	192	7
SI_	44	192	7	96	288	4
STR	46	192	3
SI_	46	192	3	96	288	7
STR	48	192	6
SI_	48	192	6	96	288	2
BRK	50	192	0
TTP	52	192	0	B	0	L1
TTP	53	192	0	C	0	L1
TTP	54	192	4	B	0	L1
TTP	55	192	0	C	0	L1
TTP	56	192	0	B	0	L1
TTP	57	192	0	C	0	L1
TTP	58	192	5	B	0	L1
TTP	59	0	4	B	0	L1
TTP	59	192	3	B	0	L1
TTP	60	192	1	B	0	L1
TTP	61	0	2	B	0	L1
TTP	61	192	3	B	0	L1
TTP	62	192	6	B	0	L1
TTP	63	0	5	B	0	L1
TTP	63	192	4	B	0	L1
TTP	64	192	3	B	0	L1
TTP	65	0	0	C	0	L1
TTP	65	192	7	B	0	L1
THO	66	192	0	768	C	0	L1
HLD	70	192	0	384
HLD	70	192	7	384
XTP	72	192	6
TAP	72	288	6
TAP	73	0	6
XTP	73	192	7
TAP	73	288	7
TAP	74	0	7
TAP	74	192	0
TAP	74	288	0
TAP	75	0	0
BRK	75	192	0
BRK	75	192	7
TAP	76	192	0
TAP	76	288	0
TAP	77	0	1
TAP	77	96	1
TAP	77	192	0
TAP	77	192	1
TAP	78	0	2
TAP	78	0	3
TAP	78	192	4
TAP	78	288	4
TAP	79	0	5
TAP	79	96	5
TAP	79	192	4
TAP	79	192	5
TAP	80	0	4
TAP	80	0	5
TAP	80	192	6
TAP	80	288	6
TAP	81	0	6
TAP	81	96	6
TAP	81	192	0
TAP	81	192	7
TAP	82	0	1
TAP	82	0	6
TAP	82	192	0
TAP	82	288	0
TAP	83	0	0
XTP	83	192	0
XTP	83	192	7
TAP	84	192	6
TAP	84	288	6
TAP	85	0	6
TAP	85	0	7
TAP	85	96	6
TAP	85	96	7
TAP	85	192	5
TAP	85	288	5
TAP	86	0	4
TAP	86	0	5
TAP	86	192	3
TAP	86	288	3
TAP	87	0	3
TAP	87	0	4
BRK	87	192	2
BRK	87	192	5
TAP	88	192	6
TAP	88	288	6
TAP	89	0	6
TAP	89	0	7
TAP	89	192	0
TAP	89	288	0
TAP	90	0	0
TAP	90	0	7
TAP	90	192	1
TAP	90	288	1
TAP	91	0	0
TAP	91	0	1
XTP	91	192	7
XTP	91	288	7
XTP	92	0	7
XTP	92	96	7
STR	92	192	7
SI_	92	192	7	96	384	3
STR	94	192	2
SI_	94	192	2	96	384	7
STR	96	192	6
SI_	96	192	6	96	384	2
STR	98	192	1
SI_	98	192	1	96	384	4
TAP	100	192	7
TAP	100	288	7
TAP	101	0	6
TAP	101	96	6
TAP	101	192	5
TAP	101	288	5
TAP	102	0	4
TAP	102	96	4
TAP	102	192	3
TAP	102	288	3
TAP	103	0	2
TAP	103	96	2
TAP	103	192	1
TAP	103	288	1
TAP	104	0	0
TAP	104	0	7
TAP	104	96	0
TAP	104	96	7
TAP	104	192	1
TAP	104	288	1
TAP	105	0	2
TAP	105	96	2
TAP	105	192	3
TAP	105	288	3
TAP	106	0	4
TAP	106	96	4
TAP	106	192	3
TAP	106	192	4
TAP	106	288	3
TAP	106	288	4
TAP	107	0	2
TAP	107	0	5
TAP	107	96	2
TAP	107	96	5
TAP	107	192	1
TAP	107	192	6
TAP	107	288	1
TAP	107	288	6
TAP	108	0	0
TAP	108	0	7
TAP	108	96	0
TAP	108	96	7
TAP	108	192	1
TAP	108	192	6
TAP	108	288	1
TAP	108	288	6
XHO	109	0	2	1152
XHO	109	0	5	1536

T_REC_TAP	150
T_REC_BRK	5
T_REC_XTP	11
T_REC_HLD	10
T_REC_XHO	6
T_REC_STR	10
T_REC_BST	0
T_REC_XST	0
T_REC_TTP	25
T_REC_THO	1
T_REC_SLD	10
T_REC_ALL	228
T_NUM_TAP	196
T_NUM_BRK	5
T_NUM_HLD	17
T_NUM_SLD	10
T_NUM_ALL	228
T_JUDGE_TAP	201
T_JUDGE_HLD	152
T_JUDGE_SLD	10
T_JUDGE_ALL	363
TTM_EACHPAIRS	50
TTM_SCR_TAP	98000
TTM_SCR_BRK	13000
TTM_SCR_HLD	17000
TTM_SCR_SLD	15000
TTM_SCR_ALL	143000
TTM_SCR_S	138250
TTM_SCR_SS	142500
TTM_RAT_ACV	10035

