VERSION	0.00.00	1.03.00
FES_MODE	0
BPM_DEF	209.000	209.000	209.000	209.000
MET_DEF	4	4
RESOLUTION	384
CLK_DEF	384
COMPATIBLE_CODE	MA2

BPM	0	0	209.000
MET	0	0	4	4

HLD	1	0	4	192
HLD	1	0	5	192
TAP	1	288	4
TAP	1	288	5
HLD	2	0	2	192
HLD	2	0	3	192
TAP	2	288	2
TAP	2	288	3
HLD	3	0	0	192
HLD	3	0	7	192
TAP	3	288	0
TAP	3	288	7
TAP	4	0	3
HLD	4	0	5	192
TTP	4	96	4	B	0	M1
HLD	4	192	7	192
TTP	4	288	6	B	0	M1
HLD	5	0	1	192
TTP	5	96	0	B	0	M1
HLD	5	192	3	96
TTP	5	288	4	B	0	M1
BST	6	0	2
SI_	6	0	2	96	48	7
BST	6	0	6
SI_	6	0	6	96	48	3
STR	6	192	1
SI_	6	192	1	96	48	4
STR	6	192	5
SI_	6	192	5	96	48	0
STR	7	0	3
SI_	7	0	3	96	48	0
STR	7	0	7
SI_	7	0	7	96	48	4
TAP	7	192	1
TAP	7	216	6
TAP	7	240	1
TAP	7	264	6
TAP	7	288	1
STR	8	0	6
SI_	8	0	6	96	48	3
STR	8	0	7
SI_	8	0	7	96	48	3
STR	8	192	0
SI_	8	192	0	96	48	4
STR	8	192	1
SI_	8	192	1	96	48	4
TAP	9	0	3
TAP	9	0	6
TAP	9	96	2
TAP	9	144	2
TAP	9	192	7
TAP	9	240	7
TAP	9	288	1
TAP	9	312	0
TAP	9	336	1
TAP	9	360	0
STR	10	0	2
SLR	10	0	2	96	144	1
STR	10	0	7
SSR	10	0	7	96	144	3
TAP	11	0	2
TAP	11	24	3
TAP	11	48	2
TAP	11	72	3
TAP	11	96	1
TAP	11	120	4
TAP	11	144	1
TAP	11	168	4
TAP	11	192	0
TAP	11	216	5
TAP	11	240	0
TAP	11	264	5
TAP	11	288	7
TAP	11	312	6
TAP	11	336	7
TAP	11	360	6
BRK	12	0	0
BRK	12	0	5
TAP	12	96	7
TAP	12	144	7
TAP	12	192	6
TAP	12	240	6
TAP	12	288	4
TAP	12	288	5
TAP	13	0	2
TAP	13	0	4
TAP	13	48	3
TAP	13	96	3
TAP	13	144	1
TAP	13	144	4
TAP	13	192	2
TAP	13	240	2
TAP	13	288	1
TAP	13	288	3
TAP	14	0	0
TAP	14	0	2
TAP	14	48	1
TAP	14	96	1
TAP	14	144	2
TAP	14	144	7
TAP	14	192	0
TAP	14	240	0
TAP	14	288	1
TAP	14	288	7
TAP	15	0	5
TAP	15	0	7
TAP	15	48	6
TAP	15	96	6
TAP	15	144	0
TAP	15	144	5
TAP	15	192	7
TAP	15	240	7
TAP	15	288	1
TAP	15	288	6
TAP	16	0	1
TAP	16	0	3
TAP	16	48	2
TAP	16	96	2
TAP	16	144	1
TAP	16	144	3
TAP	16	192	2
TAP	16	240	2
TAP	16	288	1
TAP	16	288	3
TAP	16	336	4
TAP	17	0	3
TAP	17	0	5
TAP	17	48	4
TAP	17	96	4
TAP	17	144	3
TAP	17	144	5
TAP	17	192	4
TAP	17	240	4
TAP	17	288	3
TAP	17	288	5
TAP	17	336	6
TAP	18	0	5
TAP	18	0	7
TAP	18	48	6
TAP	18	96	6
TAP	18	144	5
TAP	18	144	7
TAP	18	192	6
TAP	18	240	6
TAP	18	288	5
TAP	18	288	7
TAP	18	336	0
TAP	19	0	1
TAP	19	0	6
TAP	19	48	0
TAP	19	72	7
TAP	19	96	0
TAP	19	120	7
TAP	19	144	0
TAP	19	168	7
XHO	19	192	0	72
XHO	19	264	1	72
XTP	19	336	2
XTP	20	0	3
XST	20	0	6
SI_	20	0	6	96	48	2
STR	20	96	4
SI_	20	96	4	96	48	0
TAP	20	96	6
TAP	20	192	4
STR	20	192	7
SCL	20	192	7	96	48	4
TAP	20	288	3
TAP	20	288	7
XST	21	0	1
SI_	21	0	1	96	48	5
XTP	21	0	4
TAP	21	96	1
STR	21	96	3
SI_	21	96	3	96	48	7
STR	21	192	0
SCR	21	192	0	96	48	3
TAP	21	192	3
TAP	21	288	0
TAP	21	288	4
XTP	22	0	3
XTP	22	0	6
TAP	22	48	5
TAP	22	96	4
TAP	22	144	3
TAP	22	192	2
TAP	22	192	6
TAP	22	240	5
STR	22	288	4
SI_	22	288	4	96	48	0
TAP	22	336	3
STR	23	0	2
SI_	23	0	2	96	48	6
TAP	23	0	4
TAP	23	96	2
STR	23	96	5
SI_	23	96	5	96	48	1
TAP	23	192	5
STR	23	192	7
SF_	23	192	7	96	48	3
TAP	23	288	7
XTP	24	0	2
XTP	24	0	3
TAP	24	24	1
TAP	24	48	0
TAP	24	72	7
TAP	24	96	3
TAP	24	120	4
TAP	24	144	5
TAP	24	168	6
TAP	24	192	2
TAP	24	216	1
TAP	24	240	0
TAP	24	264	7
TAP	24	288	3
TAP	24	312	4
TAP	24	336	5
TAP	24	360	6
STR	25	0	2
SI_	25	0	2	96	48	7
TAP	25	96	2
TAP	25	96	7
TAP	25	192	0
TAP	25	216	6
TAP	25	240	0
TAP	25	264	6
TAP	25	288	1
TAP	25	288	5
XST	26	0	2
SI_	26	0	2	96	48	6
XTP	26	0	3
TAP	26	48	4
TAP	26	96	2
TAP	26	96	4
TAP	26	144	4
TAP	26	192	4
XST	26	192	6
SI_	26	192	6	96	48	2
TAP	26	240	4
TAP	26	288	4
TAP	26	288	6
TAP	26	336	4
XST	27	0	2
SI_	27	0	2	96	48	7
TAP	27	0	4
TAP	27	48	4
TAP	27	96	2
TAP	27	96	4
TAP	27	144	4
TAP	27	192	4
XST	27	192	7
SI_	27	192	7	96	48	2
TAP	27	240	4
TAP	27	288	4
TAP	27	288	7
TAP	27	336	4
XST	28	0	2
SI_	28	0	2	96	48	6
TAP	28	0	4
TAP	28	48	4
TAP	28	96	2
TAP	28	96	4
TAP	28	144	4
TAP	28	192	4
XST	28	192	6
SI_	28	192	6	96	48	1
TAP	28	240	4
TAP	28	288	4
TAP	28	288	6
TAP	28	336	4
XST	29	0	1
SCL	29	0	1	96	48	6
XST	29	0	5
SCL	29	0	5	96	48	2
XHO	29	192	0	48
XHO	29	192	4	48
TAP	29	288	2
TAP	29	288	6
XTP	30	0	2
XST	30	0	5
SI_	30	0	5	96	48	0
TAP	30	48	3
TAP	30	96	3
TAP	30	96	5
TAP	30	144	3
XST	30	192	0
SI_	30	192	0	96	48	5
TAP	30	192	3
TAP	30	240	3
TAP	30	288	0
TAP	30	288	3
TAP	30	336	3
TAP	31	0	3
XST	31	0	6
SI_	31	0	6	96	48	1
TAP	31	48	3
TAP	31	96	3
TAP	31	96	6
TAP	31	144	3
XST	31	192	1
SI_	31	192	1	96	48	5
TAP	31	192	2
TAP	31	240	2
TAP	31	288	1
TAP	31	288	2
TAP	31	336	2
TAP	32	0	2
TAP	32	24	3
TAP	32	48	2
TAP	32	72	3
TAP	32	96	2
TAP	32	120	3
TAP	32	144	2
TAP	32	168	3
TAP	32	192	1
TAP	32	216	4
TAP	32	240	1
TAP	32	264	4
TAP	32	288	1
TAP	32	312	4
TAP	32	336	1
TAP	32	360	4
TAP	33	0	0
TAP	33	24	5
TAP	33	48	0
TAP	33	72	5
TAP	33	96	0
TAP	33	120	5
TAP	33	144	0
TAP	33	168	5
XTP	33	192	0
TAP	33	208	1
TAP	33	224	2
XTP	33	240	5
TAP	33	256	4
TAP	33	272	3
XTP	33	288	1
TAP	33	304	2
TAP	33	320	3
XTP	33	336	6
TAP	33	352	5
TAP	33	368	4
BRK	34	0	3
BRK	34	0	7
HLD	35	0	3	288
HLD	35	0	4	288
STR	36	0	6
SI_	36	0	6	96	48	4
STR	36	0	7
SI_	36	0	7	96	48	3
STR	36	192	0
SI_	36	192	0	96	48	4
STR	36	192	1
SI_	36	192	1	96	48	3
STR	37	0	7
SCL	37	0	7	96	96	3
STR	37	96	3
SCL	37	96	3	96	96	7
STR	37	192	7
SI_	37	192	7	96	48	2
SI_	37	192	7	96	48	4
BRK	38	0	1
BRK	38	0	5
STR	38	96	2
SI_	38	96	2	96	48	6
TAP	38	120	3
TAP	38	144	2
TAP	38	168	3
TAP	38	192	2
TAP	38	240	5
TAP	38	264	7
TAP	38	312	6
TAP	38	336	0
TAP	39	0	1
TAP	39	0	7
TAP	39	48	3
STR	39	96	5
SI_	39	96	5	96	48	1
TAP	39	120	4
TAP	39	144	5
TAP	39	168	4
TAP	39	192	5
TAP	39	240	2
TAP	39	264	0
TAP	39	312	1
TAP	39	336	7
TAP	40	0	0
TAP	40	0	6
TAP	40	48	4
STR	40	96	2
SI_	40	96	2	96	48	6
TAP	40	120	3
TAP	40	144	2
TAP	40	168	3
TAP	40	192	2
TAP	40	240	5
TAP	40	264	7
TAP	40	312	6
TAP	40	336	0
STR	41	0	1
SXR	41	0	1	96	96	3
TAP	41	0	7
TAP	41	96	5
TAP	41	144	5
TAP	41	192	4
TAP	41	240	4
TAP	41	288	3
TAP	41	288	4
STR	42	0	1
SI_	42	0	1	96	48	5
TAP	42	48	1
STR	42	96	0
SI_	42	96	0	96	48	4
TAP	42	144	0
STR	42	192	7
SI_	42	192	7	96	48	3
TAP	42	240	7
STR	42	288	6
SI_	42	288	6	96	48	2
TAP	42	336	6
STR	43	0	5
SI_	43	0	5	96	48	1
TAP	43	48	5
STR	43	96	4
SI_	43	96	4	96	48	0
TAP	43	144	4
TAP	43	192	3
TAP	43	240	3
BRK	43	288	2
BRK	43	288	7
TAP	44	0	1
TAP	44	24	0
TAP	44	48	1
TAP	44	72	0
TAP	44	96	2
TAP	44	120	7
TAP	44	144	2
TAP	44	168	7
TAP	44	192	3
TAP	44	216	6
TAP	44	240	3
TAP	44	264	6
TAP	44	288	4
TAP	44	312	5
TAP	44	336	4
TAP	44	360	5
TAP	45	0	3
TAP	45	24	6
TAP	45	48	4
TAP	45	72	5
TAP	45	96	3
TAP	45	120	6
TAP	45	144	4
TAP	45	168	5
TAP	45	192	3
TAP	45	216	4
TAP	45	240	3
TAP	45	264	4
TAP	45	288	2
TAP	45	288	5
BRK	46	0	0
STR	46	0	6
SCL	46	0	6	96	48	4
TAP	46	48	2
TAP	46	72	3
TAP	46	96	6
TAP	46	144	0
STR	46	192	6
SI_	46	192	6	96	48	2
TAP	46	240	2
TAP	46	288	6
TAP	46	336	0
STR	47	0	6
SCL	47	0	6	96	48	3
TAP	47	48	1
TAP	47	72	2
TAP	47	96	6
TAP	47	144	0
STR	47	192	6
SI_	47	192	6	96	48	3
TAP	47	240	3
TAP	47	288	6
TAP	47	336	0
STR	48	0	6
SCL	48	0	6	96	48	4
TAP	48	48	2
TAP	48	72	3
TAP	48	96	6
TAP	48	144	0
STR	48	192	6
SI_	48	192	6	96	48	2
TAP	48	240	4
TAP	48	288	6
TAP	48	336	0
TAP	49	0	1
TAP	49	0	5
TAP	49	48	1
TAP	49	48	5
TAP	49	96	3
TAP	49	96	7
TAP	49	144	3
TAP	49	144	7
STR	49	192	0
SI_	49	192	0	96	48	4
TAP	49	192	4
TAP	49	288	0
TAP	49	288	4
BRK	50	0	3
TAP	50	0	5
TAP	50	72	1
BRK	50	72	2
BRK	50	144	6
HLD	50	144	7	48
TAP	50	240	6
TAP	50	256	5
TAP	50	272	4
TAP	50	288	0
TAP	50	304	1
TAP	50	320	2
TAP	50	336	7
TAP	51	0	0
BRK	51	0	6
TAP	51	72	3
BRK	51	72	4
HLD	51	144	0	48
BRK	51	144	1
TAP	51	240	1
TAP	51	256	2
TAP	51	272	3
TAP	51	288	7
TAP	51	304	6
TAP	51	320	5
TAP	51	336	0
TAP	52	0	1
STR	52	0	3
SI_	52	0	3	96	48	7
TAP	52	72	2
TAP	52	96	3
TAP	52	144	0
STR	52	192	4
SI_	52	192	4	96	48	0
TAP	52	192	6
TAP	52	264	5
TAP	52	288	4
TAP	52	336	7
TAP	53	0	1
TAP	53	0	6
TAP	53	96	0
TAP	53	120	7
TAP	53	144	0
TAP	53	168	7
TAP	53	192	0
TAP	53	204	1
TAP	53	216	2
TAP	53	228	3
TAP	53	240	4
TAP	53	252	5
TAP	53	264	6
TAP	53	276	7
TAP	53	288	0
TAP	53	300	1
TAP	53	312	2
TAP	53	324	3
TAP	53	336	4
TAP	53	348	5
TAP	53	360	6
TAP	53	372	7
TAP	54	0	0
STR	54	0	4
SCL	54	0	4	96	1152	5
TTP	55	0	0	B	0	M1
TTP	55	192	7	B	0	M1
TTP	56	0	6	B	0	M1
STR	57	0	5
SSR	57	0	5	96	192	1
TAP	58	0	2
TAP	58	96	3
TAP	58	144	3
TAP	58	240	1
HLD	58	336	5	432
TAP	59	48	4
TAP	59	96	4
TAP	59	192	6
TAP	59	288	4
HLD	60	0	2	240
TAP	60	96	3
TAP	60	144	3
TAP	60	240	1
HLD	60	336	0	96
HLD	60	336	7	96
TAP	61	96	1
TAP	61	120	6
TAP	61	144	1
TAP	61	168	6
STR	61	192	1
SCR	61	192	1	96	48	4
TAP	61	288	1
TAP	61	288	5
BRK	62	0	6
TAP	62	24	4
TAP	62	48	5
TAP	62	72	4
HLD	62	96	5	24
BRK	62	144	2
TAP	62	168	4
TAP	62	192	3
TAP	62	216	4
HLD	62	240	3	24
BRK	62	288	5
TAP	62	312	3
TAP	62	336	4
TAP	62	360	3
HLD	63	0	4	24
BRK	63	48	1
TAP	63	72	3
TAP	63	96	2
TAP	63	120	3
HLD	63	144	2	24
BRK	63	192	6
TAP	63	216	4
TAP	63	240	5
TAP	63	264	4
HLD	63	288	6	24
BRK	63	336	2
TAP	63	360	4
TAP	64	0	3
TAP	64	24	4
HLD	64	48	2	24
BRK	64	96	5
TAP	64	120	3
TAP	64	144	4
TAP	64	168	3
HLD	64	192	5	24
BRK	64	240	1
TAP	64	264	3
TAP	64	288	2
TAP	64	312	3
HLD	64	336	1	24
TAP	65	0	6
STR	65	0	7
SI_	65	0	7	96	48	2
SI_	65	0	7	96	48	3
TAP	65	96	7
STR	65	192	0
SI_	65	192	0	96	48	4
SI_	65	192	0	96	48	5
TAP	65	192	1
TAP	65	288	0
XST	66	0	6
SF_	66	0	6	96	48	2
TAP	66	0	7
TAP	66	192	0
XST	66	192	1
SF_	66	192	1	96	48	5
BRK	67	0	3
BRK	67	0	7
HLD	68	0	3	288
HLD	68	0	4	288
HLD	69	0	2	96
TAP	69	0	3
HLD	69	96	1	96
HLD	69	192	0	96
HLD	69	288	7	96
HLD	70	0	6	96
HLD	70	96	5	96
HLD	70	192	4	96
TAP	70	288	3
HLD	71	0	2	96
TAP	71	0	4
TAP	71	96	5
TAP	71	120	4
TAP	71	144	5
TAP	71	168	4
HLD	71	192	5	96
TAP	71	288	2
TAP	71	312	3
TAP	71	336	2
TAP	71	360	3
HLD	72	0	2	96
TAP	72	96	5
TAP	72	120	4
TAP	72	144	5
TAP	72	168	4
HLD	72	192	6	96
TAP	72	288	2
TAP	72	312	3
TAP	72	336	2
TAP	72	360	3
STR	73	0	1
SLR	73	0	1	96	192	0
SLR	73	0	1	96	192	5
TAP	74	0	7
TAP	74	24	6
TAP	74	48	7
TAP	74	72	6
TAP	74	96	0
TAP	74	120	6
TAP	74	144	0
TAP	74	168	6
TAP	74	192	1
TAP	74	216	5
TAP	74	240	1
TAP	74	264	5
TAP	74	288	1
TAP	74	300	2
TAP	74	312	3
TAP	74	324	4
TAP	74	336	5
TAP	74	348	6
TAP	74	360	7
TAP	74	372	0
TTP	75	0	0	C	1	M1
BRK	75	0	1
TTP	75	192	5	B	0	M1
TTP	75	192	6	E	0	M1
TTP	75	288	1	E	0	M1
TTP	75	320	0	B	0	M1
TTP	75	352	7	B	0	M1
TTP	76	0	7	E	0	M1
TTP	76	192	1	B	0	M1
TTP	76	192	2	E	0	M1
TTP	76	288	5	E	0	M1
TTP	76	320	4	B	0	M1
TTP	76	352	3	B	0	M1
TTP	77	0	3	E	0	M1
TTP	77	192	0	B	0	M1
TTP	77	192	1	B	0	M1
TTP	77	256	4	B	0	M1
TTP	77	256	5	B	0	M1
TTP	77	320	2	B	0	M1
TTP	77	320	3	B	0	M1
THO	78	0	0	192	C	0	M1
TTP	78	0	6	B	0	M1
TTP	78	0	7	B	0	M1
TTP	78	288	0	E	0	M1
TTP	78	320	7	B	0	M1
TTP	78	352	6	B	0	M1
TTP	79	0	6	E	0	M1
TTP	79	192	4	B	0	M1
TTP	79	192	5	E	0	M1
TTP	79	288	4	E	0	M1
TTP	79	320	3	B	0	M1
TTP	79	352	2	B	0	M1
TTP	80	0	2	E	0	M1
TTP	80	192	0	B	0	M1
TTP	80	192	1	E	0	M1
TTP	80	288	0	C	0	M1
XHO	81	0	4	96
XHO	81	0	5	96
XHO	81	192	2	96
XHO	81	192	3	96
XHO	82	0	3	96
XHO	82	0	4	96
TAP	82	192	3
TAP	82	192	4
BRK	82	288	1
BRK	82	288	6
STR	83	0	1
SCR	83	0	1	96	48	3
TAP	83	0	7
TAP	83	48	5
TAP	83	72	4
TAP	83	96	1
TAP	83	144	7
STR	83	192	1
SI_	83	192	1	96	48	5
TAP	83	240	5
TAP	83	288	1
TAP	83	336	7
STR	84	0	1
SCR	84	0	1	96	48	4
TAP	84	48	6
TAP	84	72	5
TAP	84	96	1
TAP	84	144	7
STR	84	192	1
SI_	84	192	1	96	48	4
TAP	84	240	4
TAP	84	288	1
TAP	84	336	7
STR	85	0	1
SCR	85	0	1	96	48	3
TAP	85	48	5
TAP	85	72	4
TAP	85	96	1
TAP	85	144	7
STR	85	192	1
SI_	85	192	1	96	48	5
TAP	85	240	3
TAP	85	288	1
TAP	85	336	7
TAP	86	0	3
TAP	86	0	7
TAP	86	48	3
TAP	86	48	7
TAP	86	96	1
TAP	86	96	5
TAP	86	144	1
TAP	86	144	5
STR	86	192	0
SF_	86	192	0	96	48	4
TAP	86	192	4
TAP	86	288	0
BRK	87	0	6
TAP	87	24	4
TAP	87	48	5
TAP	87	72	4
TAP	87	96	5
TAP	87	120	4
HLD	87	144	6	24
BRK	87	192	1
TAP	87	216	3
TAP	87	240	2
TAP	87	264	3
TAP	87	288	2
TAP	87	312	3
HLD	87	336	1	24
BRK	88	0	6
TAP	88	24	4
TAP	88	48	5
TAP	88	72	3
TAP	88	96	5
TAP	88	120	4
HLD	88	144	6	24
BRK	88	192	1
TAP	88	216	3
TAP	88	240	2
TAP	88	264	4
TAP	88	288	2
TAP	88	312	3
HLD	88	336	1	24
STR	89	0	6
SCL	89	0	6	96	48	3
TAP	89	0	7
TAP	89	48	6
TAP	89	48	7
TAP	89	96	6
TAP	89	96	7
TAP	89	112	0
TAP	89	128	1
TAP	89	144	2
TAP	89	192	0
STR	89	192	1
SCR	89	192	1	96	48	4
TAP	89	240	0
TAP	89	240	1
TAP	89	288	0
TAP	89	288	1
TAP	89	304	7
TAP	89	320	6
TAP	89	336	5
TAP	90	0	0
TAP	90	24	7
TAP	90	48	0
TAP	90	72	7
TAP	90	96	1
TAP	90	120	6
TAP	90	144	1
TAP	90	168	6
TAP	90	192	2
TAP	90	216	5
TAP	90	240	2
TAP	90	264	5
HLD	90	288	3	96
TAP	90	336	4
TAP	90	352	5
TAP	90	368	6
BST	91	0	7
SI_	91	0	7	96	48	3
STR	91	96	1
SI_	91	96	1	96	48	4
TAP	91	96	7
TAP	91	192	1
STR	91	192	5
SI_	91	192	5	96	48	1
STR	91	288	0
SI_	91	288	0	96	48	4
TAP	91	288	5
TAP	92	0	0
STR	92	0	6
SI_	92	0	6	96	48	3
STR	92	96	2
SI_	92	96	2	96	48	6
TAP	92	96	6
TAP	92	192	2
STR	92	192	7
SI_	92	192	7	96	48	3
TAP	92	288	3
TAP	92	288	7
TAP	93	0	4
STR	93	0	5
SCR	93	0	5	96	48	0
TAP	93	96	0
TAP	93	96	5
STR	93	192	2
SCL	93	192	2	96	48	7
TAP	93	192	3
TAP	93	288	2
TAP	93	288	7
STR	94	0	4
SI_	94	0	4	96	48	6
SI_	94	0	4	96	48	7
STR	94	96	4
SI_	94	96	4	96	48	1
SI_	94	96	4	96	48	2
STR	94	192	4
SF_	94	192	4	96	48	0
TAP	94	288	4
XTP	95	0	0
XTP	95	0	6
TAP	95	48	1
TAP	95	48	6
TAP	95	96	2
TAP	95	96	6
HLD	95	144	3	96
TAP	95	144	6
TAP	95	240	4
TAP	95	264	3
TAP	95	288	2
TAP	95	312	3
TAP	95	336	4
TAP	96	0	1
TAP	96	0	7
TAP	96	48	1
TAP	96	48	6
TAP	96	96	1
TAP	96	96	5
TAP	96	144	1
HLD	96	144	4	96
TAP	96	240	3
TAP	96	264	4
TAP	96	288	5
TAP	96	312	4
TAP	96	336	3
TAP	97	0	1
TAP	97	24	7
TAP	97	48	0
TAP	97	72	7
TAP	97	96	1
TAP	97	120	7
TAP	97	144	0
TAP	97	168	7
TAP	97	192	2
TAP	97	216	7
TAP	97	240	0
TAP	97	264	7
TAP	97	288	2
TAP	97	312	7
TAP	97	336	0
TAP	97	360	7
TAP	98	0	3
TAP	98	24	7
TAP	98	48	0
TAP	98	72	7
TAP	98	96	3
TAP	98	120	7
TAP	98	144	0
TAP	98	168	7
BRK	98	192	3
TAP	98	204	4
TAP	98	216	5
TAP	98	228	6
TAP	98	240	7
TAP	98	252	0
TAP	98	264	1
TAP	98	276	2
TAP	98	288	3
TTP	98	300	4	E	0	M1
TTP	98	312	5	E	0	M1
TTP	98	324	6	E	0	M1
TTP	98	336	7	E	0	M1
TTP	98	348	0	E	0	M1
TTP	98	360	1	E	0	M1
TTP	98	372	2	E	0	M1
THO	99	0	0	192	C	1	M1
TTP	99	0	3	E	0	M1
STR	100	0	0
SI_	100	0	0	96	48	4
TAP	100	0	1
TAP	100	96	0
STR	100	96	1
SI_	100	96	1	96	48	5
STR	100	192	0
SF_	100	192	0	96	48	4
TAP	100	192	1
TAP	100	288	0
TAP	101	0	2
TAP	101	0	6
TAP	101	96	5
TAP	101	120	4
TAP	101	144	5
TAP	101	168	4
TAP	101	192	6
TAP	101	216	3
TAP	101	240	6
TAP	101	264	3
TAP	101	288	2
TAP	101	288	7
TAP	102	0	6
STR	102	0	7
SI_	102	0	7	96	48	3
STR	102	96	6
SI_	102	96	6	96	48	2
TAP	102	96	7
TAP	102	192	6
STR	102	192	7
SF_	102	192	7	96	48	3
TAP	102	288	7
TAP	103	0	1
TAP	103	0	5
TAP	103	96	2
TAP	103	120	3
TAP	103	144	2
TAP	103	168	3
TAP	103	192	1
TAP	103	216	4
TAP	103	240	1
TAP	103	264	4
TAP	103	288	0
TAP	103	288	5
STR	104	0	6
SI_	104	0	6	96	48	3
STR	104	0	7
SI_	104	0	7	96	48	3
STR	104	192	0
SI_	104	192	0	96	48	4
STR	104	192	1
SI_	104	192	1	96	48	4
XHO	105	0	3	192
XHO	105	0	5	192
TAP	105	288	5
TAP	105	312	4
TAP	105	336	5
TAP	105	360	4
TAP	106	0	5
TAP	106	24	4
TAP	106	48	5
TAP	106	72	4
TAP	106	96	5
TAP	106	108	6
TAP	106	120	7
TAP	106	132	0
TAP	106	144	1
TAP	106	156	2
TAP	106	168	3
TAP	106	180	4
TAP	106	192	5
HLD	106	192	7	96
TTP	106	300	5	E	0	M1
TTP	106	312	4	E	0	M1
TTP	106	324	3	E	0	M1
TTP	106	336	2	E	0	M1
TTP	106	348	1	E	0	M1
TTP	106	360	0	E	0	M1
TTP	106	372	7	E	0	M1
HLD	107	0	4	96
TTP	107	0	6	E	0	M1
TAP	107	96	5
TAP	107	108	6
TAP	107	120	7
TAP	107	132	0
TAP	107	144	1
TAP	107	156	2
TAP	107	168	3
TAP	107	180	4
TAP	107	192	5
BST	107	192	7
SF_	107	192	7	96	48	3
BRK	107	288	7
BRK	108	0	1
BRK	108	0	5

T_REC_TAP	693
T_REC_BRK	36
T_REC_XTP	15
T_REC_HLD	48
T_REC_XHO	12
T_REC_STR	81
T_REC_BST	4
T_REC_XST	16
T_REC_TTP	57
T_REC_THO	2
T_REC_SLD	107
T_REC_ALL	1071
T_NUM_TAP	862
T_NUM_BRK	40
T_NUM_HLD	62
T_NUM_SLD	107
T_NUM_ALL	1071
T_JUDGE_TAP	902
T_JUDGE_HLD	160
T_JUDGE_SLD	107
T_JUDGE_ALL	1169
TTM_EACHPAIRS	164
TTM_SCR_TAP	431000
TTM_SCR_BRK	104000
TTM_SCR_HLD	62000
TTM_SCR_SLD	160500
TTM_SCR_ALL	757500
TTM_SCR_S	730900
TTM_SCR_SS	753500
TTM_RAT_ACV	10053

